<?xml version="1.0" standalone="no"?>
<!DOCTYPE svg PUBLIC "-//W3C//DTD SVG 1.1//EN" "http://www.w3.org/Graphics/SVG/1.1/DTD/svg11.dtd" >
<svg xmlns="http://www.w3.org/2000/svg" xmlns:xlink="http://www.w3.org/1999/xlink" version="1.1">
<metadata></metadata>
<defs>
<font id="dimboregular" horiz-adv-x="791" >
<font-face units-per-em="2048" ascent="1638" descent="-410" />
<missing-glyph horiz-adv-x="373" />
<glyph horiz-adv-x="0" />
<glyph horiz-adv-x="682" />
<glyph unicode=" "  horiz-adv-x="373" />
<glyph unicode="&#x09;" horiz-adv-x="373" />
<glyph unicode="&#xa0;" horiz-adv-x="373" />
<glyph unicode="!" horiz-adv-x="335" d="M17 141q0 61 43 104t103 43q61 0 104 -43t43 -104q0 -60 -43 -103t-104 -43q-60 0 -103 43t-43 103zM22 1403h264q-14 -509 -19 -1006l-222 -5q-10 426 -23 1011z" />
<glyph unicode="&#x22;" horiz-adv-x="713" d="M57 1458q0 -30 63 -341h136l83 342q-1 45 -25 85q-38 65 -120 65t-116 -64q-21 -39 -21 -87zM351 1458q0 -30 63 -341h136l83 342q-1 45 -25 85q-38 65 -120 65t-116 -64q-21 -39 -21 -87z" />
<glyph unicode="#" horiz-adv-x="1309" d="M40 304l38 209h199l75 420h-199l38 209h199l54 304h209l-55 -304h263l55 304h209l-55 -304h199l-38 -209h-199l-74 -420h199l-38 -209h-199l-54 -304h-210l55 304h-262l-55 -304h-209l54 304h-199zM486 513h262l76 420h-263z" />
<glyph unicode="$" horiz-adv-x="909" d="M50 588q0 30 2 62l297 17q-6 -52 -6 -93q0 -190 113 -190h4q137 3 137 122v8q-5 126 -259 247q-247 117 -247 386v16q7 246 291 281v147h150v-145q281 -27 281 -353q0 -29 -2 -60l-261 -12q4 37 4 69q0 149 -87 149q-105 0 -115 -89q-1 -13 -1 -25q0 -74 53 -139 q61 -74 209.5 -136t207.5 -169q42 -78 42 -166q0 -33 -6 -68q-23 -126 -128 -210q-79 -62 -197 -82v-151h-150v144q-134 11 -228 97q-104 94 -104 343z" />
<glyph unicode="%" horiz-adv-x="1700" d="M50 1071v24q10 435 362 435q340 0 340 -398q0 -16 -1 -32q-14 -431 -362 -435q-4 -1 -8 -1q-331 0 -331 407zM279 1054q0 -43 6 -86q16 -106 103 -110h8q80 0 110 79q25 66 25 156q0 22 -1 45q-8 119 -48 149q-25 18 -60 18q-20 0 -43 -6q-63 -17 -86 -121 q-14 -62 -14 -124zM560 20l440 1540l170 -30l-440 -1540zM960 417v24q10 435 362 435q340 0 340 -398q0 -16 -1 -32q-14 -431 -362 -435q-4 -1 -8 -1q-331 0 -331 407zM1189 400q0 -43 6 -86q16 -106 103 -110h8q80 0 110 79q25 66 25 156q0 22 -1 45q-8 119 -48 149 q-25 18 -60 18q-20 0 -43 -6q-63 -17 -86 -121q-14 -62 -14 -124z" />
<glyph unicode="&#x26;" horiz-adv-x="936" d="M25 404q0 60 10 110q18 90 64.5 143.5t139.5 67.5q-112 37 -161 110q-44 65 -44 207v30q5 164 71.5 258t177.5 121q57 14 120 14q62 0 130 -13q139 -26 201 -136q47 -86 47 -245q0 -46 -4 -99l-252 -11q1 27 1 51q0 203 -105 210h-13q-106 0 -115 -128q-2 -22 -2 -43 q0 -107 45 -174q46 -72 171 -72q15 0 32 1l-12 -190q-143 0 -204 -78q-46 -58 -46 -137q0 -28 6 -59q21 -110 143 -110q8 0 17 1q102 6 102 183q0 63 -13 147l364 16l5 -204l-110 -7v-4q0 -199 -104 -289q-102 -88 -271 -88h-15q-181 4 -267.5 95t-101.5 216q-7 57 -7 106z " />
<glyph unicode="'" horiz-adv-x="381" d="M40 1281q111 32 129 123q-77 26 -101 62t-24 81t19 79.5t54.5 52.5t70.5 19h2q33 0 64 -12q31 -13 50.5 -39t27.5 -55.5t9 -70.5v-4q0 -40 -11 -88q-11 -51 -38 -97t-78.5 -87.5t-153.5 -49.5z" />
<glyph unicode="(" horiz-adv-x="553" d="M47 800q0 500 253 900h200q-200 -400 -200 -900q0 -600 200 -1000h-200q-248 400 -253 1000z" />
<glyph unicode=")" horiz-adv-x="553" d="M47 -200q200 400 200 1000q0 500 -200 900h200q253 -400 253 -900q-5 -600 -253 -1000h-200z" />
<glyph unicode="*" horiz-adv-x="640" d="M40 1328l51 162l157 -67l-9 173h168l-16 -177l180 68l29 -152l-164 -49l110 -147l-133 -78l-93 168l-94 -174l-139 78l123 160z" />
<glyph unicode="+" horiz-adv-x="920" d="M40 630v250h290v290h250v-290h300v-250h-300v-300h-250v300h-290z" />
<glyph unicode="," horiz-adv-x="381" d="M40 -79q111 32 129 123q-77 26 -101 62t-24 81t19 79.5t54.5 52.5t70.5 19h2q33 0 64 -12q31 -13 50.5 -39t27.5 -55.5t9 -70.5v-4q0 -40 -11 -88q-11 -51 -38 -97t-78.5 -87.5t-153.5 -49.5z" />
<glyph unicode="-" horiz-adv-x="580" d="M40 620v250h500v-250h-500z" />
<glyph unicode="." horiz-adv-x="373" d="M40 141q0 61 43 104t103 43q61 0 104 -43t43 -104q0 -60 -43 -103t-104 -43q-60 0 -103 43t-43 103z" />
<glyph unicode="/" horiz-adv-x="600" d="M0 -80l421 1750l176 -50l-431 -1750z" />
<glyph unicode="0" horiz-adv-x="996" d="M66 740q0 694 451 694q395 0 395 -720q0 -721 -423 -721t-423 747zM336 655q0 -395 163 -395q172 0 172 447t-161 447t-173 -447q-1 -27 -1 -52z" />
<glyph unicode="1" horiz-adv-x="996" d="M175 1245l278 176l268 -5q-7 -472 -7 -939q0 -234 2 -467l-248 -13q-7 601 -17 1113q-84 -17 -228 -84z" />
<glyph unicode="2" horiz-adv-x="1004" d="M125 270q272 294 388 452q106 145 106 285v25q-11 150 -126 150h-4q-100 -3 -100 -182q0 -34 3 -73l-250 5q-5 60 -5 111q0 179 65 258q83 101 212 121q46 7 90 7q79 0 152 -22q114 -35 172 -138q47 -86 47 -220q0 -26 -1 -55q-12 -172 -103.5 -316.5t-316.5 -413.5 l437 -3l-3 -251q-287 -13 -740 -13z" />
<glyph unicode="3" horiz-adv-x="1004" d="M115 472v6l259 15q-1 -17 -1 -33q0 -210 110 -217q8 -1 15 -1q104 0 125 110q6 31 6 59q0 79 -45 137q-62 78 -205 78l-12 190q17 -1 32 -1q125 0 172 72q44 67 44 174q0 21 -2 43q-9 128 -115 128h-13q-105 -7 -105 -210q0 -24 1 -51l-252 11q-4 53 -4 99q0 159 48 245 q61 110 200 136q68 13 130 13q63 0 120 -14q111 -27 177.5 -121t71.5 -258v-30q0 -142 -44 -207q-49 -73 -161 -110q93 -14 139.5 -67.5t64.5 -143.5q10 -50 10 -110q0 -49 -7 -106q-15 -125 -101.5 -216t-266.5 -95h-16q-169 0 -270 88q-105 90 -105 387z" />
<glyph unicode="4" horiz-adv-x="1004" d="M88 666q172 376 398 778l322 -18l-4 -772l141 -3v-239h-137v-421l-242 9l3 417l-460 10zM342 656l231 -5l3 516q-110 -254 -234 -511z" />
<glyph unicode="5" horiz-adv-x="1004" d="M118 397q0 18 1 38l235 20q0 -219 138 -219q137 0 149 131q5 61 5 123q0 71 -7 143q-13 131 -108 131h-6q-102 -5 -148 -159l-243 6l28 829l672 12l3 -243l-445 -9l-18 -340q46 133 167 152q29 5 57 5q87 0 160 -46q96 -60 120 -286q8 -77 8 -151q0 -140 -30 -265 q-46 -191 -180 -237q-95 -33 -191 -33q-39 0 -79 6q-136 19 -215 117q-73 89 -73 275z" />
<glyph unicode="6" horiz-adv-x="1004" d="M111 718q0 58 4 119q12 236 60 384.5t143 211.5q93 61 212 61h6q122 -2 206.5 -79t109.5 -210q16 -88 16 -173q0 -45 -4 -88h-224q2 35 2 65q0 187 -69 205q-18 4 -34 4q-58 0 -97 -59q-51 -76 -63 -210q-9 -91 -9 -167q0 -36 2 -68q78 147 226 147h2q149 -1 227 -109.5 t83 -249.5v-25q0 -129 -44 -257q-48 -140 -151 -186q-75 -35 -169 -35q-34 0 -71 5q-137 17 -219 126t-118 290q-27 133 -27 298zM392 524q2 -132 34.5 -197.5t96.5 -75.5q10 -2 21 -2q50 0 89 41q43 45 43 162v20q-4 133 -93 156q-14 3 -28 3q-77 0 -163 -107z" />
<glyph unicode="7" horiz-adv-x="1004" d="M149 1118l10 250q363 6 698 9v-254q-278 -570 -322 -1131l-237 27q44 543 289 1102z" />
<glyph unicode="8" horiz-adv-x="1012" d="M117 364q0 151 58 241q62 96 153 121q-67 27 -136 107.5t-71 231.5v9q0 144 60 252q61 110 200 136q68 13 130 13q63 0 120 -14q111 -27 177.5 -121t71.5 -248v-29q0 -134 -44 -208q-49 -83 -141 -130q136 -61 169 -176q23 -80 23 -164q0 -38 -5 -77 q-15 -125 -101.5 -216t-266.5 -95h-16q-169 0 -270 88q-106 91 -110 257q-1 11 -1 22zM376 415q0 -30 6 -58q14 -66 53 -94q28 -21 65 -21q14 0 30 3q56 10 81.5 48.5t29.5 106.5q1 8 1 17q0 58 -24 110q-28 60 -112 97q-102 -54 -120 -128q-10 -42 -10 -81zM386 1074 q0 -24 4 -52q14 -103 114 -146q104 45 121 145q7 38 7 70q0 50 -17 84q-27 55 -95 59h-9q-62 0 -97 -52q-28 -42 -28 -108z" />
<glyph unicode="9" horiz-adv-x="1004" d="M91 971q0 173 49 302q53 140 166 187q83 34 173 34q33 0 67 -5q127 -17 209 -126t118 -289q27 -134 27 -299q0 -58 -3 -118q-13 -237 -61 -385.5t-143 -210.5q-93 -62 -221 -62q-3 0 -6 1q-133 1 -227 98q-92 94 -92 336v15h224q-2 -23 -2 -44q0 -111 60 -145 q29 -18 58 -18q40 0 78 33q65 55 73 180q4 69 4 130q0 50 -3 94q-78 -147 -226 -147q-1 0 -1 1q-150 0 -233 108.5t-87 300.5q-1 14 -1 29zM335 951q4 -173 114 -185q10 -2 21 -2q95 0 159 105q1 34 1 64q0 143 -30 214q-38 85 -101 95q-9 1 -17 1q-54 0 -99 -55 q-48 -59 -48 -213v-24z" />
<glyph unicode=":" horiz-adv-x="373" d="M40 141q0 61 43 104t103 43q61 0 104 -43t43 -104q0 -60 -43 -103t-104 -43q-60 0 -103 43t-43 103zM40 902q0 61 43 104t103 43q61 0 104 -43t43 -104q0 -60 -43 -103t-104 -43q-60 0 -103 43t-43 103z" />
<glyph unicode=";" horiz-adv-x="381" d="M40 -139q111 32 129 123q-77 26 -101 62t-24 81t19 79.5t54.5 52.5t70.5 19h2q33 0 64 -12q31 -13 50.5 -39t27.5 -55.5t9 -70.5v-4q0 -40 -11 -88q-11 -51 -38 -97t-78.5 -87.5t-153.5 -49.5zM40 892q0 61 43 104t103 43q61 0 104 -43t43 -104q0 -60 -43 -103t-104 -43 q-60 0 -103 43t-43 103z" />
<glyph unicode="&#x3c;" horiz-adv-x="780" d="M40 700v200l700 450v-300l-420 -250l420 -250v-300z" />
<glyph unicode="=" horiz-adv-x="880" d="M40 420v250h800v-250h-800zM40 920v250h800v-250h-800z" />
<glyph unicode="&#x3e;" horiz-adv-x="780" d="M40 250v300l420 250l-420 250v300l700 -450v-200z" />
<glyph unicode="?" horiz-adv-x="855" d="M67 1063q0 179 65 258q83 101 212 121q46 7 90 7q79 0 152 -22q114 -35 172 -138q51 -93 51 -237v-33q-7 -167 -68.5 -276.5t-186.5 -158.5l-3 -183l-213 -4l-3 333q162 24 198 142q25 82 25 160q0 33 -4 65q-16 105 -130 105h-5q-100 -3 -100 -182q0 -34 3 -73l-250 5 q-5 60 -5 111zM307 141q0 61 43 104t103 43q61 0 104 -43t43 -104q0 -60 -43 -103t-104 -43q-60 0 -103 43t-43 103z" />
<glyph unicode="@" horiz-adv-x="1454" d="M36 553q0 117 16 241q47 364 243 493q188 124 456 124h21q282 -5 443.5 -147t192.5 -489q9 -111 9 -208q0 -208 -44 -354q-65 -216 -310 -243q-29 -4 -55 -4q-193 0 -209 182q-90 -106 -185 -109q-7 -1 -13 -1q-87 0 -151 43q-70 45 -107 140t-46 223q-4 47 -4 95 q0 81 10 165q16 132 83 233.5t213 109.5h18q133 0 202 -105l6 154l216 4q-1 -325 -1 -535q0 -350 3 -379q5 -46 41 -46q1 0 3 1q38 1 93 70.5t68 262.5q3 46 3 95q0 150 -30 316q-41 218 -170 285.5t-313 71.5h-18q-172 0 -290 -72q-124 -77 -168 -241t-48 -366 q-1 -19 -1 -38q0 -179 40 -327q43 -163 198 -262q100 -64 320 -64q118 0 270 18l12 -166q-158 -20 -289 -20q-213 0 -352 53q-226 84 -316 379q-60 193 -60 417zM531 514q0 -199 74 -244q25 -16 53 -16q62 0 136 76v406q-49 99 -124 99q-15 0 -31 -4q-97 -23 -107 -267 q-1 -26 -1 -50z" />
<glyph unicode="A" horiz-adv-x="960" d="M-18 20q188 854 304 1448l375 6q138 -618 316 -1408l-256 -52l-81 379h-311l-84 -409zM308 667l324 7q-52 216 -170 517q-91 -253 -154 -524z" />
<glyph unicode="B" horiz-adv-x="917" d="M47 1459q170 18 298 18q235 0 326 -61q140 -94 158 -254q4 -41 4 -79q0 -109 -37 -189q-51 -109 -181 -156q145 -22 208 -105q53 -70 53 -200q0 -25 -2 -52q-12 -170 -107.5 -254t-265.5 -115q-96 -17 -225 -17q-101 0 -221 10q4 279 4 549q0 466 -12 905zM312 1229 l7 -429q186 10 236 127q27 62 27 122q0 50 -20 99q-35 85 -179 85q-32 0 -71 -4zM331 259q23 -1 44 -1q186 0 235 102q27 57 27 103q0 45 -26 79q-43 55 -200 55q-37 0 -80 -3v-335z" />
<glyph unicode="C" horiz-adv-x="885" d="M18 738q0 724 396 724q373 0 373 -484q0 -29 -1 -60l-222 -1v27q0 235 -132 235q-141 0 -141 -434q0 -489 148 -489h1q148 1 148 240v99h248v-75q0 -498 -409 -521q-12 -1 -24 -1q-385 0 -385 740z" />
<glyph unicode="D" horiz-adv-x="875" d="M48 18q2 337 2 694q0 358 -2 735q115 14 212 14q270 0 398 -108q174 -148 182 -547v-72q0 -342 -66 -488q-73 -161 -267 -214q-112 -31 -246 -31q-100 0 -213 17zM279 525q0 -116 2 -228q35 -8 67 -8q88 0 148 61q82 82 82 368v4q-1 288 -80 378q-61 68 -145 68 q-27 0 -57 -7q-17 -329 -17 -636z" />
<glyph unicode="E" horiz-adv-x="798" d="M48 1370q226 9 635 20v-282l-395 16v-328l355 10l9 -271h-317v-254h415v-284l-692 10q11 281 11 566q0 395 -21 797z" />
<glyph unicode="F" horiz-adv-x="731" d="M48 1370q226 10 635 21v-282l-395 15v-375l355 9l9 -271h-317v-493l-277 13q11 281 11 566q0 395 -21 797z" />
<glyph unicode="G" horiz-adv-x="981" d="M30 610q0 51 3 107q35 721 459 751q21 1 40 1q353 0 353 -476q0 -40 -3 -84l-227 -2q-5 254 -128 267h-18q-110 0 -178 -145t-68 -411v-44q6 -298 209 -298q140 0 140 228q0 23 -1 47l-199 -3l10 225l511 -8v-245l-102 -2q0 -522 -416 -522q-385 0 -385 614z" />
<glyph unicode="H" horiz-adv-x="904" d="M48 22q12 367 12 718q0 350 -12 684h261l-11 -583l285 -12v619l273 -24q-12 -673 -23 -1450h-227v583h-285v-536z" />
<glyph unicode="I" horiz-adv-x="381" d="M48 1362l285 24q-11 -679 -12 -1379l-249 -23q0 734 -24 1378z" />
<glyph unicode="J" horiz-adv-x="912" d="M54 557v42l263 18q-1 -29 -1 -55q0 -223 54 -270q33 -31 71 -31q30 0 62 18q70 39 70 273v23q-4 255 -22 828l285 17q7 -281 7 -496q0 -535 -44 -667q-62 -187 -204 -232q-85 -27 -165 -27q-54 0 -106 13q-129 30 -189.5 129.5t-71.5 210.5q-9 93 -9 206z" />
<glyph unicode="K" horiz-adv-x="904" d="M38 35q7 532 7 1338l250 20l-4 -625q167 322 309 589l280 -16q-141 -262 -386 -647q124 -255 373 -703l-318 -4q-92 233 -272 586v-534z" />
<glyph unicode="L" horiz-adv-x="842" d="M28 1457l301 27q-18 -521 -18 -893q0 -148 3 -273l446 22l7 -326l-714 -16q1 132 1 263q0 601 -26 1196z" />
<glyph unicode="M" horiz-adv-x="1307" d="M34 1464l362 9l233 -1036l171 960l456 -5q-12 -325 -12 -656q0 -369 15 -747l-291 -20q0 398 -9 973l-163 -879l-310 -21l-200 948l-4 -960l-244 -17q7 329 7 653q0 404 -11 798z" />
<glyph unicode="N" horiz-adv-x="947" d="M48 1360l294 14l270 -753q-4 388 -22 794l309 4q-46 -613 -46 -1238q0 -84 1 -168l-271 -3l-288 806q13 -446 24 -829l-267 -18q12 342 12 666q0 374 -16 725z" />
<glyph unicode="O" horiz-adv-x="952" d="M26 740q0 694 481 694q421 0 421 -720q0 -721 -451 -721t-451 747zM306 637q0 -377 176 -377q187 0 187 427t-174 427q-175 0 -188 -427q-1 -26 -1 -50z" />
<glyph unicode="P" horiz-adv-x="879" d="M48 1402q171 24 302 24q206 0 310 -60q161 -93 161 -381v-33q-10 -316 -143 -404.5t-328 -94.5q-1 -31 -1 -64q0 -166 17 -393l-310 -6q6 263 6 538q0 422 -14 874zM312 1170l7 -489q186 10 218 133q15 56 15 115q0 69 -20 142q-30 107 -150 107q-32 0 -70 -8z" />
<glyph unicode="Q" horiz-adv-x="957" d="M31 739q0 694 481 694q421 0 421 -721q0 -341 -101 -521q58 -77 114 -147l-145 -164q-51 77 -110 163q-88 -52 -209 -52q-451 0 -451 748zM311 635q0 -377 176 -377q25 0 47 8q-62 88 -131 183l143 157q54 -83 106 -161q22 96 22 240q0 428 -174 428q-175 0 -188 -428 q-1 -26 -1 -50z" />
<glyph unicode="R" horiz-adv-x="895" d="M48 1497q155 16 278 16q342 0 436 -125q88 -117 88 -258q0 -64 -17 -132q-58 -220 -244 -279q130 -18 197 -140q64 -118 64 -594v-43l-302 -4q5 126 5 226q0 303 -49 371q-56 76 -133 76q-15 0 -31 -3q6 -305 26 -578l-310 -6q6 286 6 576q0 444 -14 897zM312 1304 l7 -428q186 9 236 126q27 62 27 121q0 51 -20 100q-36 85 -179 85q-33 0 -71 -4z" />
<glyph unicode="S" horiz-adv-x="909" d="M50 524q0 36 2 75l297 20q-6 -62 -6 -112q0 -227 113 -227h4q137 4 137 146v9q-5 151 -259 296q-247 140 -247 462q0 10 1 20q7 337 378 343h8q335 0 335 -427q0 -34 -2 -72l-261 -15q4 45 4 83q0 179 -87 179q-105 0 -115 -107q-1 -15 -1 -30q0 -89 53 -166 q61 -89 209.5 -163t207.5 -203q42 -93 42 -198q0 -40 -6 -82q-23 -151 -128 -250.5t-282 -108.5q-12 -1 -24 -1q-161 0 -269 118q-104 113 -104 411z" />
<glyph unicode="T" horiz-adv-x="835" d="M48 1142v263q147 -4 291 -4q224 0 439 9l9 -280h-252q0 -711 15 -1128l-282 -14q22 710 32 1158z" />
<glyph unicode="U" horiz-adv-x="912" d="M48 1463h266q-10 -226 -10 -531q0 -214 5 -468q2 -186 134 -186q0 -1 1 -1q131 0 131 238l-5 922l294 9v-989q0 -457 -418 -457h-22q-350 40 -362 383q0 685 -14 1080z" />
<glyph unicode="V" horiz-adv-x="913" d="M-25 1403l292 30l171 -1096q131 575 214 1041l277 -34q-210 -907 -313 -1339l-352 -11q-122 674 -289 1409z" />
<glyph unicode="W" horiz-adv-x="1337" d="M-42 1376l300 19l91 -989l155 869l361 4l103 -866l89 947l300 -39q-108 -654 -204 -1322l-364 -19l-119 959l-184 -978l-342 14q-77 680 -186 1401z" />
<glyph unicode="X" horiz-adv-x="913" d="M-4 1380l287 43l181 -530l166 529l267 -13q-75 -216 -236 -683q90 -290 245 -729l-281 -28l-168 560l-169 -536l-284 40q106 284 257 693z" />
<glyph unicode="Y" horiz-adv-x="835" d="M-37 1409l282 29l191 -558q129 402 207 599h273q-245 -603 -352 -873v-589l-260 -12l11 620q-228 482 -352 784z" />
<glyph unicode="Z" horiz-adv-x="826" d="M41 292q290 502 434 832l-424 -2l14 260q473 6 685 6v-263q-264 -513 -432 -858q116 -3 220 -3q121 0 226 4l10 -279q-265 11 -712 11z" />
<glyph unicode="[" horiz-adv-x="553" d="M53 -200v1900h450v-250h-200v-1400h200v-250h-450z" />
<glyph unicode="\" horiz-adv-x="600" d="M-10 1620l180 50l430 -1750l-170 -50z" />
<glyph unicode="]" horiz-adv-x="553" d="M53 50h200v1400h-200v250h450v-1900h-450v250z" />
<glyph unicode="^" horiz-adv-x="980" d="M40 1140l300 600h300l300 -600h-250l-200 400l-200 -400h-250z" />
<glyph unicode="_" horiz-adv-x="694" d="M-8 -150h700v-200h-700v200z" />
<glyph unicode="`" horiz-adv-x="395" d="M18 1436l164 130q75 -126 192 -265l-120 -120q-130 151 -236 255z" />
<glyph unicode="a" horiz-adv-x="796" d="M37 294q0 28 3 60q20 237 337 237q61 0 134 -9v116q0 141 -89 141h-4q-7 1 -13 1q-97 0 -97 -158v-15l-238 20q0 349 336 349h21q329 -18 329 -331v-710l-233 -4l-8 95q-72 -82 -191 -82q-51 0 -110 16q-177 44 -177 274zM289 301q0 -40 32 -71q25 -24 65 -24 q51 0 125 40v176q-43 9 -78 9q-91 0 -124 -61q-20 -37 -20 -69z" />
<glyph unicode="b" horiz-adv-x="835" d="M46 1365h266q-11 -301 -11 -523q53 95 135 111q14 1 27 1q326 0 333 -471v-18q0 -472 -347 -472q-83 0 -157 111l-8 -153l-237 1q5 366 5 704q0 371 -6 709zM296 309q52 -106 132 -106q9 0 18 1q92 13 102 247q1 24 1 46q0 192 -78 229q-24 11 -47 11q-63 0 -123 -82z " />
<glyph unicode="c" horiz-adv-x="730" d="M30 481v30q10 516 338 521h8q302 0 302 -346q0 -20 -1 -40l-215 -16v24q0 182 -103 182q-105 0 -105 -295v-33q6 -319 106 -319h6q87 7 87 133q0 27 -4 60l238 -15q0 -361 -333 -366q-4 -1 -7 -1q-317 0 -317 481z" />
<glyph unicode="d" horiz-adv-x="835" d="M46 463q0 10 1 20q6 471 304 471q12 0 25 -1q102 -6 165 -111q0 222 -11 523h266q-6 -338 -6 -709q0 -338 5 -704l-237 -1l-8 153q-74 -111 -197 -111q-307 0 -307 470zM293 491q0 -22 1 -45q10 -229 102 -242q9 -1 18 -1q80 0 132 106l-5 346q-58 79 -119 79 q-25 0 -50 -13q-79 -41 -79 -230z" />
<glyph unicode="e" horiz-adv-x="747" d="M30 451v30q10 516 335 516q347 0 347 -461q0 -56 -5 -120h-447q0 -257 99 -257h7q87 7 87 133q0 27 -4 60l238 5q0 -381 -333 -386q-4 -1 -7 -1q-317 0 -317 481zM236 600h226v24q0 182 -103 182q-111 0 -123 -206z" />
<glyph unicode="f" horiz-adv-x="699" d="M28 984l158 7q-2 27 -2 55q0 94 19 193q23 129 140 206q87 58 220 58q44 0 94 -7l-2 -219q-30 4 -56 4q-83 0 -122 -41q-43 -43 -43 -168q0 -30 3 -66l214 3v-203l-220 -14q8 -328 8 -620q0 -88 -1 -172l-254 -11q3 333 10 788l-162 -8z" />
<glyph unicode="g" horiz-adv-x="827" d="M43 495v7q2 508 353 511q96 0 172 -112l3 159l219 -10q0 -825 -5 -1022t-59.5 -316t-185.5 -152q-69 -18 -137 -18q-61 0 -121 14q-128 30 -176 113q-40 68 -40 178q0 22 2 47l235 13q-1 -12 -1 -24q0 -109 87 -119q14 -2 26 -2q75 0 107 60q28 54 28 202q0 40 -2 88 q-56 -112 -208 -122q-297 3 -297 505zM283 474q0 -199 74 -244q25 -16 53 -16q62 0 136 76v406q-49 99 -124 99q-15 0 -31 -4q-97 -23 -107 -267q-1 -26 -1 -50z" />
<glyph unicode="h" d="M34 1403l244 10l10 -563q42 130 196 132h3q152 0 216 -138q44 -94 44 -440q0 -170 -11 -402h-252q13 309 13 479q0 85 -3 136q-10 150 -86 150t-98 -80l10 -725l-245 -2q0 460 -41 1443z" />
<glyph unicode="i" horiz-adv-x="335" d="M27 1257q0 60 43 103t103 43q61 0 104 -43t43 -103q0 -61 -43 -104t-104 -43q-60 0 -103 43t-43 104zM45 1006l252 15q-12 -408 -12 -811q0 -108 1 -215h-234q-7 585 -7 1011z" />
<glyph unicode="j" horiz-adv-x="335" d="M-187 -163q42 -7 76 -7q95 0 131 55q47 73 47 305v10q-1 239 -19 797l246 18q4 -305 4 -529q0 -281 -6 -437q-10 -280 -118 -380q-95 -88 -277 -88q-27 0 -56 2zM27 1267q0 60 43 103t103 43q61 0 104 -43t43 -103q0 -61 -43 -104t-104 -43q-60 0 -103 43t-43 104z" />
<glyph unicode="k" horiz-adv-x="808" d="M48 5q7 532 7 1338l230 20l-4 -775q137 212 259 409l230 -26q-181 -252 -316 -477q114 -205 313 -533l-248 -24q-112 243 -252 456v-384z" />
<glyph unicode="l" horiz-adv-x="367" d="M68 1432l245 4q-4 -245 -4 -503q0 -445 12 -926l-249 -23q4 331 4 637q0 430 -8 811z" />
<glyph unicode="m" horiz-adv-x="1140" d="M18 979l183 19l4 -160q54 115 125 143q42 16 85 16q32 0 64 -8q78 -20 111 -160q26 109 90 145.5t142 37.5h4q76 0 146 -37q71 -38 108.5 -142.5t39.5 -286.5v-581l-216 -5q13 329 13 560t-88 249q-13 2 -25 2q-70 0 -108 -90q-6 -104 -6 -243q0 -189 11 -441l-250 -2 q14 387 14 564v12q-1 175 -69 184h-13q-61 0 -118 -70l2 -732l-236 -9v164q0 436 -13 871z" />
<glyph unicode="n" horiz-adv-x="786" d="M40 993l184 20l10 -163q42 130 221 132h4q176 0 240 -138q44 -94 44 -440q0 -170 -11 -402h-242q13 309 13 479q0 85 -3 136q-10 150 -96 150t-108 -80l10 -725l-235 -2q0 460 -31 1033z" />
<glyph unicode="o" horiz-adv-x="747" d="M20 463v28q10 516 362 516q340 0 340 -472q0 -19 -1 -38q-14 -511 -362 -516q-4 -1 -8 -1q-331 0 -331 483zM249 447q0 -57 6 -115q16 -144 103 -149h7q81 0 111 107q25 89 25 211q0 30 -1 61q-8 161 -48 201q-25 24 -60 24q-20 0 -43 -8q-63 -22 -86 -163 q-14 -84 -14 -169z" />
<glyph unicode="p" horiz-adv-x="835" d="M46 -439q6 337 6 717q0 346 -5 726l237 1l8 -154q74 112 197 112q307 0 307 -485v-20q-7 -486 -306 -486q-12 0 -24 1q-102 5 -165 111q0 -222 11 -523h-266zM296 646l5 -376q58 -79 117 -79q24 0 48 14q73 40 73 239q0 24 -1 50q-10 244 -97 257q-9 1 -17 1 q-76 0 -128 -106z" />
<glyph unicode="q" horiz-adv-x="835" d="M41 487q0 506 352 506q103 0 177 -112l8 154l217 -1q-5 -395 -5 -748q0 -388 6 -725l-251 -20q1 321 1 543q-58 -106 -210 -111q-293 0 -294 510q-1 2 -1 4zM283 454q0 -199 74 -244q25 -16 53 -16q62 0 136 76v406q-49 99 -124 99q-15 0 -31 -4q-97 -23 -107 -267 q-1 -26 -1 -50z" />
<glyph unicode="r" horiz-adv-x="759" d="M40 1033l184 20l10 -163q42 120 196 137q23 2 44 2q121 0 184 -79q73 -94 74 -299l-222 -22q1 17 1 33q0 160 -83 160h-4q-96 -5 -118 -95l10 -725l-245 -2q0 460 -31 1033z" />
<glyph unicode="s" horiz-adv-x="710" d="M28 345l229 11v-13q0 -154 95 -156h4q92 0 92 89v7q-4 98 -181.5 158t-213.5 202q-13 50 -13 96q0 84 43 156q66 110 200 126q36 4 70 4q89 0 157 -31q93 -43 129 -123q24 -55 24 -122q0 -32 -5 -66l-214 -5q3 25 3 46q0 100 -64 107q-7 1 -14 1q-66 0 -89 -67 q-8 -23 -8 -42q0 -47 44 -81q62 -48 183.5 -97.5t163.5 -168.5q15 -45 15 -90q0 -76 -44 -153q-70 -123 -217 -143q-32 -5 -63 -5q-110 0 -204 57q-120 73 -122 303z" />
<glyph unicode="t" horiz-adv-x="671" d="M40 1012l168 -2l-1 316l227 15v-331l191 5l3 -189l-194 -9v-455q0 -159 135 -159q28 0 61 7l-9 -220q-48 -6 -91 -6q-316 0 -322 326v489l-164 -10z" />
<glyph unicode="u" horiz-adv-x="786" d="M39 606q0 176 11 415h243q-20 -336 -20 -517q0 -91 5 -142q15 -156 101 -156t108 81l-10 694l235 2q0 -430 31 -1002l-184 -21l-10 163q-42 -130 -226 -131q-2 -1 -3 -1q-182 0 -241 164q-40 109 -40 451z" />
<glyph unicode="v" horiz-adv-x="755" d="M0 990l243 13l123 -727q96 408 153 744l239 -30q-113 -419 -263 -990l-269 -4q-126 579 -226 994z" />
<glyph unicode="w" horiz-adv-x="1168" d="M-22 1001l243 36l97 -757l126 700l279 10l143 -648l92 695l221 -20q-92 -479 -166 -1009l-296 -13l-107 686l-168 -676l-270 -13q-97 490 -194 1009z" />
<glyph unicode="x" horiz-adv-x="812" d="M22 15q107 243 202 478l-196 473l263 40l105 -393l104 396l264 -31q-92 -195 -196 -475q92 -242 203 -495l-258 -28l-126 385l-120 -382z" />
<glyph unicode="y" horiz-adv-x="803" d="M38 1021l262 21q-9 -300 -9 -494q0 -73 2 -131q4 -214 96 -220q6 -1 11 -1q82 0 104 94q12 55 12 261q0 165 -8 426l246 18q4 -305 4 -524q0 -273 -6 -412q-10 -250 -143 -380q-120 -118 -337 -118q-25 0 -51 2l-28 244q19 -1 37 -1q168 0 230 59q64 61 64 196v16 q-57 -90 -175 -90h-14q-129 6 -200 101.5t-77.5 268t-19.5 664.5z" />
<glyph unicode="z" horiz-adv-x="685" d="M30 186l373 635q-179 0 -353 -13l-5 214q88 -2 197 -2q175 0 405 5l5 -204l-356 -600h356l-3 -219q-251 0 -611 -10z" />
<glyph unicode="{" horiz-adv-x="830" d="M40 620v250q250 0 250 150v280q0 400 400 400h100v-250h-100q-150 0 -150 -150v-300q0 -200 -200 -250q200 -50 200 -250v-300q0 -150 150 -150h100v-250h-100q-400 0 -400 400v270q0 150 -250 150z" />
<glyph unicode="|" horiz-adv-x="330" d="M40 -200v1900h250v-1900h-250z" />
<glyph unicode="}" horiz-adv-x="830" d="M40 50h100q150 0 150 150v300q0 200 200 250q-200 50 -200 250v300q0 150 -150 150h-100v250h100q400 0 400 -400v-280q0 -150 250 -150v-250q-250 0 -250 -150v-270q0 -400 -400 -400h-100v250z" />
<glyph unicode="~" horiz-adv-x="883" d="M50 614q0 366 244 366q122 0 189 -91q56 -77 103 -77q10 0 19 4q55 18 55 164h183q0 -366 -244 -366q-122 0 -195 92q-61 76 -105 76q-9 0 -17 -3q-49 -19 -49 -165h-183z" />
<glyph unicode="&#xa1;" horiz-adv-x="335" d="M27 953q0 60 43 103t104 43q60 0 103 -43t43 -103q0 -61 -43 -104t-103 -43q-61 0 -104 43t-43 104zM51 -309q14 509 19 1006l222 5q10 -426 23 -1011h-264z" />
<glyph unicode="&#xa2;" horiz-adv-x="730" d="M20 971v30q8 444 253 509v190h150v-182q245 -31 245 -343q0 -19 -1 -39l-215 -16v24q0 182 -103 182q-105 0 -105 -295v-33q6 -319 106 -319h6q87 7 87 133q0 27 -4 60l238 -15q0 -315 -254 -359v-198h-150v195q-253 46 -253 476z" />
<glyph unicode="&#xa3;" horiz-adv-x="919" d="M40 530v220h102q-19 101 -20 210v9q0 175 77 295q79 122 210 146q53 9 101 9q69 0 125 -19q96 -34 157 -146q49 -92 49 -231q0 -32 -3 -67l-238 -6v28q0 207 -94 207h-11q-110 -14 -110 -199v-10q2 -118 12 -226h293v-220h-267v-11q0 -124 -45 -267q39 -4 80 -4 q164 0 347 65l74 -248q-189 -64 -348 -71q-65 -3 -159 -3q-133 0 -322 6l-7 253l144 -1q20 94 20 179q0 53 -8 102h-159z" />
<glyph unicode="&#xa4;" horiz-adv-x="1012" d="M14 1004l103 125l173 -143l-103 -125zM92 314l142 173l126 -101l-142 -174zM122 675q0 46 7 92q24 138 115 244q83 96 251 96q15 0 32 -1q192 -9 263 -102t84 -266q3 -38 3 -74q0 -124 -36 -213q-48 -116 -198 -159q-68 -19 -135 -19q-81 0 -162 29q-146 52 -193 190 q-31 91 -31 183zM268 669q0 -55 18 -108q27 -87 120 -123q54 -21 109 -21q39 0 77 10q94 25 126 102q26 61 26 144q0 22 -2 46q-9 112 -60.5 172.5t-167.5 64.5h-12q-106 0 -156 -62q-53 -67 -70 -156q-8 -35 -8 -69zM658 1033l142 174l126 -102l-142 -173zM729 433l103 125 l173 -143l-104 -125z" />
<glyph unicode="&#xa5;" horiz-adv-x="1033" d="M40 1479l282 29l191 -558q129 402 207 599h273q-203 -499 -311 -769h275v-170h-316v-130h316v-170h-316v-223l-260 -12l4 235h-328v170h331l2 130h-333v170h295q-199 424 -312 699z" />
<glyph unicode="&#xa6;" horiz-adv-x="330" d="M40 -399v817h250v-817h-250zM40 679v817h250v-817h-250z" />
<glyph unicode="&#xa7;" horiz-adv-x="847" d="M-22 484q0 33 2 69l292 18q-6 -57 -6 -103q0 -208 111 -208h4q134 4 134 134v8q-5 139 -254 272q-243 129 -243 425q0 9 1 18q3 144 83 221q-37 90 -37 206q0 10 1 19q7 309 372 315h8q329 0 329 -392q0 -32 -2 -67l-257 -13q4 41 4 76q0 164 -85 164q-103 0 -113 -98 q-1 -14 -1 -27q0 -82 52 -153q60 -82 206 -150t204 -186q41 -86 41 -182q0 -37 -6 -76q-18 -107 -84 -187q1 0 1 -1q42 -85 42 -182q0 -37 -6 -75q-23 -139 -126 -230.5t-277 -99.5q-12 -1 -24 -1q-158 0 -264 108q-102 104 -102 378zM274 1075q0 -82 52 -153 q60 -81 206 -149q7 -4 15 -8q16 30 16 75v8q-5 139 -255 272q-14 7 -27 15q-4 -15 -6 -33q-1 -13 -1 -27z" />
<glyph unicode="&#xa8;" horiz-adv-x="777" d="M40 1391q0 61 43 104t103 43q61 0 104 -43t43 -104q0 -60 -43 -103t-104 -43q-60 0 -103 43t-43 103zM450 1391q0 61 43 104t103 43q61 0 104 -43t43 -104q0 -60 -43 -103t-104 -43q-60 0 -103 43t-43 103z" />
<glyph unicode="&#xa9;" horiz-adv-x="1108" d="M71 670q0 62 10 124q31 184 149 326q108 129 327 129q20 0 41 -1q251 -13 343 -137.5t110 -355.5q3 -51 3 -99q0 -166 -47 -286q-62 -155 -258 -212q-88 -26 -175 -26q-106 0 -211 39q-190 70 -251 254q-41 122 -41 245zM213 667q0 -84 26 -166q41 -135 180 -190 q82 -33 164 -33q58 0 116 16q140 39 189 158q38 94 38 222q0 34 -3 71q-13 173 -90.5 266.5t-250.5 99.5h-19q-158 0 -233 -96q-80 -103 -106 -241q-11 -54 -11 -107zM371 697q0 26 2 54q8 106 66.5 181t145.5 76h1q86 0 129.5 -53t47.5 -186l-115 1q-6 88 -35 110 q-12 8 -24 8q-19 0 -40 -21q-34 -35 -35 -193q-1 -4 -1 -8q0 -151 62 -154q1 -1 3 -1q59 0 64 129l126 -3q-14 -208 -120 -242q-42 -13 -78 -13q-56 0 -96 32q-68 52 -88 146q-15 68 -15 137z" />
<glyph unicode="&#xaa;" horiz-adv-x="552" d="M37 1102q0 17 2 36q14 143 223 143q40 0 88 -6v70q0 84 -58 84h-3q-5 1 -9 1q-64 0 -64 -95v-9l-157 12q0 210 222 210h14q217 -11 217 -199v-426l-154 -2l-5 57q-48 -50 -126 -50q-34 0 -73 10q-117 26 -117 164zM99 563v200h350v-200h-350zM204 1107q0 -24 21 -43 q16 -14 43 -14q33 0 82 24v105q-28 6 -51 6q-60 0 -82 -37q-13 -22 -13 -41z" />
<glyph unicode="&#xab;" horiz-adv-x="936" d="M50 700l230 400h220l-200 -400l200 -400h-220zM446 700l230 400h220l-200 -400l200 -400h-220z" />
<glyph unicode="&#xac;" horiz-adv-x="920" d="M40 630v250h840v-550h-250v300h-590z" />
<glyph unicode="&#xad;" horiz-adv-x="580" d="M40 620v250h500v-250h-500z" />
<glyph unicode="&#xae;" horiz-adv-x="1108" d="M71 670q0 62 10 124q31 184 149 326q108 129 327 129q20 0 41 -1q251 -13 343 -137.5t110 -355.5q3 -51 3 -99q0 -166 -47 -286q-62 -155 -258 -212q-88 -26 -175 -26q-106 0 -211 39q-190 70 -251 254q-41 122 -41 245zM212 661q0 -83 26 -165q41 -134 179 -189 q80 -33 162 -33q57 0 114 16q139 39 187 157q37 93 37 221q0 33 -2 69q-13 172 -90 264t-248 98h-19q-156 0 -231 -95q-79 -102 -105 -238q-10 -53 -10 -105zM373 1000q65 5 118 5q81 0 132 -11q84 -19 112 -87q17 -43 17 -84q0 -27 -6 -52q-18 -68 -87 -96q75 -16 90.5 -67 t15.5 -193l-136 -4q1 18 1 34q0 96 -25 125q-26 29 -81 29q-9 0 -20 -1l1 -184l-130 -2v145q0 218 -2 443zM507 878l2 -177h7q40 0 72 22q35 24 35 75t-26 70q-18 12 -55 12q-16 0 -35 -2z" />
<glyph unicode="&#xaf;" horiz-adv-x="580" d="M40 1282v250h500v-250h-500z" />
<glyph unicode="&#xb0;" horiz-adv-x="690" d="M50 1130q0 124 88 212t212 88t212 -88t88 -212t-88 -212t-212 -88t-212 88t-88 212zM215 1130q0 -56 39.5 -95.5t95.5 -39.5t95.5 39.5t39.5 95.5t-39.5 95.5t-95.5 39.5t-95.5 -39.5t-39.5 -95.5z" />
<glyph unicode="&#xb1;" horiz-adv-x="920" d="M40 50v250h840v-250h-840zM40 780v250h290v290h250v-290h300v-250h-300v-300h-250v300h-290z" />
<glyph unicode="&#xb2;" horiz-adv-x="623" d="M55 945q187 157 267 241q74 77 74 151v14q-8 80 -87 80h-3q-69 -2 -69 -97q0 -18 2 -39l-172 2q-4 32 -4 60q0 95 45 137q57 54 146 64q32 4 62 4q55 0 105 -12q79 -18 119 -73q32 -46 32 -117q0 -14 -1 -30q-8 -91 -71 -168t-218 -220l301 -2l-2 -133q-198 -7 -510 -7z " />
<glyph unicode="&#xb3;" horiz-adv-x="607" d="M25 1022v3l189 8q-1 -9 -1 -18q0 -111 80 -115q6 -1 11 -1q76 0 91 59q4 16 4 31q0 42 -32 73q-46 42 -150 42l-8 101q12 -1 23 -1q91 0 125 38q32 36 32 93q0 11 -1 23q-7 68 -84 68h-9q-77 -4 -77 -112q0 -13 1 -27l-184 6q-3 28 -3 52q0 85 35 131q45 58 146 72 q49 7 95 7t87 -7q81 -15 129.5 -65t51.5 -137v-16q0 -75 -32 -110q-35 -39 -117 -59q68 -7 102 -35.5t47 -76.5q7 -26 7 -58q0 -26 -5 -57q-11 -66 -74 -114.5t-194 -50.5h-12q-123 0 -197 47q-76 48 -76 206z" />
<glyph unicode="&#xb4;" horiz-adv-x="395" d="M18 1301q117 139 192 265l164 -130q-106 -104 -236 -255z" />
<glyph unicode="&#xb5;" horiz-adv-x="786" d="M40 -340q13 509 13 995q0 231 -3 456h233q-5 -252 -5 -416q0 -163 5 -238q10 -151 96 -151t108 81l-10 684l235 2q0 -430 31 -1002l-184 -21l-10 133q-52 -100 -129 -110q-10 -2 -20 -2q-64 0 -111 59l1 -460z" />
<glyph unicode="&#xb6;" horiz-adv-x="1130" d="M40 1080q0 390 390 390h660v-1450h-250v1200h-150v-1200h-250v670q-400 0 -400 390z" />
<glyph unicode="&#xb7;" horiz-adv-x="381" d="M39 753q0 52 36.5 88.5t87.5 36.5q52 0 88.5 -36.5t36.5 -88.5q0 -51 -36.5 -87.5t-88.5 -36.5q-51 0 -87.5 36.5t-36.5 87.5z" />
<glyph unicode="&#xb8;" horiz-adv-x="429" d="M50 -228q10 156 18 232h122l-9 -89q26 21 59 21q18 0 38 -6q56 -17 84 -79q17 -40 17 -82q0 -25 -6 -51q-16 -70 -86 -106q-45 -23 -123 -23q-45 0 -102 8l-10 119q56 -6 95 -6q63 0 83 15q21 16 21 37q0 10 -4 20q-12 27 -42 27q-7 0 -14 -1q-41 -7 -52 -45z" />
<glyph unicode="&#xb9;" horiz-adv-x="429" d="M15 1474l174 88l167 -2q-4 -236 -4 -469q0 -117 1 -234l-155 -6q-4 300 -11 556q-52 -9 -142 -42z" />
<glyph unicode="&#xba;" horiz-adv-x="607" d="M26 1205q0 369 297 369q260 0 260 -383q0 -384 -278 -384q-279 0 -279 398zM204 1159q0 -210 107 -210q113 0 113 238t-106 238t-114 -238v-28z" />
<glyph unicode="&#xbb;" horiz-adv-x="936" d="M50 300l200 400l-200 400h220l230 -400l-230 -400h-220zM446 300l200 400l-200 400h220l230 -400l-230 -400h-220z" />
<glyph unicode="&#xbc;" horiz-adv-x="1190" d="M15 1474l174 88l167 -2q-4 -236 -4 -469q0 -117 1 -234l-155 -6q-4 300 -11 556q-52 -9 -142 -42zM24 50l848 1589l162 -93l-858 -1587zM610 402q105 213 243 440l197 -10l-2 -437l86 -2v-135h-84v-238l-148 5l2 236l-281 6zM765 396l142 -3l1 292q-67 -143 -143 -289z " />
<glyph unicode="&#xbd;" horiz-adv-x="1287" d="M15 1474l174 88l167 -2q-4 -236 -4 -469q0 -117 1 -234l-155 -6q-4 300 -11 556q-52 -9 -142 -42zM24 50l848 1589l162 -93l-858 -1587zM614 176q187 157 267 241q74 77 74 151v14q-8 80 -87 80h-3q-69 -2 -69 -97q0 -18 2 -39l-172 2q-4 32 -4 60q0 95 45 137 q57 54 146 64q32 4 62 4q55 0 105 -12q79 -18 119 -73q32 -46 32 -117q0 -14 -1 -30q-8 -91 -71 -168t-218 -220l301 -2l-2 -133q-198 -7 -510 -7z" />
<glyph unicode="&#xbe;" horiz-adv-x="1328" d="M25 1022v3l189 8q-1 -9 -1 -18q0 -111 80 -115q6 -1 11 -1q76 0 91 59q4 16 4 31q0 42 -32 73q-46 42 -150 42l-8 101q12 -1 23 -1q91 0 125 38q32 36 32 93q0 11 -1 23q-7 68 -84 68h-9q-77 -4 -77 -112q0 -13 1 -27l-184 6q-3 28 -3 52q0 85 35 131q45 58 146 72 q49 7 95 7t87 -7q81 -15 129.5 -65t51.5 -137v-16q0 -75 -32 -110q-35 -39 -117 -59q68 -7 102 -35.5t47 -76.5q7 -26 7 -58q0 -26 -5 -57q-11 -66 -74 -114.5t-194 -50.5h-12q-123 0 -197 47q-76 48 -76 206zM233 58l848 1589l162 -93l-858 -1587zM788 386q105 213 243 440 l197 -10l-2 -437l86 -2v-135h-84v-238l-148 5l2 236l-281 6zM943 380l142 -3l1 292q-67 -143 -143 -289z" />
<glyph unicode="&#xbf;" horiz-adv-x="855" d="M54 42q0 16 1 33q6 167 67.5 276.5t186.5 158.5l3 183l213 4l3 -333q-162 -24 -198 -142q-25 -82 -25 -160q0 -33 5 -65q15 -105 129 -105q2 0 5 1q100 2 100 181q0 34 -3 73l250 -5q5 -60 5 -111q0 -179 -64 -257q-84 -102 -212 -121q-47 -8 -91 -8q-79 0 -152 23 q-114 34 -171 137q-52 93 -52 237zM263 953q0 60 43 103t104 43q60 0 103 -43t43 -103q0 -61 -43 -104t-103 -43q-61 0 -104 43t-43 104z" />
<glyph unicode="&#xc0;" horiz-adv-x="960" d="M-8 -10q188 854 304 1448l375 6q138 -618 316 -1408l-256 -52l-81 379h-311l-84 -409zM252 1765l164 130q75 -126 192 -265l-120 -120q-130 151 -236 255zM318 637l324 7q-52 216 -170 517q-91 -253 -154 -524z" />
<glyph unicode="&#xc1;" horiz-adv-x="960" d="M-18 10q188 854 304 1448l375 6q138 -618 316 -1408l-256 -52l-81 379h-311l-84 -409zM308 657l324 7q-52 216 -170 517q-91 -253 -154 -524zM361 1650q117 139 192 265l164 -130q-106 -104 -236 -255z" />
<glyph unicode="&#xc2;" horiz-adv-x="960" d="M-18 10q188 854 304 1448l375 6q138 -618 316 -1408l-256 -52l-81 379h-311l-84 -409zM180 1579l180 300h240l180 -300h-200l-100 150l-100 -150h-200zM308 657l324 7q-52 216 -170 517q-91 -253 -154 -524z" />
<glyph unicode="&#xc3;" horiz-adv-x="960" d="M-18 10q188 854 304 1448l375 6q138 -618 316 -1408l-256 -52l-81 379h-311l-84 -409zM155 1589q0 300 200 300q100 0 155 -75q46 -62 85 -62q8 0 15 2q45 15 45 135h150q0 -300 -200 -300q-100 0 -160 75q-50 63 -86 63q-7 0 -14 -3q-40 -15 -40 -135h-150zM308 657 l324 7q-52 216 -170 517q-91 -253 -154 -524z" />
<glyph unicode="&#xc4;" horiz-adv-x="960" d="M-18 20q188 854 304 1448l375 6q138 -618 316 -1408l-256 -52l-81 379h-311l-84 -409zM128 1730q0 61 43 104t103 43q61 0 104 -43t43 -104q0 -60 -43 -103t-104 -43q-60 0 -103 43t-43 103zM308 667l324 7q-52 216 -170 517q-91 -253 -154 -524zM538 1730q0 61 43 104 t103 43q61 0 104 -43t43 -104q0 -60 -43 -103t-104 -43q-60 0 -103 43t-43 103z" />
<glyph unicode="&#xc5;" horiz-adv-x="960" d="M-18 10q188 854 304 1448l375 6q138 -618 316 -1408l-256 -52l-81 379h-311l-84 -409zM280 1729q0 83 58.5 141.5t141.5 58.5t141.5 -58.5t58.5 -141.5t-58.5 -141.5t-141.5 -58.5t-141.5 58.5t-58.5 141.5zM308 657l324 7q-52 216 -170 517q-91 -253 -154 -524z M398 1729q0 -34 24 -58t58 -24t58.5 24t24.5 58t-24.5 58.5t-58.5 24.5t-58 -24.5t-24 -58.5z" />
<glyph unicode="&#xc6;" horiz-adv-x="1376" d="M22 -20q188 854 304 1378l935 22v-282l-395 16v-328l355 10l9 -271h-317v-254h415v-284l-692 10q7 177 9 356h-276l-84 -409zM378 627l268 6l-10 489l-124 -1q-71 -223 -134 -494z" />
<glyph unicode="&#xc7;" horiz-adv-x="885" d="M48 728q0 724 396 724q373 0 373 -484q0 -29 -1 -60l-222 -1v27q0 235 -132 235q-141 0 -141 -434q0 -489 148 -489h1q148 1 148 240v99h248v-75q0 -473 -369 -518l-9 -87q26 21 59 21q18 0 38 -6q56 -17 84 -79q17 -40 17 -82q0 -25 -6 -51q-16 -70 -86 -106 q-45 -23 -123 -23q-45 0 -102 8l-10 119q56 -6 95 -6q63 0 83 15q21 16 21 37q0 10 -4 20q-12 27 -42 27q-7 0 -14 -1q-41 -7 -52 -45l-89 9q10 155 18 230q-327 53 -327 736z" />
<glyph unicode="&#xc8;" horiz-adv-x="798" d="M48 1370q226 9 635 20v-282l-395 16v-328l355 10l9 -271h-317v-254h415v-284l-692 10q11 281 11 566q0 395 -21 797zM162 1715l164 130q75 -126 192 -265l-120 -120q-130 151 -236 255z" />
<glyph unicode="&#xc9;" horiz-adv-x="798" d="M48 1370q226 9 635 20v-282l-395 16v-328l355 10l9 -271h-317v-254h415v-284l-692 10q11 281 11 566q0 395 -21 797zM280 1580q117 139 192 265l164 -130q-106 -104 -236 -255z" />
<glyph unicode="&#xca;" horiz-adv-x="798" d="M48 1370q226 9 635 20v-282l-395 16v-328l355 10l9 -271h-317v-254h415v-284l-692 10q11 281 11 566q0 395 -21 797zM99 1529l180 300h240l180 -300h-200l-100 150l-100 -150h-200z" />
<glyph unicode="&#xcb;" horiz-adv-x="798" d="M48 1650q0 61 43 104t103 43q61 0 104 -43t43 -104q0 -60 -43 -103t-104 -43q-60 0 -103 43t-43 103zM49 1370q226 9 635 20v-282l-395 16v-328l355 10l9 -271h-317v-254h415v-284l-692 10q11 281 11 566q0 395 -21 797zM458 1650q0 61 43 104t103 43q61 0 104 -43 t43 -104q0 -60 -43 -103t-104 -43q-60 0 -103 43t-43 103z" />
<glyph unicode="&#xcc;" horiz-adv-x="381" d="M-46 1725l164 130q75 -126 192 -265l-120 -120q-130 151 -236 255zM48 1362l285 24q-11 -679 -12 -1379l-249 -23q0 734 -24 1378z" />
<glyph unicode="&#xcd;" horiz-adv-x="381" d="M48 1362l285 24q-11 -679 -12 -1379l-249 -23q0 734 -24 1378zM72 1590q117 139 192 265l164 -130q-106 -104 -236 -255z" />
<glyph unicode="&#xce;" horiz-adv-x="381" d="M-108 1539l180 300h240l180 -300h-200l-100 150l-100 -150h-200zM49 1362l285 24q-11 -679 -12 -1379l-249 -23q0 734 -24 1378z" />
<glyph unicode="&#xcf;" horiz-adv-x="381" d="M-160 1700q0 61 43 104t103 43q61 0 104 -43t43 -104q0 -60 -43 -103t-104 -43q-60 0 -103 43t-43 103zM48 1382l285 24q-11 -679 -12 -1379l-249 -23q0 734 -24 1378zM250 1700q0 61 43 104t103 43q61 0 104 -43t43 -104q0 -60 -43 -103t-104 -43q-60 0 -103 43t-43 103 z" />
<glyph unicode="&#xd0;" horiz-adv-x="875" d="M-90 630v170h140q-1 310 -2 637q115 14 212 14q270 0 398 -108q174 -148 182 -547v-72q0 -342 -66 -488q-73 -161 -267 -214q-112 -31 -246 -31q-100 0 -213 17q2 302 2 622h-140zM278 514q0 -115 3 -227q35 -8 67 -8q88 0 148 61q82 82 82 368v4q-1 288 -80 378 q-61 68 -145 68q-27 0 -57 -7l-14 -351h128v-170h-131q-1 -58 -1 -116z" />
<glyph unicode="&#xd1;" horiz-adv-x="947" d="M48 1350l294 14l270 -753q-4 388 -22 794l309 4q-46 -613 -46 -1238q0 -84 1 -168l-271 -3l-288 806q13 -446 24 -829l-267 -18q12 342 12 666q0 374 -16 725zM149 1549q0 300 200 300q100 0 155 -75q46 -62 85 -62q8 0 15 2q45 15 45 135h150q0 -300 -200 -300 q-100 0 -160 75q-50 63 -86 63q-7 0 -14 -3q-40 -15 -40 -135h-150z" />
<glyph unicode="&#xd2;" horiz-adv-x="952" d="M26 730q0 694 481 694q421 0 421 -720q0 -721 -451 -721t-451 747zM240 1755l164 130q75 -126 192 -265l-120 -120q-130 151 -236 255zM306 627q0 -377 176 -377q187 0 187 427t-174 427q-175 0 -188 -427q-1 -26 -1 -50z" />
<glyph unicode="&#xd3;" horiz-adv-x="952" d="M26 730q0 694 481 694q421 0 421 -720q0 -721 -451 -721t-451 747zM306 627q0 -377 176 -377q187 0 187 427t-174 427q-175 0 -188 -427q-1 -26 -1 -50zM358 1620q117 139 192 265l164 -130q-106 -104 -236 -255z" />
<glyph unicode="&#xd4;" horiz-adv-x="952" d="M26 730q0 694 481 694q421 0 421 -720q0 -721 -451 -721t-451 747zM177 1509l180 300h240l180 -300h-200l-100 150l-100 -150h-200zM306 627q0 -377 176 -377q187 0 187 427t-174 427q-175 0 -188 -427q-1 -26 -1 -50z" />
<glyph unicode="&#xd5;" horiz-adv-x="952" d="M26 730q0 694 481 694q421 0 421 -720q0 -721 -451 -721t-451 747zM152 1519q0 300 200 300q100 0 155 -75q46 -62 85 -62q8 0 15 2q45 15 45 135h150q0 -300 -200 -300q-100 0 -160 75q-50 63 -86 63q-7 0 -14 -3q-40 -15 -40 -135h-150zM306 627q0 -377 176 -377 q187 0 187 427t-174 427q-175 0 -188 -427q-1 -26 -1 -50z" />
<glyph unicode="&#xd6;" horiz-adv-x="952" d="M26 730q0 694 481 694q421 0 421 -720q0 -721 -451 -721t-451 747zM126 1660q0 61 43 104t103 43q61 0 104 -43t43 -104q0 -60 -43 -103t-104 -43q-60 0 -103 43t-43 103zM306 627q0 -377 176 -377q187 0 187 427t-174 427q-175 0 -188 -427q-1 -26 -1 -50zM536 1660 q0 61 43 104t103 43q61 0 104 -43t43 -104q0 -60 -43 -103t-104 -43q-60 0 -103 43t-43 103z" />
<glyph unicode="&#xd7;" horiz-adv-x="993" d="M40 474l276 276l-276 276l177 177l276 -276l282 283l177 -177l-283 -283l283 -283l-177 -177l-282 283l-276 -276z" />
<glyph unicode="&#xd8;" horiz-adv-x="952" d="M26 730q0 694 481 694q64 0 119 -17l47 173l119 -36l-54 -198q190 -159 190 -642q0 -721 -451 -721q-59 0 -110 12l-45 -165l-112 36l48 177q-232 151 -232 687zM306 626q0 -173 37 -267l199 736q-22 9 -48 9q-174 0 -187 -427q-1 -26 -1 -51zM439 256q20 -6 43 -6 q187 0 187 427q0 188 -34 294z" />
<glyph unicode="&#xd9;" horiz-adv-x="912" d="M48 1443h266q-10 -226 -10 -531q0 -214 5 -468q2 -186 134 -186q0 -1 1 -1q131 0 131 238l-5 922l294 9v-989q0 -457 -418 -457h-22q-350 40 -362 383q0 685 -14 1080zM219 1755l164 130q75 -126 192 -265l-120 -120q-130 151 -236 255z" />
<glyph unicode="&#xda;" horiz-adv-x="912" d="M48 1453h266q-10 -226 -10 -531q0 -214 5 -468q2 -186 134 -186q0 -1 1 -1q131 0 131 238l-5 922l294 9v-989q0 -457 -418 -457h-22q-350 40 -362 383q0 685 -14 1080zM337 1630q117 139 192 265l164 -130q-106 -104 -236 -255z" />
<glyph unicode="&#xdb;" horiz-adv-x="912" d="M48 1453h266q-10 -226 -10 -531q0 -214 5 -468q2 -186 134 -186q0 -1 1 -1q131 0 131 238l-5 922l294 9v-989q0 -457 -418 -457h-22q-350 40 -362 383q0 685 -14 1080zM156 1579l180 300h240l180 -300h-200l-100 150l-100 -150h-200z" />
<glyph unicode="&#xdc;" horiz-adv-x="912" d="M48 1443h266q-10 -226 -10 -531q0 -214 5 -468q2 -186 134 -186q0 -1 1 -1q131 0 131 238l-5 922l294 9v-989q0 -457 -418 -457h-22q-350 40 -362 383q0 685 -14 1080zM105 1690q0 61 43 104t103 43q61 0 104 -43t43 -104q0 -60 -43 -103t-104 -43q-60 0 -103 43t-43 103 zM515 1690q0 61 43 104t103 43q61 0 104 -43t43 -104q0 -60 -43 -103t-104 -43q-60 0 -103 43t-43 103z" />
<glyph unicode="&#xdd;" horiz-adv-x="835" d="M-37 1389l282 29l191 -558q129 402 207 599h273q-245 -603 -352 -873v-589l-260 -12l11 620q-228 482 -352 784zM321 1620q117 139 192 265l164 -130q-106 -104 -236 -255z" />
<glyph unicode="&#xde;" horiz-adv-x="879" d="M48 1402l252 18v-230q68 19 133 19q117 0 227 -63q161 -93 161 -381v-33q-10 -316 -143 -404.5t-348 -94.5l6 -237l-280 -6q1 185 1 376q0 497 -9 1036zM312 950l7 -489q186 10 218 133q15 56 15 115q0 69 -20 142q-30 107 -150 107q-32 0 -70 -8z" />
<glyph unicode="&#xdf;" horiz-adv-x="891" d="M40 -15l1 1051q11 373 258 404q66 8 122 8q156 0 240 -62q115 -84 133 -244q4 -41 4 -79q0 -109 -37 -189q-51 -109 -181 -156q145 -22 208 -105q53 -70 53 -200q0 -25 -2 -52q-12 -170 -107.5 -254t-265.5 -115q-50 -9 -100 -14l-3 260q164 3 212 102q27 57 27 103 q0 45 -26 79q-42 55 -191 55h-26l-2 230q122 4 168 110q23 54 23 106q0 49 -21 95q-40 88 -133 88h-13q-95 -6 -95 -157q0 -14 1 -30l-1 -1030z" />
<glyph unicode="&#xe0;" horiz-adv-x="796" d="M37 284q0 28 3 60q20 237 337 237q61 0 134 -9v116q0 141 -89 141h-4q-7 1 -13 1q-97 0 -97 -158v-15l-238 20q0 349 336 349h21q329 -18 329 -331v-710l-233 -4l-8 95q-72 -82 -191 -82q-51 0 -110 16q-177 44 -177 274zM159 1337l164 130q75 -126 192 -265l-120 -120 q-130 151 -236 255zM289 291q0 -40 32 -71q25 -24 65 -24q51 0 125 40v176q-43 9 -78 9q-91 0 -124 -61q-20 -37 -20 -69z" />
<glyph unicode="&#xe1;" horiz-adv-x="796" d="M37 284q0 28 3 60q20 237 337 237q61 0 134 -9v116q0 141 -89 141h-4q-7 1 -13 1q-97 0 -97 -158v-15l-238 20q0 349 336 349h21q329 -18 329 -331v-710l-233 -4l-8 95q-72 -82 -191 -82q-51 0 -110 16q-177 44 -177 274zM278 1202q117 139 192 265l164 -130 q-106 -104 -236 -255zM289 291q0 -40 32 -71q25 -24 65 -24q51 0 125 40v176q-43 9 -78 9q-91 0 -124 -61q-20 -37 -20 -69z" />
<glyph unicode="&#xe2;" horiz-adv-x="796" d="M37 284q0 28 3 60q20 237 337 237q61 0 134 -9v116q0 141 -89 141h-4q-7 1 -13 1q-97 0 -97 -158v-15l-238 20q0 349 336 349h21q329 -18 329 -331v-710l-233 -4l-8 95q-72 -82 -191 -82q-51 0 -110 16q-177 44 -177 274zM96 1121l180 300h240l180 -300h-200l-100 150 l-100 -150h-200zM289 291q0 -40 32 -71q25 -24 65 -24q51 0 125 40v176q-43 9 -78 9q-91 0 -124 -61q-20 -37 -20 -69z" />
<glyph unicode="&#xe3;" horiz-adv-x="796" d="M37 284q0 28 3 60q20 237 337 237q61 0 134 -9v116q0 141 -89 141h-4q-7 1 -13 1q-97 0 -97 -158v-15l-238 20q0 349 336 349h21q329 -18 329 -331v-710l-233 -4l-8 95q-72 -82 -191 -82q-51 0 -110 16q-177 44 -177 274zM71 1131q0 300 200 300q100 0 155 -75 q46 -62 85 -62q8 0 15 2q45 15 45 135h150q0 -300 -200 -300q-100 0 -160 75q-50 63 -86 63q-7 0 -14 -3q-40 -15 -40 -135h-150zM289 291q0 -40 32 -71q25 -24 65 -24q51 0 125 40v176q-43 9 -78 9q-91 0 -124 -61q-20 -37 -20 -69z" />
<glyph unicode="&#xe4;" horiz-adv-x="796" d="M37 304q0 28 3 60q20 237 337 237q61 0 134 -9v116q0 141 -89 141h-4q-7 1 -13 1q-97 0 -97 -158v-15l-238 20q0 349 336 349h21q329 -18 329 -331v-710l-233 -4l-8 95q-72 -82 -191 -82q-51 0 -110 16q-177 44 -177 274zM45 1282q0 61 43 104t103 43q61 0 104 -43 t43 -104q0 -60 -43 -103t-104 -43q-60 0 -103 43t-43 103zM289 301q0 -40 32 -71q25 -24 65 -24q51 0 125 40v176q-43 9 -78 9q-91 0 -124 -61q-20 -37 -20 -69zM455 1282q0 61 43 104t103 43q61 0 104 -43t43 -104q0 -60 -43 -103t-104 -43q-60 0 -103 43t-43 103z" />
<glyph unicode="&#xe5;" horiz-adv-x="796" d="M37 284q0 28 3 60q20 237 337 237q61 0 134 -9v116q0 141 -89 141h-4q-7 1 -13 1q-97 0 -97 -158v-15l-238 20q0 349 336 349h21q329 -18 329 -331v-710l-233 -4l-8 95q-72 -82 -191 -82q-51 0 -110 16q-177 44 -177 274zM196 1370q0 83 58.5 141.5t141.5 58.5 t141.5 -58.5t58.5 -141.5t-58.5 -141.5t-141.5 -58.5t-141.5 58.5t-58.5 141.5zM289 291q0 -40 32 -71q25 -24 65 -24q51 0 125 40v176q-43 9 -78 9q-91 0 -124 -61q-20 -37 -20 -69zM314 1370q0 -34 24 -58t58 -24t58.5 24t24.5 58t-24.5 58.5t-58.5 24.5t-58 -24.5 t-24 -58.5z" />
<glyph unicode="&#xe6;" horiz-adv-x="1220" d="M27 291q0 25 3 53q20 237 337 237q61 0 134 -9v116q0 141 -89 141h-4q-7 1 -13 1q-97 0 -97 -158v-15l-238 20q0 349 336 349h21q159 -10 233 -103q78 74 202 74q347 0 347 -461q0 -56 -5 -120h-447q0 -257 99 -257h7q87 7 87 133q0 27 -4 60l238 5q0 -381 -334 -387h-6 q-146 0 -225 101q-141 -73 -273 -73q-52 0 -103 11q-206 46 -206 282zM279 291q0 -40 32 -71q25 -24 65 -24q51 0 125 40v176q-43 9 -78 9q-91 0 -124 -61q-20 -37 -20 -69zM723 600h226v24q0 182 -103 182q-111 0 -123 -206z" />
<glyph unicode="&#xe7;" horiz-adv-x="730" d="M30 481v30q10 516 338 521h8q302 0 302 -346q0 -20 -1 -40l-215 -16v24q0 182 -103 182q-105 0 -105 -295v-33q6 -319 106 -319h6q87 7 87 133q0 27 -4 60l238 -15q0 -331 -281 -363h8l-9 -89q26 21 59 21q18 0 38 -6q56 -17 84 -79q17 -40 17 -82q0 -25 -6 -51 q-16 -70 -86 -106q-45 -23 -123 -23q-45 0 -102 8l-10 119q56 -6 95 -6q63 0 83 15q21 16 21 37q0 10 -4 20q-12 27 -42 27q-7 0 -14 -1q-41 -7 -52 -45l-89 9q10 156 18 232q-262 40 -262 477z" />
<glyph unicode="&#xe8;" horiz-adv-x="747" d="M30 481v30q10 516 335 516q347 0 347 -461q0 -56 -5 -120h-447q0 -257 99 -257h7q87 7 87 133q0 27 -4 60l238 5q0 -381 -333 -386q-4 -1 -7 -1q-317 0 -317 481zM134 1357l164 130q75 -126 192 -265l-120 -120q-130 151 -236 255zM236 630h226v24q0 182 -103 182 q-111 0 -123 -206z" />
<glyph unicode="&#xe9;" horiz-adv-x="747" d="M30 481v30q10 516 335 516q347 0 347 -461q0 -56 -5 -120h-447q0 -257 99 -257h7q87 7 87 133q0 27 -4 60l238 5q0 -381 -333 -386q-4 -1 -7 -1q-317 0 -317 481zM236 630h226v24q0 182 -103 182q-111 0 -123 -206zM252 1222q117 139 192 265l164 -130 q-106 -104 -236 -255z" />
<glyph unicode="&#xea;" horiz-adv-x="747" d="M30 481v30q10 516 335 516q347 0 347 -461q0 -56 -5 -120h-447q0 -257 99 -257h7q87 7 87 133q0 27 -4 60l238 5q0 -381 -333 -386q-4 -1 -7 -1q-317 0 -317 481zM71 1151l180 300h240l180 -300h-200l-100 150l-100 -150h-200zM236 630h226v24q0 182 -103 182 q-111 0 -123 -206z" />
<glyph unicode="&#xeb;" horiz-adv-x="747" d="M20 1292q0 61 43 104t103 43q61 0 104 -43t43 -104q0 -60 -43 -103t-104 -43q-60 0 -103 43t-43 103zM30 481v30q10 516 335 516q347 0 347 -461q0 -56 -5 -120h-447q0 -257 99 -257h7q87 7 87 133q0 27 -4 60l238 5q0 -381 -333 -386q-4 -1 -7 -1q-317 0 -317 481z M236 630h226v24q0 182 -103 182q-111 0 -123 -206zM430 1292q0 61 43 104t103 43q61 0 104 -43t43 -104q0 -60 -43 -103t-104 -43q-60 0 -103 43t-43 103z" />
<glyph unicode="&#xec;" horiz-adv-x="335" d="M-65 1357l164 130q75 -126 192 -265l-120 -120q-130 151 -236 255zM45 1006l252 15q-12 -408 -12 -811q0 -108 1 -215h-234q-7 585 -7 1011z" />
<glyph unicode="&#xed;" horiz-adv-x="335" d="M45 1006l252 15q-12 -408 -12 -811q0 -108 1 -215h-234q-7 585 -7 1011zM52 1222q117 139 192 265l164 -130q-106 -104 -236 -255z" />
<glyph unicode="&#xee;" horiz-adv-x="335" d="M-128 1151l180 300h240l180 -300h-200l-100 150l-100 -150h-200zM45 1006l252 15q-12 -408 -12 -811q0 -108 1 -215h-234q-7 585 -7 1011z" />
<glyph unicode="&#xef;" horiz-adv-x="335" d="M-179 1292q0 61 43 104t103 43q61 0 104 -43t43 -104q0 -60 -43 -103t-104 -43q-60 0 -103 43t-43 103zM46 1006l252 15q-12 -408 -12 -811q0 -108 1 -215h-234q-7 585 -7 1011zM231 1292q0 61 43 104t103 43q61 0 104 -43t43 -104q0 -60 -43 -103t-104 -43 q-60 0 -103 43t-43 103z" />
<glyph unicode="&#xf0;" horiz-adv-x="835" d="M46 473q0 10 1 20q6 471 304 471q12 0 25 -1q102 -6 165 -111q0 92 -2 198h-129v170h125q-2 74 -5 155h266q-2 -77 -3 -155h117v-170h-119q-1 -170 -1 -347q0 -355 5 -741l-237 -1l-8 153q-74 -111 -197 -111q-307 0 -307 470zM293 501q0 -22 1 -45q10 -229 102 -242 q9 -1 18 -1q80 0 132 106l-5 346q-58 79 -119 79q-25 0 -50 -13q-79 -41 -79 -230z" />
<glyph unicode="&#xf1;" horiz-adv-x="786" d="M40 1003l184 20l10 -163q42 130 221 132h4q176 0 240 -138q44 -94 44 -440q0 -170 -11 -402h-242q13 309 13 479q0 85 -3 136q-10 150 -96 150t-108 -80l10 -725l-235 -2q0 460 -31 1033zM66 1131q0 300 200 300q100 0 155 -75q46 -62 85 -62q8 0 15 2q45 15 45 135h150 q0 -300 -200 -300q-100 0 -160 75q-50 63 -86 63q-7 0 -14 -3q-40 -15 -40 -135h-150z" />
<glyph unicode="&#xf2;" horiz-adv-x="747" d="M30 473v28q10 516 362 516q340 0 340 -472q0 -19 -1 -38q-14 -511 -362 -516q-4 -1 -8 -1q-331 0 -331 483zM143 1347l164 130q75 -126 192 -265l-120 -120q-130 151 -236 255zM259 457q0 -57 6 -115q16 -144 103 -149h7q81 0 111 107q25 89 25 211q0 30 -1 61 q-8 161 -48 201q-25 24 -60 24q-20 0 -43 -8q-63 -22 -86 -163q-14 -84 -14 -169z" />
<glyph unicode="&#xf3;" horiz-adv-x="747" d="M30 473v28q10 516 362 516q340 0 340 -472q0 -19 -1 -38q-14 -511 -362 -516q-4 -1 -8 -1q-331 0 -331 483zM259 457q0 -57 6 -115q16 -144 103 -149h7q81 0 111 107q25 89 25 211q0 30 -1 61q-8 161 -48 201q-25 24 -60 24q-20 0 -43 -8q-63 -22 -86 -163 q-14 -84 -14 -169zM262 1212q117 139 192 265l164 -130q-106 -104 -236 -255z" />
<glyph unicode="&#xf4;" horiz-adv-x="747" d="M30 473v28q10 516 362 516q340 0 340 -472q0 -19 -1 -38q-14 -511 -362 -516q-4 -1 -8 -1q-331 0 -331 483zM81 1141l180 300h240l180 -300h-200l-100 150l-100 -150h-200zM259 457q0 -57 6 -115q16 -144 103 -149h7q81 0 111 107q25 89 25 211q0 30 -1 61 q-8 161 -48 201q-25 24 -60 24q-20 0 -43 -8q-63 -22 -86 -163q-14 -84 -14 -169z" />
<glyph unicode="&#xf5;" horiz-adv-x="747" d="M30 473v28q10 516 362 516q340 0 340 -472q0 -19 -1 -38q-14 -511 -362 -516q-4 -1 -8 -1q-331 0 -331 483zM56 1151q0 300 200 300q100 0 155 -75q46 -62 85 -62q8 0 15 2q45 15 45 135h150q0 -300 -200 -300q-100 0 -160 75q-50 63 -86 63q-7 0 -14 -3 q-40 -15 -40 -135h-150zM259 457q0 -57 6 -115q16 -144 103 -149h7q81 0 111 107q25 89 25 211q0 30 -1 61q-8 161 -48 201q-25 24 -60 24q-20 0 -43 -8q-63 -22 -86 -163q-14 -84 -14 -169z" />
<glyph unicode="&#xf6;" horiz-adv-x="747" d="M30 473v28q10 516 362 516q340 0 340 -472q0 -19 -1 -38q-14 -511 -362 -516q-4 -1 -8 -1q-331 0 -331 483zM30 1282q0 61 43 104t103 43q61 0 104 -43t43 -104q0 -60 -43 -103t-104 -43q-60 0 -103 43t-43 103zM259 457q0 -57 6 -115q16 -144 103 -149h7q81 0 111 107 q25 89 25 211q0 30 -1 61q-8 161 -48 201q-25 24 -60 24q-20 0 -43 -8q-63 -22 -86 -163q-14 -84 -14 -169zM440 1282q0 61 43 104t103 43q61 0 104 -43t43 -104q0 -60 -43 -103t-104 -43q-60 0 -103 43t-43 103z" />
<glyph unicode="&#xf7;" horiz-adv-x="980" d="M40 620v250h900v-250h-900zM344 361q0 61 43 104t103 43q61 0 104 -43t43 -104q0 -60 -43 -103t-104 -43q-60 0 -103 43t-43 103zM344 1122q0 61 43 104t103 43q61 0 104 -43t43 -104q0 -60 -43 -103t-104 -43q-60 0 -103 43t-43 103z" />
<glyph unicode="&#xf8;" horiz-adv-x="747" d="M30 471v30q10 516 362 516q21 0 41 -2l30 135l119 -36l-30 -133q180 -94 180 -438q0 -18 -1 -37q-14 -510 -363 -516q-21 0 -42 1l-34 -151l-112 36l32 146q-182 92 -182 449zM259 457q0 -58 6 -116q3 -26 8 -47l111 501q-12 -1 -25 -6q-63 -22 -86 -163 q-14 -84 -14 -169zM372 193h3q82 0 111 106q25 89 25 209q0 31 -2 64q-4 90 -18 142z" />
<glyph unicode="&#xf9;" horiz-adv-x="786" d="M39 616q0 176 11 415h243q-20 -336 -20 -517q0 -91 5 -142q15 -156 101 -156t108 81l-10 694l235 2q0 -430 31 -1002l-184 -21l-10 163q-42 -130 -226 -131q-2 -1 -3 -1q-182 0 -241 164q-40 109 -40 451zM154 1356l164 130q75 -126 192 -265l-120 -120 q-130 151 -236 255z" />
<glyph unicode="&#xfa;" horiz-adv-x="786" d="M39 616q0 176 11 415h243q-20 -336 -20 -517q0 -91 5 -142q15 -156 101 -156t108 81l-10 694l235 2q0 -430 31 -1002l-184 -21l-10 163q-42 -130 -226 -131q-2 -1 -3 -1q-182 0 -241 164q-40 109 -40 451zM273 1221q117 139 192 265l164 -130q-106 -104 -236 -255z" />
<glyph unicode="&#xfb;" horiz-adv-x="786" d="M39 616q0 176 11 415h243q-20 -336 -20 -517q0 -91 5 -142q15 -156 101 -156t108 81l-10 694l235 2q0 -430 31 -1002l-184 -21l-10 163q-42 -130 -226 -131q-2 -1 -3 -1q-182 0 -241 164q-40 109 -40 451zM91 1170l180 300h240l180 -300h-200l-100 150l-100 -150h-200z " />
<glyph unicode="&#xfc;" horiz-adv-x="786" d="M39 606q0 176 11 415h243q-20 -336 -20 -517q0 -91 5 -142q15 -156 101 -156t108 81l-10 694l235 2q0 -430 31 -1002l-184 -21l-10 163q-42 -130 -226 -131q-2 -1 -3 -1q-182 0 -241 164q-40 109 -40 451zM40 1272q0 61 43 104t103 43q61 0 104 -43t43 -104 q0 -60 -43 -103t-104 -43q-60 0 -103 43t-43 103zM450 1272q0 61 43 104t103 43q61 0 104 -43t43 -104q0 -60 -43 -103t-104 -43q-60 0 -103 43t-43 103z" />
<glyph unicode="&#xfd;" horiz-adv-x="803" d="M38 1021l262 21q-9 -300 -9 -494q0 -73 2 -131q4 -214 96 -220q6 -1 11 -1q82 0 104 94q12 55 12 261q0 165 -8 426l246 18q4 -305 4 -524q0 -273 -6 -412q-10 -250 -143 -380q-120 -118 -337 -118q-25 0 -51 2l-28 244q19 -1 37 -1q168 0 230 59q64 61 64 196v16 q-57 -90 -175 -90h-14q-129 6 -200 101.5t-77.5 268t-19.5 664.5zM279 1241q117 139 192 265l164 -130q-106 -104 -236 -255z" />
<glyph unicode="&#xfe;" horiz-adv-x="835" d="M46 -417q6 331 6 818q0 443 -5 1013l243 1l2 -564q74 110 197 110q307 0 307 -477v-19q-7 -478 -306 -478q-12 0 -24 1q-102 5 -165 109q0 -218 11 -514h-266zM296 649l5 -369q58 -78 117 -78q24 0 48 14q73 39 73 235q0 23 -1 49q-10 240 -97 253q-9 1 -17 1 q-76 0 -128 -105z" />
<glyph unicode="&#xff;" horiz-adv-x="803" d="M38 1051l262 21q-9 -300 -9 -494q0 -73 2 -131q4 -214 96 -220q6 -1 11 -1q82 0 104 94q12 55 12 261q0 165 -8 426l246 18q4 -305 4 -524q0 -273 -6 -412q-10 -250 -143 -380q-120 -118 -337 -118q-25 0 -51 2l-28 244q19 -1 37 -1q168 0 230 59q64 61 64 196v16 q-57 -90 -175 -90h-14q-129 6 -200 101.5t-77.5 268t-19.5 664.5zM46 1332q0 61 43 104t103 43q61 0 104 -43t43 -104q0 -60 -43 -103t-104 -43q-60 0 -103 43t-43 103zM456 1332q0 61 43 104t103 43q61 0 104 -43t43 -104q0 -60 -43 -103t-104 -43q-60 0 -103 43t-43 103z " />
<glyph unicode="&#x100;" horiz-adv-x="960" d="M-18 -10q188 854 304 1448l375 6q138 -618 316 -1408l-256 -52l-81 379h-311l-84 -409zM230 1595v250h500v-250h-500zM308 637l324 7q-52 216 -170 517q-91 -253 -154 -524z" />
<glyph unicode="&#x101;" horiz-adv-x="796" d="M37 294q0 28 3 60q20 237 337 237q61 0 134 -9v116q0 141 -89 141h-4q-7 1 -13 1q-97 0 -97 -158v-15l-238 20q0 349 336 349h21q329 -18 329 -331v-710l-233 -4l-8 95q-72 -82 -191 -82q-51 0 -110 16q-177 44 -177 274zM156 1165v250h500v-250h-500zM289 301 q0 -40 32 -71q25 -24 65 -24q51 0 125 40v176q-43 9 -78 9q-91 0 -124 -61q-20 -37 -20 -69z" />
<glyph unicode="&#x102;" horiz-adv-x="960" d="M-34 -6q188 854 304 1448l375 6q138 -618 316 -1408l-256 -52l-81 379h-311l-84 -409zM170 1918h180q0 -120 120 -120t120 120h180q0 -300 -300 -300t-300 300zM292 641l324 7q-52 216 -170 517q-91 -253 -154 -524z" />
<glyph unicode="&#x103;" horiz-adv-x="796" d="M45 229q0 28 3 60q20 237 337 237q61 0 134 -9v116q0 141 -89 141h-4q-7 1 -13 1q-97 0 -97 -158v-15l-238 20q0 349 336 349h21q329 -18 329 -331v-710l-233 -4l-8 95q-72 -82 -191 -82q-51 0 -110 16q-177 44 -177 274zM107 1435h180q0 -120 120 -120t120 120h180 q0 -300 -300 -300t-300 300zM297 236q0 -40 32 -71q25 -24 65 -24q51 0 125 40v176q-43 9 -78 9q-91 0 -124 -61q-20 -37 -20 -69z" />
<glyph unicode="&#x104;" horiz-adv-x="960" d="M-26 -37q188 854 304 1448l375 6q138 -618 316 -1408l-205 -42q-27 -57 -27 -107q0 -90 70 -90t130 40l40 -110q-70 -60 -170 -60q-200 0 -200 190q0 105 90 200l-65 306h-311l-84 -409zM300 610l324 7q-52 216 -170 517q-91 -253 -154 -524z" />
<glyph unicode="&#x105;" horiz-adv-x="796" d="M37 277q0 28 3 60q20 237 337 237q61 0 134 -9v116q0 141 -89 141h-4q-7 1 -13 1q-97 0 -97 -158v-15l-238 20q0 349 336 349h21q329 -18 329 -331v-710l-209 -4q-31 -61 -31 -114q0 -90 70 -90t130 40l40 -110q-70 -60 -170 -60q-200 0 -200 190q0 110 100 210h31l-2 29 q-72 -82 -191 -82q-51 0 -110 16q-177 44 -177 274zM289 284q0 -40 32 -71q25 -24 65 -24q51 0 125 40v176q-43 9 -78 9q-91 0 -124 -61q-20 -37 -20 -69z" />
<glyph unicode="&#x106;" horiz-adv-x="885" d="M48 738q0 724 396 724q373 0 373 -484q0 -29 -1 -60l-222 -1v27q0 235 -132 235q-141 0 -141 -434q0 -489 148 -489h1q148 1 148 240v99h248v-75q0 -498 -409 -521q-12 -1 -24 -1q-385 0 -385 740zM368 1704q117 139 192 265l164 -130q-106 -104 -236 -255z" />
<glyph unicode="&#x107;" horiz-adv-x="730" d="M30 481v30q10 516 338 521h8q302 0 302 -346q0 -20 -1 -40l-215 -16v24q0 182 -103 182q-105 0 -105 -295v-33q6 -319 106 -319h6q87 7 87 133q0 27 -4 60l238 -15q0 -361 -333 -366q-4 -1 -7 -1q-317 0 -317 481zM240 1225q117 139 192 265l164 -130 q-106 -104 -236 -255z" />
<glyph unicode="&#x108;" horiz-adv-x="885" d="M48 738q0 724 396 724q373 0 373 -484q0 -29 -1 -60l-222 -1v27q0 235 -132 235q-141 0 -141 -434q0 -489 148 -489h1q148 1 148 240v99h248v-75q0 -498 -409 -521q-12 -1 -24 -1q-385 0 -385 740zM187 1641l180 300h240l180 -300h-200l-100 150l-100 -150h-200z" />
<glyph unicode="&#x109;" horiz-adv-x="730" d="M30 481v30q10 516 338 521h8q302 0 302 -346q0 -20 -1 -40l-215 -16v24q0 182 -103 182q-105 0 -105 -295v-33q6 -319 106 -319h6q87 7 87 133q0 27 -4 60l238 -15q0 -361 -333 -366q-4 -1 -7 -1q-317 0 -317 481zM59 1180l180 300h240l180 -300h-200l-100 150l-100 -150 h-200z" />
<glyph unicode="&#x10a;" horiz-adv-x="885" d="M48 738q0 724 396 724q373 0 373 -484q0 -29 -1 -60l-222 -1v27q0 235 -132 235q-141 0 -141 -434q0 -489 148 -489h1q148 1 148 240v99h248v-75q0 -498 -409 -521q-12 -1 -24 -1q-385 0 -385 740zM335 1798q0 61 43 104t103 43q61 0 104 -43t43 -104q0 -60 -43 -103 t-104 -43q-60 0 -103 43t-43 103z" />
<glyph unicode="&#x10b;" horiz-adv-x="730" d="M30 481v30q10 516 338 521h8q302 0 302 -346q0 -20 -1 -40l-215 -16v24q0 182 -103 182q-105 0 -105 -295v-33q6 -319 106 -319h6q87 7 87 133q0 27 -4 60l238 -15q0 -361 -333 -366q-4 -1 -7 -1q-317 0 -317 481zM206 1373q0 61 43 104t103 43q61 0 104 -43t43 -104 q0 -60 -43 -103t-104 -43q-60 0 -103 43t-43 103z" />
<glyph unicode="&#x10c;" horiz-adv-x="885" d="M38 678q0 724 396 724q373 0 373 -484q0 -29 -1 -60l-222 -1v27q0 235 -132 235q-141 0 -141 -434q0 -489 148 -489h1q148 1 148 240v99h248v-75q0 -498 -409 -521q-12 -1 -24 -1q-385 0 -385 740zM171 1992h200l100 -150l100 150h200l-180 -300h-240z" />
<glyph unicode="&#x10d;" horiz-adv-x="730" d="M30 481v30q10 516 338 521h8q302 0 302 -346q0 -20 -1 -40l-215 -16v24q0 182 -103 182q-105 0 -105 -295v-33q6 -319 106 -319h6q87 7 87 133q0 27 -4 60l238 -15q0 -361 -333 -366q-4 -1 -7 -1q-317 0 -317 481zM53 1474h200l100 -150l100 150h200l-180 -300h-240z" />
<glyph unicode="&#x10e;" horiz-adv-x="875" d="M48 18q2 337 2 694q0 358 -2 735q115 14 212 14q270 0 398 -108q174 -148 182 -547v-72q0 -342 -66 -488q-73 -161 -267 -214q-112 -31 -246 -31q-100 0 -213 17zM138 1938h200l100 -150l100 150h200l-180 -300h-240zM279 525q0 -116 2 -228q35 -8 67 -8q88 0 148 61 q82 82 82 368v4q-1 288 -80 378q-61 68 -145 68q-27 0 -57 -7q-17 -329 -17 -636z" />
<glyph unicode="&#x10f;" horiz-adv-x="1077" d="M55 472q0 10 1 20q6 471 304 471q12 0 25 -1q102 -6 165 -111q0 222 -11 523h266q-6 -338 -6 -709q0 -338 5 -704l-237 -1l-8 153q-74 -111 -197 -111q-307 0 -307 470zM302 500q0 -22 1 -45q10 -229 102 -242q9 -1 18 -1q80 0 132 106l-5 346q-58 79 -119 79 q-25 0 -50 -13q-79 -41 -79 -230zM877 1251q117 139 192 265l164 -130q-106 -104 -236 -255z" />
<glyph unicode="&#x110;" horiz-adv-x="875" d="M-90 630v170h140q-1 310 -2 637q115 14 212 14q270 0 398 -108q174 -148 182 -547v-72q0 -342 -66 -488q-73 -161 -267 -214q-112 -31 -246 -31q-100 0 -213 17q2 302 2 622h-140zM278 514q0 -115 3 -227q35 -8 67 -8q88 0 148 61q82 82 82 368v4q-1 288 -80 378 q-61 68 -145 68q-27 0 -57 -7l-14 -351h128v-170h-131q-1 -58 -1 -116z" />
<glyph unicode="&#x111;" horiz-adv-x="835" d="M46 463q0 10 1 20q6 471 304 471q12 0 25 -1q102 -6 165 -111q0 222 -11 523h266q-6 -338 -6 -709q0 -338 5 -704l-237 -1l-8 153q-74 -111 -197 -111q-307 0 -307 470zM96 1220v200h700v-200h-700zM293 491q0 -22 1 -45q10 -229 102 -242q9 -1 18 -1q80 0 132 106 l-5 346q-58 79 -119 79q-25 0 -50 -13q-79 -41 -79 -230z" />
<glyph unicode="&#x112;" horiz-adv-x="798" d="M48 1370q226 9 635 20v-282l-395 16v-328l355 10l9 -271h-317v-254h415v-284l-692 10q11 281 11 566q0 395 -21 797zM140 1584v250h500v-250h-500z" />
<glyph unicode="&#x113;" horiz-adv-x="747" d="M30 451v30q10 516 335 516q347 0 347 -461q0 -56 -5 -120h-447q0 -257 99 -257h7q87 7 87 133q0 27 -4 60l238 5q0 -381 -333 -386q-4 -1 -7 -1q-317 0 -317 481zM130 1134v250h500v-250h-500zM236 600h226v24q0 182 -103 182q-111 0 -123 -206z" />
<glyph unicode="&#x116;" horiz-adv-x="798" d="M48 1370q226 9 635 20v-282l-395 16v-328l355 10l9 -271h-317v-254h415v-284l-692 10q11 281 11 566q0 395 -21 797zM241 1801q0 61 43 104t103 43q61 0 104 -43t43 -104q0 -60 -43 -103t-104 -43q-60 0 -103 43t-43 103z" />
<glyph unicode="&#x117;" horiz-adv-x="747" d="M30 451v30q10 516 335 516q347 0 347 -461q0 -56 -5 -120h-447q0 -257 99 -257h7q87 7 87 133q0 27 -4 60l238 5q0 -381 -333 -386q-4 -1 -7 -1q-317 0 -317 481zM222 1324q0 61 43 104t103 43q61 0 104 -43t43 -104q0 -60 -43 -103t-104 -43q-60 0 -103 43t-43 103z M236 600h226v24q0 182 -103 182q-111 0 -123 -206z" />
<glyph unicode="&#x118;" horiz-adv-x="798" d="M42 1338q226 9 635 20v-282l-395 16v-328l355 10l9 -271h-317v-254h415v-284l-292 4q-50 -82 -50 -149q0 -90 70 -90t130 40l40 -110q-70 -60 -170 -60q-200 0 -200 190q0 94 73 181l-293 4q11 281 11 566q0 395 -21 797z" />
<glyph unicode="&#x119;" horiz-adv-x="747" d="M30 451v30q10 516 335 516q347 0 347 -461q0 -56 -5 -120h-447q0 -257 99 -257h7q87 7 87 133q0 27 -4 60l238 5q0 -353 -286 -383q-55 -87 -55 -158q0 -90 70 -90t130 40l40 -110q-70 -60 -170 -60q-200 0 -200 190q0 98 79 188q-265 37 -265 477zM236 600h226v24 q0 182 -103 182q-111 0 -123 -206z" />
<glyph unicode="&#x11a;" horiz-adv-x="798" d="M48 1370q226 9 635 20v-282l-395 16v-328l355 10l9 -271h-317v-254h415v-284l-692 10q11 281 11 566q0 395 -21 797zM81 1926h200l100 -150l100 150h200l-180 -300h-240z" />
<glyph unicode="&#x11b;" horiz-adv-x="747" d="M30 451v30q10 516 335 516q347 0 347 -461q0 -56 -5 -120h-447q0 -257 99 -257h7q87 7 87 133q0 27 -4 60l238 5q0 -381 -333 -386q-4 -1 -7 -1q-317 0 -317 481zM53 1439h200l100 -150l100 150h200l-180 -300h-240zM236 600h226v24q0 182 -103 182q-111 0 -123 -206z " />
<glyph unicode="&#x11c;" horiz-adv-x="981" d="M30 610q0 51 3 107q35 721 459 751q21 1 40 1q353 0 353 -476q0 -40 -3 -84l-227 -2q-5 254 -128 267h-18q-110 0 -178 -145t-68 -411v-44q6 -298 209 -298q140 0 140 228q0 23 -1 47l-199 -3l10 225l511 -8v-245l-102 -2q0 -522 -416 -522q-385 0 -385 614zM200 1641 l180 300h240l180 -300h-200l-100 150l-100 -150h-200z" />
<glyph unicode="&#x11d;" horiz-adv-x="827" d="M43 495v7q2 508 353 511q96 0 172 -112l3 159l219 -10q0 -825 -5 -1022t-59.5 -316t-185.5 -152q-69 -18 -137 -18q-61 0 -121 14q-128 30 -176 113q-40 68 -40 178q0 22 2 47l235 13q-1 -12 -1 -24q0 -109 87 -119q14 -2 26 -2q75 0 107 60q28 54 28 202q0 40 -2 88 q-56 -112 -208 -122q-297 3 -297 505zM123 1195l180 300h240l180 -300h-200l-100 150l-100 -150h-200zM283 474q0 -199 74 -244q25 -16 53 -16q62 0 136 76v406q-49 99 -124 99q-15 0 -31 -4q-97 -23 -107 -267q-1 -26 -1 -50z" />
<glyph unicode="&#x11e;" horiz-adv-x="981" d="M30 610q0 51 3 107q35 721 459 751q21 1 40 1q353 0 353 -476q0 -40 -3 -84l-227 -2q-5 254 -128 267h-18q-110 0 -178 -145t-68 -411v-44q6 -298 209 -298q140 0 140 228q0 23 -1 47l-199 -3l10 225l511 -8v-245l-102 -2q0 -522 -416 -522q-385 0 -385 614zM178 1938 h180q0 -120 120 -120t120 120h180q0 -300 -300 -300t-300 300z" />
<glyph unicode="&#x11f;" horiz-adv-x="827" d="M43 495v7q2 508 353 511q96 0 172 -112l3 159l219 -10q0 -825 -5 -1022t-59.5 -316t-185.5 -152q-69 -18 -137 -18q-61 0 -121 14q-128 30 -176 113q-40 68 -40 178q0 22 2 47l235 13q-1 -12 -1 -24q0 -109 87 -119q14 -2 26 -2q75 0 107 60q28 54 28 202q0 40 -2 88 q-56 -112 -208 -122q-297 3 -297 505zM122 1517h180q0 -120 120 -120t120 120h180q0 -300 -300 -300t-300 300zM283 474q0 -199 74 -244q25 -16 53 -16q62 0 136 76v406q-49 99 -124 99q-15 0 -31 -4q-97 -23 -107 -267q-1 -26 -1 -50z" />
<glyph unicode="&#x120;" horiz-adv-x="981" d="M30 610q0 51 3 107q35 721 459 751q21 1 40 1q353 0 353 -476q0 -40 -3 -84l-227 -2q-5 254 -128 267h-18q-110 0 -178 -145t-68 -411v-44q6 -298 209 -298q140 0 140 228q0 23 -1 47l-199 -3l10 225l511 -8v-245l-102 -2q0 -522 -416 -522q-385 0 -385 614zM357 1798 q0 61 43 104t103 43q61 0 104 -43t43 -104q0 -60 -43 -103t-104 -43q-60 0 -103 43t-43 103z" />
<glyph unicode="&#x121;" horiz-adv-x="827" d="M43 495v7q2 508 353 511q96 0 172 -112l3 159l219 -10q0 -825 -5 -1022t-59.5 -316t-185.5 -152q-69 -18 -137 -18q-61 0 -121 14q-128 30 -176 113q-40 68 -40 178q0 22 2 47l235 13q-1 -12 -1 -24q0 -109 87 -119q14 -2 26 -2q75 0 107 60q28 54 28 202q0 40 -2 88 q-56 -112 -208 -122q-297 3 -297 505zM270 1376q0 61 43 104t103 43q61 0 104 -43t43 -104q0 -60 -43 -103t-104 -43q-60 0 -103 43t-43 103zM283 474q0 -199 74 -244q25 -16 53 -16q62 0 136 76v406q-49 99 -124 99q-15 0 -31 -4q-97 -23 -107 -267q-1 -26 -1 -50z" />
<glyph unicode="&#x122;" horiz-adv-x="899" d="M24 612q0 51 3 107q35 721 459 751q21 1 40 1q353 0 353 -476q0 -40 -3 -84l-227 -2q-5 254 -128 267h-18q-110 0 -178 -145t-68 -411v-44q6 -298 209 -298q140 0 140 228q0 23 -1 47l-199 -3l10 225l511 -8v-245l-102 -2q0 -522 -416 -522q-385 0 -385 614zM305 -199 q4 67 8 119q149 45 182 45q18 0 38 -6q56 -17 84 -79q17 -40 17 -82q0 -25 -6 -51q-16 -70 -86 -106q-45 -23 -123 -23q-45 0 -102 8l-10 119q56 -6 95 -6q63 0 83 15q21 16 21 37q0 10 -4 20q-12 27 -42 27q-7 0 -14 -1q-41 -7 -52 -45z" />
<glyph unicode="&#x123;" horiz-adv-x="842" d="M46 529v7q2 508 353 511q96 0 172 -112l3 159l219 -10q0 -825 -5 -1022t-59.5 -316t-185.5 -152q-69 -18 -137 -18q-61 0 -121 14q-128 30 -176 113q-40 68 -40 178q0 22 2 47l235 13q-1 -12 -1 -24q0 -109 87 -119q14 -2 26 -2q75 0 107 60q28 54 28 202q0 40 -2 88 q-56 -112 -208 -122q-297 3 -297 505zM286 508q0 -199 74 -244q25 -16 53 -16q62 0 136 76v406q-49 99 -124 99q-15 0 -31 -4q-97 -23 -107 -267q-1 -26 -1 -50zM304 1243q117 139 192 265l164 -130q-106 -104 -236 -255z" />
<glyph unicode="&#x124;" horiz-adv-x="904" d="M48 1q12 367 12 718q0 350 -12 684h261l-11 -583l285 -12v619l273 -24q-12 -673 -23 -1450h-227v583h-285v-536zM152 1638l180 300h240l180 -300h-200l-100 150l-100 -150h-200z" />
<glyph unicode="&#x125;" d="M34 1403l244 10l10 -563q42 130 196 132h3q152 0 216 -138q44 -94 44 -440q0 -170 -11 -402h-252q13 309 13 479q0 85 -3 136q-10 150 -86 150t-98 -80l10 -725l-245 -2q0 460 -41 1443zM100 1640l180 300h240l180 -300h-200l-100 150l-100 -150h-200z" />
<glyph unicode="&#x126;" horiz-adv-x="904" d="M-172 1020v200h234q-2 84 -5 167h261l-3 -167h213v-200h-217l-4 -216l285 -12v619l273 -24q-12 -673 -23 -1450h-227v583h-285v-536l-273 1q12 367 12 718q0 160 -3 317h-238z" />
<glyph unicode="&#x127;" d="M-193 1155v200h229l-2 48l244 10l1 -58h228v-200h-224l5 -305q42 130 196 132h3q152 0 216 -138q44 -94 44 -440q0 -170 -11 -402h-252q13 309 13 479q0 85 -3 136q-10 150 -86 150t-98 -80l10 -725l-245 -2q0 400 -31 1195h-237z" />
<glyph unicode="&#x12a;" horiz-adv-x="381" d="M-65 1593v250h500v-250h-500zM49 1362l285 24q-11 -679 -12 -1379l-249 -23q0 734 -24 1378z" />
<glyph unicode="&#x12b;" horiz-adv-x="335" d="M-73 1132v250h500v-250h-500zM31 1263q0 60 43 103t103 43q61 0 104 -43t43 -103q0 -61 -43 -104t-104 -43q-60 0 -103 43t-43 104zM49 1012l252 15q-12 -408 -12 -811q0 -108 1 -215h-234q-7 585 -7 1011z" />
<glyph unicode="&#x12e;" horiz-adv-x="381" d="M-37 -210q0 110 100 210h7q0 730 -24 1370l285 24q-11 -679 -12 -1379l-162 -15h6q-70 -100 -70 -180q0 -90 70 -90t130 40l40 -110q-70 -60 -170 -60q-200 0 -200 190z" />
<glyph unicode="&#x12f;" horiz-adv-x="335" d="M-50 -210q0 110 100 210h5q-7 582 -7 1006l252 15q-12 -408 -12 -811q0 -108 1 -215h-142q-67 -97 -67 -175q0 -90 70 -90t130 40l40 -110q-70 -60 -170 -60q-200 0 -200 190zM30 1257q0 60 43 103t103 43q61 0 104 -43t43 -103q0 -61 -43 -104t-104 -43q-60 0 -103 43 t-43 104z" />
<glyph unicode="&#x130;" horiz-adv-x="381" d="M47 1800q0 61 43 104t103 43q61 0 104 -43t43 -104q0 -60 -43 -103t-104 -43q-60 0 -103 43t-43 103zM54 1362l285 24q-11 -679 -12 -1379l-249 -23q0 734 -24 1378z" />
<glyph unicode="&#x131;" horiz-adv-x="335" d="M30 1263q0 60 43 103t103 43q61 0 104 -43t43 -103q0 -61 -43 -104t-104 -43q-60 0 -103 43t-43 104zM48 1012l252 15q-12 -408 -12 -811q0 -108 1 -215h-234q-7 585 -7 1011z" />
<glyph unicode="&#x134;" horiz-adv-x="912" d="M-1 557v42l263 18q-1 -29 -1 -55q0 -223 54 -270q33 -31 71 -31q30 0 62 18q70 39 70 273v23q-4 255 -22 828l285 17q7 -281 7 -496q0 -535 -44 -667q-62 -187 -204 -232q-85 -27 -165 -27q-54 0 -106 13q-129 30 -189.5 129.5t-71.5 210.5q-9 93 -9 206zM310 1632 l180 300h240l180 -300h-200l-100 150l-100 -150h-200z" />
<glyph unicode="&#x135;" horiz-adv-x="591" d="M-3 -147q42 -7 76 -7q95 0 131 55q47 73 47 305v10q-1 239 -19 797l246 18q4 -305 4 -529q0 -281 -6 -437q-10 -280 -118 -380q-95 -88 -277 -88q-27 0 -56 2zM49 1123l199 397h198l199 -397h-166l-132 265l-133 -265h-165z" />
<glyph unicode="&#x136;" horiz-adv-x="840" d="M33 7q7 532 7 1338l250 20l-4 -625q167 322 309 589l280 -16q-141 -262 -386 -647q124 -255 373 -703l-318 -4q-92 233 -272 586v-534zM238 -220q4 67 8 119q149 45 182 45q18 0 38 -6q56 -17 84 -79q17 -40 17 -82q0 -25 -6 -51q-16 -70 -86 -106q-45 -23 -123 -23 q-45 0 -102 8l-10 119q56 -6 95 -6q63 0 83 15q21 16 21 37q0 10 -4 20q-12 27 -42 27q-7 0 -14 -1q-41 -7 -52 -45z" />
<glyph unicode="&#x137;" horiz-adv-x="840" d="M54 7q7 532 7 1338l230 20l-4 -775q137 212 259 409l230 -26q-181 -252 -316 -477q114 -205 313 -533l-248 -24q-112 243 -252 456v-384zM217 -214q4 67 8 119q149 45 182 45q18 0 38 -6q56 -17 84 -79q17 -40 17 -82q0 -25 -6 -51q-16 -70 -86 -106q-45 -23 -123 -23 q-45 0 -102 8l-10 119q56 -6 95 -6q63 0 83 15q21 16 21 37q0 10 -4 20q-12 27 -42 27q-7 0 -14 -1q-41 -7 -52 -45z" />
<glyph unicode="&#x139;" horiz-adv-x="842" d="M48 1457l301 27q-18 -521 -18 -893q0 -148 3 -273l446 22l7 -326l-714 -16q1 132 1 263q0 601 -26 1196zM374 1607q117 139 192 265l164 -130q-106 -104 -236 -255z" />
<glyph unicode="&#x13a;" horiz-adv-x="367" d="M17 1724q117 139 192 265l164 -130q-106 -104 -236 -255zM69 1432l245 4q-4 -245 -4 -503q0 -445 12 -926l-249 -23q4 331 4 637q0 430 -8 811z" />
<glyph unicode="&#x13b;" horiz-adv-x="840" d="M48 1454l301 27q-18 -521 -18 -893q0 -148 3 -273l446 22l7 -326l-714 -16q1 132 1 263q0 601 -26 1196zM247 -202q4 67 8 119q149 45 182 45q18 0 38 -6q56 -17 84 -79q17 -40 17 -82q0 -25 -6 -51q-16 -70 -86 -106q-45 -23 -123 -23q-45 0 -102 8l-10 119q56 -6 95 -6 q63 0 83 15q21 16 21 37q0 10 -4 20q-12 27 -42 27q-7 0 -14 -1q-41 -7 -52 -45z" />
<glyph unicode="&#x13c;" horiz-adv-x="470" d="M55 -188q4 67 8 119q149 45 182 45q18 0 38 -6q56 -17 84 -79q17 -40 17 -82q0 -25 -6 -51q-16 -70 -86 -106q-45 -23 -123 -23q-45 0 -102 8l-10 119q56 -6 95 -6q63 0 83 15q21 16 21 37q0 10 -4 20q-12 27 -42 27q-7 0 -14 -1q-41 -7 -52 -45zM74 1438l245 4 q-4 -245 -4 -503q0 -445 12 -926l-249 -23q4 331 4 637q0 430 -8 811z" />
<glyph unicode="&#x13d;" horiz-adv-x="840" d="M48 1464l301 27q-18 -521 -18 -893q0 -148 3 -273l446 22l7 -326l-714 -16q1 132 1 263q0 601 -26 1196zM484 1313q117 139 192 265l164 -130q-106 -104 -236 -255z" />
<glyph unicode="&#x13e;" horiz-adv-x="669" d="M71 1441l245 4q-4 -245 -4 -503q0 -445 12 -926l-249 -23q4 331 4 637q0 430 -8 811zM398 1285q117 139 192 265l164 -130q-106 -104 -236 -255z" />
<glyph unicode="&#x13f;" horiz-adv-x="842" d="M48 1457l301 27q-18 -521 -18 -893q0 -148 3 -273l446 22l7 -326l-714 -16q1 132 1 263q0 601 -26 1196zM483 811q0 52 36.5 88.5t87.5 36.5q52 0 88.5 -36.5t36.5 -88.5q0 -51 -36.5 -87.5t-88.5 -36.5q-51 0 -87.5 36.5t-36.5 87.5z" />
<glyph unicode="&#x140;" horiz-adv-x="616" d="M68 1432l245 4q-4 -245 -4 -503q0 -445 12 -926l-249 -23q4 331 4 637q0 430 -8 811zM351 770q0 52 36.5 88.5t87.5 36.5q52 0 88.5 -36.5t36.5 -88.5q0 -51 -36.5 -87.5t-88.5 -36.5q-51 0 -87.5 36.5t-36.5 87.5z" />
<glyph unicode="&#x141;" horiz-adv-x="842" d="M-125 714v200h191q-6 272 -18 543l301 27q-11 -312 -15 -570h241v-200h-244v-123q0 -148 3 -273l446 22l7 -326l-714 -16q1 132 1 263q0 227 -4 453h-195z" />
<glyph unicode="&#x142;" horiz-adv-x="367" d="M-155 670v200h231q-1 293 -7 562l245 4q-4 -245 -4 -503v-63h235v-200h-234q3 -322 11 -663l-249 -23q4 331 4 637v49h-232z" />
<glyph unicode="&#x143;" horiz-adv-x="947" d="M48 1360l294 14l270 -753q-4 388 -22 794l309 4q-46 -613 -46 -1238q0 -84 1 -168l-271 -3l-288 806q13 -446 24 -829l-267 -18q12 342 12 666q0 374 -16 725zM352 1680q117 139 192 265l164 -130q-106 -104 -236 -255z" />
<glyph unicode="&#x144;" horiz-adv-x="786" d="M40 993l184 20l10 -163q42 130 221 132h4q176 0 240 -138q44 -94 44 -440q0 -170 -11 -402h-242q13 309 13 479q0 85 -3 136q-10 150 -96 150t-108 -80l10 -725l-235 -2q0 460 -31 1033zM273 1232q117 139 192 265l164 -130q-106 -104 -236 -255z" />
<glyph unicode="&#x145;" horiz-adv-x="839" d="M3 1356l294 14l270 -753q-4 388 -22 794l309 4q-46 -613 -46 -1238q0 -84 1 -168l-271 -3l-288 806q13 -446 24 -829l-267 -18q12 342 12 666q0 374 -16 725zM259 -205q4 67 8 119q149 45 182 45q18 0 38 -6q56 -17 84 -79q17 -40 17 -82q0 -25 -6 -51q-16 -70 -86 -106 q-45 -23 -123 -23q-45 0 -102 8l-10 119q56 -6 95 -6q63 0 83 15q21 16 21 37q0 10 -4 20q-12 27 -42 27q-7 0 -14 -1q-41 -7 -52 -45z" />
<glyph unicode="&#x146;" horiz-adv-x="839" d="M28 1002l184 20l10 -163q42 130 221 132h4q176 0 240 -138q44 -94 44 -440q0 -170 -11 -402h-242q13 309 13 479q0 85 -3 136q-10 150 -96 150t-108 -80l10 -725l-235 -2q0 460 -31 1033zM253 -208q4 67 8 119q149 45 182 45q18 0 38 -6q56 -17 84 -79q17 -40 17 -82 q0 -25 -6 -51q-16 -70 -86 -106q-45 -23 -123 -23q-45 0 -102 8l-10 119q56 -6 95 -6q63 0 83 15q21 16 21 37q0 10 -4 20q-12 27 -42 27q-7 0 -14 -1q-41 -7 -52 -45z" />
<glyph unicode="&#x147;" horiz-adv-x="947" d="M48 1351l294 14l270 -753q-4 388 -22 794l309 4q-46 -613 -46 -1238q0 -84 1 -168l-271 -3l-288 806q13 -446 24 -829l-267 -18q12 342 12 666q0 374 -16 725zM174 1944h200l100 -150l100 150h200l-180 -300h-240z" />
<glyph unicode="&#x148;" horiz-adv-x="786" d="M40 993l184 20l10 -163q42 130 221 132h4q176 0 240 -138q44 -94 44 -440q0 -170 -11 -402h-242q13 309 13 479q0 85 -3 136q-10 150 -96 150t-108 -80l10 -725l-235 -2q0 460 -31 1033zM86 1483h200l100 -150l100 150h200l-180 -300h-240z" />
<glyph unicode="&#x150;" horiz-adv-x="952" d="M26 740q0 694 481 694q421 0 421 -720q0 -721 -451 -721t-451 747zM194 1692q117 139 192 265l164 -130q-106 -104 -236 -255zM306 637q0 -377 176 -377q187 0 187 427t-174 427q-175 0 -188 -427q-1 -26 -1 -50zM517 1698q117 139 192 265l164 -130q-106 -104 -236 -255 z" />
<glyph unicode="&#x151;" horiz-adv-x="747" d="M30 463v28q10 516 362 516q340 0 340 -472q0 -19 -1 -38q-14 -511 -362 -516q-4 -1 -8 -1q-331 0 -331 483zM53 1225q117 139 192 265l164 -130q-106 -104 -236 -255zM259 447q0 -57 6 -115q16 -144 103 -149h7q81 0 111 107q25 89 25 211q0 30 -1 61q-8 161 -48 201 q-25 24 -60 24q-20 0 -43 -8q-63 -22 -86 -163q-14 -84 -14 -169zM376 1231q117 139 192 265l164 -130q-106 -104 -236 -255z" />
<glyph unicode="&#x152;" horiz-adv-x="1327" d="M26 716q0 694 481 694q98 0 173 -39q224 9 612 19v-282l-395 16v-96q22 -102 28 -231l327 9l9 -271h-317v-254h415v-284l-692 10v3q-82 -41 -190 -41q-451 0 -451 747zM306 613q0 -377 176 -377q187 0 187 427t-174 427q-175 0 -188 -427q-1 -26 -1 -50z" />
<glyph unicode="&#x153;" horiz-adv-x="1313" d="M30 463v28q10 516 362 516q204 0 285 -169q84 159 264 159q347 0 347 -461q0 -56 -5 -120h-447q0 -257 99 -257h7q87 7 87 133q0 27 -4 60l238 5q0 -381 -333 -386q-4 -1 -7 -1q-192 0 -268 177q-90 -163 -286 -166q-4 -1 -8 -1q-331 0 -331 483zM259 447q0 -57 6 -115 q16 -144 103 -149h7q81 0 111 107q25 89 25 211q0 30 -1 61q-8 161 -48 201q-25 24 -60 24q-20 0 -43 -8q-63 -22 -86 -163q-14 -84 -14 -169zM812 600h226v24q0 182 -103 182q-111 0 -123 -206z" />
<glyph unicode="&#x154;" horiz-adv-x="895" d="M48 1448q155 16 278 16q342 0 436 -125q88 -117 88 -258q0 -64 -17 -132q-58 -220 -244 -279q130 -18 197 -140q64 -118 64 -594v-43l-302 -4q5 126 5 226q0 303 -49 371q-56 76 -133 76q-15 0 -31 -3q6 -305 26 -578l-310 -6q6 286 6 576q0 444 -14 897zM311 1674 q117 139 192 265l164 -130q-106 -104 -236 -255zM312 1255l7 -428q186 9 236 126q27 62 27 121q0 51 -20 100q-36 85 -179 85q-33 0 -71 -4z" />
<glyph unicode="&#x155;" horiz-adv-x="759" d="M40 1033l184 20l10 -163q42 120 196 137q23 2 44 2q121 0 184 -79q73 -94 74 -299l-222 -22q1 17 1 33q0 160 -83 160h-4q-96 -5 -118 -95l10 -725l-245 -2q0 460 -31 1033zM267 1250q117 139 192 265l164 -130q-106 -104 -236 -255z" />
<glyph unicode="&#x158;" horiz-adv-x="895" d="M36 1469q155 16 278 16q342 0 436 -125q88 -117 88 -258q0 -64 -17 -132q-58 -220 -244 -279q130 -18 197 -140q64 -118 64 -594v-43l-302 -4q5 126 5 226q0 303 -49 371q-56 76 -133 76q-15 0 -31 -3q6 -305 26 -578l-310 -6q6 286 6 576q0 444 -14 897zM119 1929h200 l100 -150l100 150h200l-180 -300h-240zM300 1276l7 -428q186 9 236 126q27 62 27 121q0 51 -20 100q-36 85 -179 85q-33 0 -71 -4z" />
<glyph unicode="&#x159;" horiz-adv-x="759" d="M40 1033l184 20l10 -163q42 120 196 137q23 2 44 2q121 0 184 -79q73 -94 74 -299l-222 -22q1 17 1 33q0 160 -83 160h-4q-96 -5 -118 -95l10 -725l-245 -2q0 460 -31 1033zM50 1495h200l100 -150l100 150h200l-180 -300h-240z" />
<glyph unicode="&#x15a;" horiz-adv-x="909" d="M50 494q0 36 2 75l297 20q-6 -62 -6 -112q0 -227 113 -227h4q137 4 137 146v9q-5 151 -259 296q-247 140 -247 462q0 10 1 20q7 337 378 343h8q335 0 335 -427q0 -34 -2 -72l-261 -15q4 45 4 83q0 179 -87 179q-105 0 -115 -107q-1 -15 -1 -30q0 -89 53 -166 q61 -89 209.5 -163t207.5 -203q42 -93 42 -198q0 -40 -6 -82q-23 -151 -128 -250.5t-282 -108.5q-12 -1 -24 -1q-161 0 -269 118q-104 113 -104 411zM322 1709q117 139 192 265l164 -130q-106 -104 -236 -255z" />
<glyph unicode="&#x15b;" horiz-adv-x="710" d="M28 345l229 11v-13q0 -154 95 -156h4q92 0 92 89v7q-4 98 -181.5 158t-213.5 202q-13 50 -13 96q0 84 43 156q66 110 200 126q36 4 70 4q89 0 157 -31q93 -43 129 -123q24 -55 24 -122q0 -32 -5 -66l-214 -5q3 25 3 46q0 100 -64 107q-7 1 -14 1q-66 0 -89 -67 q-8 -23 -8 -42q0 -47 44 -81q62 -48 183.5 -97.5t163.5 -168.5q15 -45 15 -90q0 -76 -44 -153q-70 -123 -217 -143q-32 -5 -63 -5q-110 0 -204 57q-120 73 -122 303zM207 1234q117 139 192 265l164 -130q-106 -104 -236 -255z" />
<glyph unicode="&#x15c;" horiz-adv-x="909" d="M50 494q0 36 2 75l297 20q-6 -62 -6 -112q0 -227 113 -227h4q137 4 137 146v9q-5 151 -259 296q-247 140 -247 462q0 10 1 20q7 337 378 343h8q335 0 335 -427q0 -34 -2 -72l-261 -15q4 45 4 83q0 179 -87 179q-105 0 -115 -107q-1 -15 -1 -30q0 -89 53 -166 q61 -89 209.5 -163t207.5 -203q42 -93 42 -198q0 -40 -6 -82q-23 -151 -128 -250.5t-282 -108.5q-12 -1 -24 -1q-161 0 -269 118q-104 113 -104 411zM151 1632l180 300h240l180 -300h-200l-100 150l-100 -150h-200z" />
<glyph unicode="&#x15d;" horiz-adv-x="710" d="M28 345l229 11v-13q0 -154 95 -156h4q92 0 92 89v7q-4 98 -181.5 158t-213.5 202q-13 50 -13 96q0 84 43 156q66 110 200 126q36 4 70 4q89 0 157 -31q93 -43 129 -123q24 -55 24 -122q0 -32 -5 -66l-214 -5q3 25 3 46q0 100 -64 107q-7 1 -14 1q-66 0 -89 -67 q-8 -23 -8 -42q0 -47 44 -81q62 -48 183.5 -97.5t163.5 -168.5q15 -45 15 -90q0 -76 -44 -153q-70 -123 -217 -143q-32 -5 -63 -5q-110 0 -204 57q-120 73 -122 303zM41 1139l180 300h240l180 -300h-200l-100 150l-100 -150h-200z" />
<glyph unicode="&#x15e;" horiz-adv-x="909" d="M50 494q0 36 2 75l297 20q-6 -62 -6 -112q0 -227 113 -227h4q137 4 137 146v9q-5 151 -259 296q-247 140 -247 462q0 10 1 20q7 337 378 343h8q335 0 335 -427q0 -34 -2 -72l-261 -15q4 45 4 83q0 179 -87 179q-105 0 -115 -107q-1 -15 -1 -30q0 -89 53 -166 q61 -89 209.5 -163t207.5 -203q42 -93 42 -198q0 -40 -6 -82q-23 -151 -128 -250.5t-282 -108.5q-9 -1 -19 -1l-5 -50q26 21 59 21q18 0 38 -6q56 -17 84 -79q17 -40 17 -82q0 -25 -6 -51q-16 -70 -86 -106q-45 -23 -123 -23q-45 0 -102 8l-10 119q56 -6 95 -6q63 0 83 15 q21 16 21 37q0 10 -4 20q-12 27 -42 27q-7 0 -14 -1q-41 -7 -52 -45l-89 9q9 135 16 210q-87 28 -154 101q-104 113 -104 411z" />
<glyph unicode="&#x15f;" horiz-adv-x="710" d="M20 333l229 11v-13q0 -154 95 -156h4q92 0 92 89v7q-4 98 -181.5 158t-213.5 202q-13 50 -13 96q0 84 43 156q66 110 200 126q36 4 70 4q89 0 157 -31q93 -43 129 -123q24 -55 24 -122q0 -32 -5 -66l-214 -5q3 25 3 46q0 100 -64 107q-7 1 -14 1q-66 0 -89 -67 q-8 -23 -8 -42q0 -47 44 -81q62 -48 183.5 -97.5t163.5 -168.5q15 -45 15 -90q0 -76 -44 -153q-70 -123 -217 -143q-32 -5 -63 -5h-20l-6 -58q26 21 59 21q18 0 38 -6q56 -17 84 -79q17 -40 17 -82q0 -25 -6 -51q-16 -70 -86 -106q-45 -23 -123 -23q-45 0 -102 8l-10 119 q56 -6 95 -6q63 0 83 15q21 16 21 37q0 10 -4 20q-12 27 -42 27q-7 0 -14 -1q-41 -7 -52 -45l-89 9q10 150 17 226q-33 13 -64 32q-120 73 -122 303z" />
<glyph unicode="&#x160;" horiz-adv-x="909" d="M53 504q0 36 2 75l297 20q-6 -62 -6 -112q0 -227 113 -227h4q137 4 137 146v9q-5 151 -259 296q-247 140 -247 462q0 10 1 20q7 337 378 343h8q335 0 335 -427q0 -34 -2 -72l-261 -15q4 45 4 83q0 179 -87 179q-105 0 -115 -107q-1 -15 -1 -30q0 -89 53 -166 q61 -89 209.5 -163t207.5 -203q42 -93 42 -198q0 -40 -6 -82q-23 -151 -128 -250.5t-282 -108.5q-12 -1 -24 -1q-161 0 -269 118q-104 113 -104 411zM175 1898h200l100 -150l100 150h200l-180 -300h-240z" />
<glyph unicode="&#x161;" horiz-adv-x="710" d="M28 342l229 11v-13q0 -154 95 -156h4q92 0 92 89v7q-4 98 -181.5 158t-213.5 202q-13 50 -13 96q0 84 43 156q66 110 200 126q36 4 70 4q89 0 157 -31q93 -43 129 -123q24 -55 24 -122q0 -32 -5 -66l-214 -5q3 25 3 46q0 100 -64 107q-7 1 -14 1q-66 0 -89 -67 q-8 -23 -8 -42q0 -47 44 -81q62 -48 183.5 -97.5t163.5 -168.5q15 -45 15 -90q0 -76 -44 -153q-70 -123 -217 -143q-32 -5 -63 -5q-110 0 -204 57q-120 73 -122 303zM56 1423h200l100 -150l100 150h200l-180 -300h-240z" />
<glyph unicode="&#x162;" horiz-adv-x="835" d="M51 1149v263q147 -4 291 -4q224 0 439 9l9 -280h-252q0 -711 15 -1128l-160 -8l-9 -86q26 21 59 21q18 0 38 -6q56 -17 84 -79q17 -40 17 -82q0 -25 -6 -51q-16 -70 -86 -106q-45 -23 -123 -23q-45 0 -102 8l-10 119q56 -6 95 -6q63 0 83 15q21 16 21 37q0 10 -4 20 q-12 27 -42 27q-7 0 -14 -1q-41 -7 -52 -45l-89 9q10 156 18 232q22 704 32 1149z" />
<glyph unicode="&#x163;" horiz-adv-x="671" d="M18 1006l168 -2l-1 316l227 15v-331l191 5l3 -189l-194 -9v-455q0 -159 135 -159q28 0 61 7l-9 -220q-48 -6 -91 -6t-80 6l-5 -53q26 21 59 21q18 0 38 -6q56 -17 84 -79q17 -40 17 -82q0 -25 -6 -51q-16 -70 -86 -106q-45 -23 -123 -23q-45 0 -102 8l-10 119 q56 -6 95 -6q63 0 83 15q21 16 21 37q0 10 -4 20q-12 27 -42 27q-7 0 -14 -1q-41 -7 -52 -45l-89 9q10 156 18 232h11q-131 75 -135 284v489l-164 -10z" />
<glyph unicode="&#x164;" horiz-adv-x="835" d="M48 1142v263q147 -4 291 -4q224 0 439 9l9 -280h-252q0 -711 15 -1128l-282 -14q22 710 32 1158zM109 1935h200l100 -150l100 150h200l-180 -300h-240z" />
<glyph unicode="&#x165;" horiz-adv-x="793" d="M40 1033l168 -2l-1 316l227 15v-331l191 5l3 -189l-194 -9v-455q0 -159 135 -159q28 0 61 7l-9 -220q-48 -6 -91 -6q-316 0 -322 326v489l-164 -10zM518 1314q122 157 203 281l160 -135q-109 -98 -222 -240z" />
<glyph unicode="&#x16a;" horiz-adv-x="912" d="M48 1463h266q-10 -226 -10 -531q0 -214 5 -468q2 -186 134 -186q0 -1 1 -1q131 0 131 238l-5 922l294 9v-989q0 -457 -418 -457h-22q-350 40 -362 383q0 685 -14 1080zM206 1599v250h500v-250h-500z" />
<glyph unicode="&#x16b;" horiz-adv-x="786" d="M39 606q0 176 11 415h243q-20 -336 -20 -517q0 -91 5 -142q15 -156 101 -156t108 81l-10 694l235 2q0 -430 31 -1002l-184 -21l-10 163q-42 -130 -226 -131q-2 -1 -3 -1q-182 0 -241 164q-40 109 -40 451zM135 1150v250h500v-250h-500z" />
<glyph unicode="&#x16c;" horiz-adv-x="912" d="M48 1463h266q-10 -226 -10 -531q0 -214 5 -468q2 -186 134 -186q0 -1 1 -1q131 0 131 238l-5 922l294 9v-989q0 -457 -418 -457h-22q-350 40 -362 383q0 685 -14 1080zM143 1925h180q0 -120 120 -120t120 120h180q0 -300 -300 -300t-300 300z" />
<glyph unicode="&#x16d;" horiz-adv-x="786" d="M39 606q0 176 11 415h243q-20 -336 -20 -517q0 -91 5 -142q15 -156 101 -156t108 81l-10 694l235 2q0 -430 31 -1002l-184 -21l-10 163q-42 -130 -226 -131q-2 -1 -3 -1q-182 0 -241 164q-40 109 -40 451zM84 1444h180q0 -120 120 -120t120 120h180q0 -300 -300 -300 t-300 300z" />
<glyph unicode="&#x16e;" horiz-adv-x="912" d="M48 1463h266q-10 -226 -10 -531q0 -214 5 -468q2 -186 134 -186q0 -1 1 -1q131 0 131 238l-5 922l294 9v-989q0 -457 -418 -457h-22q-350 40 -362 383q0 685 -14 1080zM266 1762q0 83 58.5 141.5t141.5 58.5t141.5 -58.5t58.5 -141.5t-58.5 -141.5t-141.5 -58.5 t-141.5 58.5t-58.5 141.5zM384 1762q0 -34 24 -58t58 -24t58.5 24t24.5 58t-24.5 58.5t-58.5 24.5t-58 -24.5t-24 -58.5z" />
<glyph unicode="&#x16f;" horiz-adv-x="786" d="M39 536q0 176 11 415h243q-20 -336 -20 -517q0 -91 5 -142q15 -156 101 -156t108 81l-10 694l235 2q0 -430 31 -1002l-184 -21l-10 163q-42 -130 -226 -131q-2 -1 -3 -1q-182 0 -241 164q-40 109 -40 451zM191 1330q0 83 58.5 141.5t141.5 58.5t141.5 -58.5t58.5 -141.5 t-58.5 -141.5t-141.5 -58.5t-141.5 58.5t-58.5 141.5zM309 1330q0 -34 24 -58t58 -24t58.5 24t24.5 58t-24.5 58.5t-58.5 24.5t-58 -24.5t-24 -58.5z" />
<glyph unicode="&#x170;" horiz-adv-x="912" d="M48 1463h266q-10 -226 -10 -531q0 -214 5 -468q2 -186 134 -186q0 -1 1 -1q131 0 131 238l-5 922l294 9v-989q0 -457 -418 -457h-22q-350 40 -362 383q0 685 -14 1080zM176 1691q117 139 192 265l164 -130q-106 -104 -236 -255zM499 1697q117 139 192 265l164 -130 q-106 -104 -236 -255z" />
<glyph unicode="&#x171;" horiz-adv-x="786" d="M39 606q0 176 11 415h243q-20 -336 -20 -517q0 -91 5 -142q15 -156 101 -156t108 81l-10 694l235 2q0 -430 31 -1002l-184 -21l-10 163q-42 -130 -226 -131q-2 -1 -3 -1q-182 0 -241 164q-40 109 -40 451zM74 1240q117 139 192 265l164 -130q-106 -104 -236 -255z M397 1246q117 139 192 265l164 -130q-106 -104 -236 -255z" />
<glyph unicode="&#x172;" horiz-adv-x="912" d="M45 1428h266q-10 -226 -10 -531q0 -214 5 -468q2 -186 134 -186q0 -1 1 -1q131 0 131 238l-5 922l294 9v-989q0 -457 -418 -457h-4q-37 -68 -37 -126q0 -90 70 -90t130 40l40 -110q-70 -60 -170 -60q-200 0 -200 190q0 89 65 171q-268 69 -278 368q0 685 -14 1080z" />
<glyph unicode="&#x173;" horiz-adv-x="786" d="M36 579q0 176 11 415h243q-20 -336 -20 -517q0 -91 5 -142q15 -156 101 -156t108 81l-10 694l235 2q0 -430 31 -1002l-123 -14q-33 -65 -33 -120q0 -90 70 -90t130 40l40 -110q-70 -60 -170 -60q-200 0 -200 190q0 109 98 208l-6 98q-42 -130 -226 -131q-2 -1 -3 -1 q-182 0 -241 164q-40 109 -40 451z" />
<glyph unicode="&#x178;" horiz-adv-x="835" d="M-40 1392l282 29l191 -558q129 402 207 599h273q-245 -603 -352 -873v-589l-260 -12l11 620q-228 482 -352 784zM84 1745q0 61 43 104t103 43q61 0 104 -43t43 -104q0 -60 -43 -103t-104 -43q-60 0 -103 43t-43 103zM495 1745q0 61 43 104t103 43q61 0 104 -43t43 -104 q0 -60 -43 -103t-104 -43q-60 0 -103 43t-43 103z" />
<glyph unicode="&#x179;" horiz-adv-x="826" d="M51 292q290 502 434 832l-424 -2l14 260q473 6 685 6v-263q-264 -513 -432 -858q116 -3 220 -3q121 0 226 4l10 -279q-265 11 -712 11zM290 1667q117 139 192 265l164 -130q-106 -104 -236 -255z" />
<glyph unicode="&#x17a;" horiz-adv-x="685" d="M30 186l373 635q-179 0 -353 -13l-5 214q88 -2 197 -2q175 0 405 5l5 -204l-356 -600h356l-3 -219q-251 0 -611 -10zM222 1222q117 139 192 265l164 -130q-106 -104 -236 -255z" />
<glyph unicode="&#x17b;" horiz-adv-x="826" d="M51 292q290 502 434 832l-424 -2l14 260q473 6 685 6v-263q-264 -513 -432 -858q116 -3 220 -3q121 0 226 4l10 -279q-265 11 -712 11zM259 1789q0 61 43 104t103 43q61 0 104 -43t43 -104q0 -60 -43 -103t-104 -43q-60 0 -103 43t-43 103z" />
<glyph unicode="&#x17c;" horiz-adv-x="685" d="M30 186l373 635q-179 0 -353 -13l-5 214q88 -2 197 -2q175 0 405 5l5 -204l-356 -600h356l-3 -219q-251 0 -611 -10zM201 1339q0 61 43 104t103 43q61 0 104 -43t43 -104q0 -60 -43 -103t-104 -43q-60 0 -103 43t-43 103z" />
<glyph unicode="&#x17d;" horiz-adv-x="826" d="M30 295q290 502 434 832l-424 -2l14 260q473 6 685 6v-263q-264 -513 -432 -858q116 -3 220 -3q121 0 226 4l10 -279q-265 11 -712 11zM109 1883h200l100 -150l100 150h200l-180 -300h-240z" />
<glyph unicode="&#x17e;" horiz-adv-x="685" d="M21 186l373 635q-179 0 -353 -13l-5 214q88 -2 197 -2q175 0 405 5l5 -204l-356 -600h356l-3 -219q-251 0 -611 -10zM39 1447h200l100 -150l100 150h200l-180 -300h-240z" />
<glyph unicode="&#x192;" horiz-adv-x="699" d="M-12 -120q42 -7 76 -7q95 0 131 55q47 73 47 305v10q-12 343 -12 522v65l-162 -8l-4 215l158 7q-2 27 -2 55q0 94 19 193q23 129 140 206q87 58 220 58q44 0 94 -7l-2 -219q-30 4 -56 4q-83 0 -122 -41q-43 -43 -43 -168q0 -30 3 -66l214 3v-203l-220 -14q3 -302 3 -491 q0 -188 -3 -262q-10 -280 -118 -380q-95 -88 -277 -88q-27 0 -56 2z" />
<glyph unicode="&#x218;" horiz-adv-x="836" d="M50 534q0 36 2 75l297 20q-6 -62 -6 -112q0 -227 113 -227h4q137 4 137 146v9q-5 151 -259 296q-247 140 -247 462q0 10 1 20q7 337 378 343h8q335 0 335 -427q0 -34 -2 -72l-261 -15q4 45 4 83q0 179 -87 179q-105 0 -115 -107q-1 -15 -1 -30q0 -89 53 -166 q61 -89 209.5 -163t207.5 -203q42 -93 42 -198q0 -40 -6 -82q-23 -151 -128 -250.5t-282 -108.5q-12 -1 -24 -1q-161 0 -269 118q-104 113 -104 411zM261 -283q117 139 192 265l164 -130q-106 -104 -236 -255z" />
<glyph unicode="&#x219;" horiz-adv-x="712" d="M19 356l229 11v-13q0 -154 95 -156h4q92 0 92 89v7q-4 98 -181.5 158t-213.5 202q-13 50 -13 96q0 84 43 156q66 110 200 126q36 4 70 4q89 0 157 -31q93 -43 129 -123q24 -55 24 -122q0 -32 -5 -66l-214 -5q3 25 3 46q0 100 -64 107q-7 1 -14 1q-66 0 -89 -67 q-8 -23 -8 -42q0 -47 44 -81q62 -48 183.5 -97.5t163.5 -168.5q15 -45 15 -90q0 -76 -44 -153q-70 -123 -217 -143q-32 -5 -63 -5q-110 0 -204 57q-120 73 -122 303zM161 -287q117 139 192 265l164 -130q-106 -104 -236 -255z" />
<glyph unicode="&#x21a;" horiz-adv-x="836" d="M42 1151v263q147 -4 291 -4q224 0 439 9l9 -280h-252q0 -711 15 -1128l-282 -14q22 710 32 1158zM161 -287q117 139 192 265l164 -130q-106 -104 -236 -255z" />
<glyph unicode="&#x21b;" horiz-adv-x="836" d="M49 1024l168 -2l-1 316l227 15v-331l191 5l3 -189l-194 -9v-455q0 -159 135 -159q28 0 61 7l-9 -220q-48 -6 -91 -6q-316 0 -322 326v489l-164 -10zM258 -319q117 139 192 265l164 -130q-106 -104 -236 -255z" />
<glyph unicode="&#x2c6;" horiz-adv-x="690" d="M50 1289l180 300h240l180 -300h-200l-100 150l-100 -150h-200z" />
<glyph unicode="&#x2c7;" horiz-adv-x="690" d="M44 1589h200l100 -150l100 150h200l-180 -300h-240z" />
<glyph unicode="&#x2d8;" horiz-adv-x="690" d="M40 1595h180q0 -120 120 -120t120 120h180q0 -300 -300 -300t-300 300z" />
<glyph unicode="&#x2d9;" horiz-adv-x="368" d="M34 1451q0 61 43 104t103 43q61 0 104 -43t43 -104q0 -60 -43 -103t-104 -43q-60 0 -103 43t-43 103z" />
<glyph unicode="&#x2da;" horiz-adv-x="490" d="M50 1400q0 83 58.5 141.5t141.5 58.5t141.5 -58.5t58.5 -141.5t-58.5 -141.5t-141.5 -58.5t-141.5 58.5t-58.5 141.5zM168 1400q0 -34 24 -58t58 -24t58.5 24t24.5 58t-24.5 58.5t-58.5 24.5t-58 -24.5t-24 -58.5z" />
<glyph unicode="&#x2db;" horiz-adv-x="460" d="M50 -210q0 110 100 210h100q-70 -100 -70 -180q0 -90 70 -90t130 40l40 -110q-70 -60 -170 -60q-200 0 -200 190z" />
<glyph unicode="&#x2dc;" horiz-adv-x="740" d="M44 1290q0 300 200 300q100 0 155 -75q46 -62 85 -62q8 0 15 2q45 15 45 135h150q0 -300 -200 -300q-100 0 -160 75q-50 63 -86 63q-7 0 -14 -3q-40 -15 -40 -135h-150z" />
<glyph unicode="&#x2dd;" horiz-adv-x="728" d="M30 1331q117 139 192 265l164 -130q-106 -104 -236 -255zM353 1337q117 139 192 265l164 -130q-106 -104 -236 -255z" />
<glyph unicode="&#x386;" horiz-adv-x="960" d="M-71 1466q117 139 192 265l164 -130q-106 -104 -236 -255zM-15 -40q188 854 304 1448l375 6q138 -618 316 -1408l-256 -52l-81 379h-311l-84 -409zM311 607l324 7q-52 216 -170 517q-91 -253 -154 -524z" />
<glyph unicode="&#x388;" horiz-adv-x="1049" d="M18 1337q117 139 192 265l164 -130q-106 -104 -236 -255zM316 1370q226 9 635 20v-282l-395 16v-328l355 10l9 -271h-317v-254h415v-284l-692 10q11 281 11 566q0 395 -21 797z" />
<glyph unicode="&#x389;" horiz-adv-x="1206" d="M18 1337q117 139 192 265l164 -130q-106 -104 -236 -255zM356 -18q12 367 12 718q0 350 -12 684h261l-11 -583l285 -12v619l273 -24q-12 -673 -23 -1450h-227v583h-285v-536z" />
<glyph unicode="&#x38a;" horiz-adv-x="636" d="M18 1337q117 139 192 265l164 -130q-106 -104 -236 -255zM326 1362l285 24q-11 -679 -12 -1379l-249 -23q0 734 -24 1378z" />
<glyph unicode="&#x38c;" horiz-adv-x="1088" d="M18 1337q117 139 192 265l164 -130q-106 -104 -236 -255zM164 740q0 694 481 694q421 0 421 -720q0 -721 -451 -721t-451 747zM444 637q0 -377 176 -377q187 0 187 427t-174 427q-175 0 -188 -427q-1 -26 -1 -50z" />
<glyph unicode="&#x38e;" horiz-adv-x="1197" d="M18 1434q117 139 192 265l164 -130q-106 -104 -236 -255zM241 1389l282 29l191 -558q129 402 207 599h273q-245 -603 -352 -873v-589l-260 -12l11 620q-228 482 -352 784z" />
<glyph unicode="&#x38f;" horiz-adv-x="1399" d="M18 1337q117 139 192 265l164 -130q-106 -104 -236 -255zM78 211l513 12q-1 -101 -1 -201v-20l-507 -25zM134 743q0 641 616 641q540 0 540 -665q0 -566 -417 -651l-13 229q175 84 175 419q0 448 -291 448q-293 0 -314 -448q-2 -28 -2 -53q0 -294 163 -369l-2 -232 q-455 69 -455 681zM868 222l513 12q-1 -101 -1 -201v-20l-507 -25z" />
<glyph unicode="&#x390;" horiz-adv-x="530" d="M-218 1376q0 61 43 104t103 43q61 0 104 -43t43 -104q0 -60 -43 -103t-104 -43q-60 0 -103 43t-43 103zM53 882l245 3q-4 -161 -4 -330q0 -292 12 -607l-249 -15q4 217 4 418q0 282 -8 531zM80 1276q117 139 192 265l164 -130q-106 -104 -236 -255zM492 1376q0 61 43 104 t103 43q61 0 104 -43t43 -104q0 -60 -43 -103t-104 -43q-60 0 -103 43t-43 103z" />
<glyph unicode="&#x391;" horiz-adv-x="960" d="M-18 -10q188 854 304 1448l375 6q138 -618 316 -1408l-256 -52l-81 379h-311l-84 -409zM308 637l324 7q-52 216 -170 517q-91 -253 -154 -524z" />
<glyph unicode="&#x392;" horiz-adv-x="917" d="M47 1459q170 18 298 18q235 0 326 -61q140 -94 158 -254q4 -41 4 -79q0 -109 -37 -189q-51 -109 -181 -156q145 -22 208 -105q53 -70 53 -200q0 -25 -2 -52q-12 -170 -107.5 -254t-265.5 -115q-96 -17 -225 -17q-101 0 -221 10q4 279 4 549q0 466 -12 905zM312 1229 l7 -429q186 10 236 127q27 62 27 122q0 50 -20 99q-35 85 -179 85q-32 0 -71 -4zM331 259q23 -1 44 -1q186 0 235 102q27 57 27 103q0 45 -26 79q-43 55 -200 55q-37 0 -80 -3v-335z" />
<glyph unicode="&#x393;" horiz-adv-x="789" d="M48 -5q26 595 26 1196q0 131 -1 263l714 -16l-7 -326l-446 22q-3 -125 -3 -273q0 -372 18 -893z" />
<glyph unicode="&#x394;" horiz-adv-x="955" d="M8 -24q227 1004 330 1436l352 11q122 -674 289 -1409l-292 -30l-171 1096q-131 -575 -198 -1074zM66 -2v231h680v-231h-680z" />
<glyph unicode="&#x395;" horiz-adv-x="798" d="M48 1370q226 9 635 20v-282l-395 16v-328l355 10l9 -271h-317v-254h415v-284l-692 10q11 281 11 566q0 395 -21 797z" />
<glyph unicode="&#x396;" horiz-adv-x="826" d="M41 292q290 502 434 832l-424 -2l14 260q473 6 685 6v-263q-264 -513 -432 -858q116 -3 220 -3q121 0 226 4l10 -279q-265 11 -712 11z" />
<glyph unicode="&#x397;" horiz-adv-x="904" d="M48 2q12 367 12 718q0 350 -12 684h261l-11 -583l285 -12v619l273 -24q-12 -673 -23 -1450h-227v583h-285v-536z" />
<glyph unicode="&#x398;" horiz-adv-x="1069" d="M-48 724q2 721 548 719q545 -2 543 -749q-3 -694 -585 -692q-509 2 -506 722zM240 723q-2 -488 239 -489q242 -1 262 487q1 30 1 57q2 431 -242 432q-258 1 -260 -487zM340 575l5 284q149 -16 319 -7l-5 -248q-162 -10 -319 -29z" />
<glyph unicode="&#x399;" horiz-adv-x="381" d="M48 1362l285 24q-11 -679 -12 -1379l-249 -23q0 734 -24 1378z" />
<glyph unicode="&#x39a;" horiz-adv-x="904" d="M48 -5q7 532 7 1338l250 20l-4 -625q167 322 309 589l280 -16q-141 -262 -386 -647q124 -255 373 -703l-318 -4q-92 233 -272 586v-534z" />
<glyph unicode="&#x39b;" horiz-adv-x="955" d="M-5 63q210 907 313 1339l352 11q122 -674 289 -1409l-292 -30l-171 1096q-131 -575 -214 -1041z" />
<glyph unicode="&#x39c;" horiz-adv-x="1307" d="M34 1454l362 9l233 -1036l171 960l456 -5q-12 -325 -12 -656q0 -369 15 -747l-291 -20q0 398 -9 973l-163 -879l-310 -21l-200 948l-4 -960l-244 -17q7 329 7 653q0 404 -11 798z" />
<glyph unicode="&#x39d;" horiz-adv-x="947" d="M48 1360l294 14l270 -753q-4 388 -22 794l309 4q-46 -613 -46 -1238q0 -84 1 -168l-271 -3l-288 806q13 -446 24 -829l-267 -18q12 342 12 666q0 374 -16 725z" />
<glyph unicode="&#x39e;" horiz-adv-x="955" d="M36 3v231h868v-231h-868zM42 1007v231h868v-231h-868zM144 499v231h635v-231h-635z" />
<glyph unicode="&#x39f;" horiz-adv-x="952" d="M26 740q0 694 481 694q421 0 421 -720q0 -721 -451 -721t-451 747zM306 637q0 -377 176 -377q187 0 187 427t-174 427q-175 0 -188 -427q-1 -26 -1 -50z" />
<glyph unicode="&#x3a0;" horiz-adv-x="1093" d="M48 25q26 595 26 1196q0 131 -1 263l714 -16l-7 -326l-446 22q-3 -125 -3 -273q0 -372 18 -893zM332 1468l714 -23q-1 -132 -1 -263q0 -601 26 -1197l-301 -11q18 520 18 892q0 148 -3 273l-446 3z" />
<glyph unicode="&#x3a1;" horiz-adv-x="879" d="M48 1402q171 24 302 24q206 0 310 -60q161 -93 161 -381v-33q-10 -316 -143 -404.5t-328 -94.5q-1 -31 -1 -64q0 -166 17 -393l-310 -6q6 263 6 538q0 422 -14 874zM312 1170l7 -489q186 10 218 133q15 56 15 115q0 69 -20 142q-30 107 -150 107q-32 0 -70 -8z" />
<glyph unicode="&#x3a3;" horiz-adv-x="923" d="M48 1163l241 14q122 -230 266 -507v11l50 -104l-311 -579l-235 3q215 385 321 605q-211 332 -332 557zM49 1307q409 -11 769 -3l10 -208q-378 18 -769 29zM73 0l87 166q312 5 671 13l11 -208q-379 18 -769 29z" />
<glyph unicode="&#x3a4;" horiz-adv-x="835" d="M48 1142v263q147 -4 291 -4q224 0 439 9l9 -280h-252q0 -711 15 -1128l-282 -14q22 710 32 1158z" />
<glyph unicode="&#x3a5;" horiz-adv-x="835" d="M-37 1389l282 29l191 -558q129 402 207 599h273q-245 -603 -352 -873v-589l-260 -12l11 620q-228 482 -352 784z" />
<glyph unicode="&#x3a6;" horiz-adv-x="952" d="M16 661q0 400 326 471q-3 96 -7 190l285 24q-2 -105 -3 -211q301 -66 301 -492q0 -418 -310 -490v-186l-249 -23v203q-343 58 -343 514zM296 589q0 -155 61 -219q-3 243 -8 476q-46 -75 -52 -222q-1 -18 -1 -35zM610 396q49 74 49 228q0 153 -46 228q-2 -227 -3 -456z " />
<glyph unicode="&#x3a7;" horiz-adv-x="913" d="M6 1380l287 43l181 -530l166 529l267 -13q-75 -216 -236 -683q90 -290 245 -729l-281 -28l-168 560l-169 -536l-284 40q106 284 257 693z" />
<glyph unicode="&#x3a8;" horiz-adv-x="1477" d="M-49 1032l347 17q-87 -769 289 -832q-6 391 -13 874h264q-8 -443 -13 -847q314 135 275 838v8l351 18q0 -35 -1 -72q-21 -933 -627 -1040q-3 -208 -4 -406l-222 -7q-3 185 -7 402q-635 43 -639 1047z" />
<glyph unicode="&#x3a9;" horiz-adv-x="1279" d="M-30 211l513 12q-1 -101 -1 -201v-20l-507 -25zM26 743q0 641 616 641q540 0 540 -665q0 -566 -417 -651l-13 229q175 84 175 419q0 448 -291 448q-293 0 -314 -448q-2 -28 -2 -53q0 -294 163 -369l-2 -232q-455 69 -455 681zM760 222l513 12q-1 -101 -1 -201v-20 l-507 -25z" />
<glyph unicode="&#x3aa;" horiz-adv-x="381" d="M-161 1724q0 61 43 104t103 43q61 0 104 -43t43 -104q0 -60 -43 -103t-104 -43q-60 0 -103 43t-43 103zM48 1362l285 24q-11 -679 -12 -1379l-249 -23q0 734 -24 1378zM249 1724q0 61 43 104t103 43q61 0 104 -43t43 -104q0 -60 -43 -103t-104 -43q-60 0 -103 43t-43 103 z" />
<glyph unicode="&#x3ab;" horiz-adv-x="835" d="M-37 1389l282 29l191 -558q129 402 207 599h273q-245 -603 -352 -873v-589l-260 -12l11 620q-228 482 -352 784zM88 1741q0 61 43 104t103 43q61 0 104 -43t43 -104q0 -60 -43 -103t-104 -43q-60 0 -103 43t-43 103zM498 1741q0 61 43 104t103 43q61 0 104 -43t43 -104 q0 -60 -43 -103t-104 -43q-60 0 -103 43t-43 103z" />
<glyph unicode="&#x3ac;" horiz-adv-x="1182" d="M23 409q0 475 481 475q247 0 349 -170q53 97 105 198l245 -9q-119 -234 -279 -463q1 -24 1 -49v-14q165 -234 287 -474l-245 -9q-52 101 -105 198q-105 -194 -388 -194q-451 0 -451 511zM303 339q0 -258 176 -258q187 0 187 292t-174 292q-175 0 -188 -292q-1 -18 -1 -34 zM421 1196q117 139 192 265l164 -130q-106 -104 -236 -255z" />
<glyph unicode="&#x3ad;" horiz-adv-x="789" d="M34 251q0 201 148 314q-148 113 -148 314q0 8 1 16q7 270 372 275h8q329 0 329 -342q0 -28 -2 -58l-257 -12q4 36 4 67q0 143 -85 143q-103 0 -113 -86q-1 -12 -1 -23q0 -72 52 -134q19 -23 97 -44l4 2l7 -10v-216l-7 -10l-4 2q-78 -21 -97 -44q-52 -62 -52 -134 q0 -11 1 -23q10 -86 113 -86q85 0 85 143q0 31 -4 67l257 -12q2 -30 2 -58q0 -342 -329 -342h-8q-365 5 -372 275q-1 8 -1 16zM247 1338q117 139 192 265l164 -130q-106 -104 -236 -255z" />
<glyph unicode="&#x3ae;" horiz-adv-x="789" d="M39 970l184 21l10 -163q42 130 226 131q2 1 3 1q182 0 241 -164q40 -109 40 -451q0 -176 -27 -828h-243q36 749 36 930q0 91 -5 142q-15 156 -101 156t-108 -81l10 -694l-235 -2q0 430 -31 1002zM269 1254q117 139 192 265l164 -130q-106 -104 -236 -255z" />
<glyph unicode="&#x3af;" horiz-adv-x="404" d="M52 898l245 3q-4 -161 -4 -330q0 -292 12 -607l-249 -15q4 217 4 418q0 282 -8 531zM81 1216q117 139 192 265l164 -130q-106 -104 -236 -255z" />
<glyph unicode="&#x3b1;" horiz-adv-x="1182" d="M26 494q0 475 481 475q247 0 349 -170q53 97 105 198l245 -9q-119 -234 -279 -463q1 -24 1 -49v-14q165 -234 287 -474l-245 -9q-52 101 -105 198q-105 -194 -388 -194q-451 0 -451 511zM306 424q0 -258 176 -258q187 0 187 292t-174 292q-175 0 -188 -292q-1 -18 -1 -34 z" />
<glyph unicode="&#x3b2;" horiz-adv-x="838" d="M31 -425l1 1480q11 373 258 404q66 8 122 8q156 0 240 -62q115 -84 133 -244q4 -41 4 -79q0 -109 -37 -189q-51 -109 -181 -156q145 -22 208 -105q53 -70 53 -200q0 -25 -2 -52q-12 -170 -107.5 -254t-265.5 -115q-50 -9 -100 -14l-3 260q164 3 212 102q27 57 27 103 q0 45 -26 79q-42 55 -191 55h-26l-2 230q122 4 168 110q23 54 23 106q0 49 -21 95q-40 88 -133 88h-13q-95 -6 -95 -157q0 -14 1 -30l-1 -1459z" />
<glyph unicode="&#x3b3;" horiz-adv-x="702" d="M-8 1012l243 13l123 -727q96 408 153 744l239 -30q-113 -419 -263 -990l-269 -4q-126 579 -226 994zM178 -406q18 97 32 199q24 177 38 368l246 8q-22 -131 -38 -253q-24 -170 -37 -322h-241z" />
<glyph unicode="&#x3b4;" horiz-adv-x="931" d="M16 533q0 418 312 499q-97 91 -202 184l7 7l-12 187q161 -1 311 0q210 2 395 10l3 -190q-120 2 -245 1q-58 -1 -117 -2l266 -239q184 -120 184 -476q0 -539 -451 -539t-451 558zM296 456q0 -281 176 -281q187 0 187 319t-174 319q-175 0 -188 -319q-1 -20 -1 -38z" />
<glyph unicode="&#x3b5;" horiz-adv-x="789" d="M34 287q0 201 148 314q-148 113 -148 314q0 8 1 16q7 270 372 275h8q329 0 329 -342q0 -28 -2 -58l-257 -12q4 36 4 67q0 143 -85 143q-103 0 -113 -86q-1 -12 -1 -23q0 -72 52 -134q19 -23 97 -44l4 2l7 -10v-216l-7 -10l-4 2q-78 -21 -97 -44q-52 -62 -52 -134 q0 -11 1 -23q10 -86 113 -86q85 0 85 143q0 31 -4 67l257 -12q2 -30 2 -58q0 -342 -329 -342h-8q-365 5 -372 275q-1 8 -1 16z" />
<glyph unicode="&#x3b6;" horiz-adv-x="811" d="M75 323q-62 272 43 445t265 285q17 12 35 24q-165 13 -305 17l-24 242l721 -64l-11 -233q-14 2 -34 -28q-157 -77 -279 -199t-130 -304t204.5 -210t264.5 -176t-31 -348t-444 -203l24 196q168 -4 224 147t-82 159.5t-224 32.5q-154 51 -217 217z" />
<glyph unicode="&#x3b7;" horiz-adv-x="789" d="M39 1030l184 21l10 -163q42 130 226 131q2 1 3 1q182 0 241 -164q40 -109 40 -451q0 -176 -27 -828h-243q36 749 36 930q0 91 -5 142q-15 156 -101 156t-108 -81l10 -694l-235 -2q0 430 -31 1002z" />
<glyph unicode="&#x3b8;" horiz-adv-x="1024" d="M-38 714q2 721 548 719q545 -2 543 -749q-3 -694 -585 -692q-509 2 -506 722zM253 587q26 -372 236 -373q208 -1 252 359q-242 8 -488 14zM256 838q255 -1 494 3q-21 348 -240 349t-254 -352z" />
<glyph unicode="&#x3b9;" horiz-adv-x="304" d="M23 948l245 3q-4 -161 -4 -330q0 -292 12 -607l-249 -15q4 217 4 418q0 282 -8 531z" />
<glyph unicode="&#x3ba;" horiz-adv-x="763" d="M24 42q7 532 7 978l230 20l-4 -415q137 212 259 409l230 -26q-181 -252 -316 -477q114 -205 313 -533l-248 -24q-112 243 -252 456v-384z" />
<glyph unicode="&#x3bb;" d="M20 16q113 419 263 990l62 1q-44 212 -88 409l210 54q45 -240 96 -492q25 -124 51 -251q89 -401 164 -711l-222 -12l-9 -3v3l-12 -1l-74 440q-19 92 -37 181q-9 43 -17 84q-93 -395 -148 -722z" />
<glyph unicode="&#x3bc;" d="M35 1033h15v8h243q-12 -197 -17 -341v-297q1 -11 2 -21q15 -156 101 -156t108 81l-10 694l235 2q0 -430 31 -1002l-184 -21l-10 163q-42 -130 -226 -131q-2 -1 -3 -1q-21 0 -40 2q3 -199 8 -405l-249 -23q4 331 4 637q0 114 -1 223q-3 81 -3 181q0 52 1 109 q-2 152 -5 298z" />
<glyph unicode="&#x3bd;" horiz-adv-x="923" d="M-25 1067l292 23l171 -835q131 438 214 793l277 -26q-210 -691 -313 -1020l-352 -8q-122 513 -289 1073z" />
<glyph unicode="&#x3be;" d="M41 522q49 132 166 204q15 9 31 17q-61 52 -84 136q-35 127 58 248q78 104 206 130q51 11 124 8t101 -5l-8 -138q-27 5 -58 6v-1q-4 0 -8 1h-4v-6q-11 2 -22 3q-61 -10 -97 -59q-50 -69 -15 -155q27 -70 64 -91t119 -35l-2 -164q-35 14 -70 16v-16q-23 9 -46 14 q-68 -13 -134 -72q-122 -111 -6 -292q67 -86 235.5 -86t238.5 -113t-5 -270t-349 -224l-6 187q112 -8 172 122.5t-78.5 131.5t-228.5 17q-161 34 -249 166q-105 156 -45 320z" />
<glyph unicode="&#x3bf;" horiz-adv-x="955" d="M26 533q0 502 481 502q421 0 421 -521t-451 -521t-451 540zM306 459q0 -273 176 -273q187 0 187 309t-174 309q-175 0 -188 -309q-1 -19 -1 -36z" />
<glyph unicode="&#x3c0;" horiz-adv-x="1312" d="M48 835v190q147 -3 291 -3q105 0 209 2v1q20 0 41 -1q95 2 189 5v-7h61q224 0 439 7l9 -203h-252q0 -516 15 -818l-282 -10q22 515 32 840h-14l1 -12h-252q0 -516 15 -818l-282 -10q22 515 32 840z" />
<glyph unicode="&#x3c1;" horiz-adv-x="962" d="M26 533q0 502 481 502q421 0 421 -521t-451 -521q-112 0 -197 33q5 -120 12 -245l-247 -12q3 162 1 311q-1 143 -5 274q-15 81 -15 179zM306 459q0 -273 176 -273q187 0 187 309t-174 309q-175 0 -188 -309q-1 -19 -1 -36z" />
<glyph unicode="&#x3c2;" d="M76 613q-64 322 42.5 462.5t269 189.5t436.5 32l-35 -225q-160 -14 -292.5 -89.5t-132 -271t216.5 -321.5t269 -309.5t-31 -362.5q-194 -236 -464 -44l25 201q189 -92 227 60q57 138 -83 209t-229 136q-156 124 -219 333z" />
<glyph unicode="&#x3c3;" horiz-adv-x="1172" d="M16 543q0 519 481 519q28 0 55 -2q107 -1 210 0q210 2 395 10l3 -190q-120 2 -245 1q-35 0 -71 -1q74 -131 74 -356q0 -539 -451 -539t-451 558zM296 466q0 -281 176 -281q187 0 187 319t-174 319q-175 0 -188 -319q-1 -20 -1 -38z" />
<glyph unicode="&#x3c4;" horiz-adv-x="808" d="M42 837v190q147 -3 291 -3q224 0 439 7l9 -203h-252q0 -516 15 -818l-282 -10q22 515 32 840z" />
<glyph unicode="&#x3c5;" horiz-adv-x="868" d="M30 1078h266q-10 -167 -10 -392q0 -158 5 -345q2 -138 134 -138q0 -1 1 -1q131 0 131 176l-5 681l294 6v-730q0 -337 -418 -337h-22q-350 30 -362 283q0 505 -14 797z" />
<glyph unicode="&#x3c6;" horiz-adv-x="1206" d="M59 328q-108 270 24 525q9 17 19 34l253 -121l-16 -24q-111 -170 -54 -322q51 -133 200 -156q19 -2 37 -3q0 524 -6 613q8 370 310 306q225 -87 317 -319q107 -268 -23 -522q-106 -208 -294 -301q-68 -33 -137 -49l1 -328l-171 71q1 126 2 247q-73 7 -147 35 q-224 84 -315 314zM688 829l1 -550q36 10 69 27q105 53 156 160q65 132 7 287q-53 139 -137 170.5t-96 -94.5z" />
<glyph unicode="&#x3c7;" horiz-adv-x="891" d="M-19 1397l287 43l181 -530l166 529l267 -13q-75 -216 -236 -683q90 -290 245 -729l-281 -28l-168 560l-169 -536l-284 40q106 284 257 693z" />
<glyph unicode="&#x3c8;" horiz-adv-x="1470" d="M-69 1034l347 17q-48 -788 282 -820q-5 259 -10 563h264q-6 -280 -11 -541q331 110 277 831v8l351 18q0 -35 -1 -72q-21 -917 -630 -1020q-3 -211 -5 -409l-222 -6q-4 182 -8 404q-630 47 -634 1027z" />
<glyph unicode="&#x3c9;" horiz-adv-x="1401" d="M51 465q-10 135 11 299q8 57 19 117q42 229 106 369l260 -90v-1q-60 -69 -89 -200q-21 -89 -31 -165q-4 -36 -15 -213t13 -246t86 -87q10 -3 21 -5q49 -6 93 30q48 39 63 155l3 20q3 144 0 173l117 -8l125 8q-3 -29 0 -174l3 -20q14 -116 62 -155q44 -36 94 -30 q11 2 20 5q62 18 86.5 87t14.5 246t-15 213q-9 75 -29 164q-29 132 -89 201v1l260 89q64 -140 105 -369q11 -60 18 -118q21 -163 10 -299q-13 -184 -81 -302t-202 -152q-36 -10 -69 -14q-94 -12 -172 14q-81 25 -137 105q-57 -80 -138 -105q-79 -25 -173 -13q-33 4 -69 14 q-134 35 -201.5 153.5t-79.5 302.5z" />
<glyph unicode="&#x3ca;" horiz-adv-x="353" d="M-211 1303q0 61 43 104t103 43q61 0 104 -43t43 -104q0 -60 -43 -103t-104 -43q-60 0 -103 43t-43 103zM23 948l245 3q-4 -161 -4 -330q0 -292 12 -607l-249 -15q4 217 4 418q0 282 -8 531zM199 1303q0 61 43 104t103 43q61 0 104 -43t43 -104q0 -60 -43 -103t-104 -43 q-60 0 -103 43t-43 103z" />
<glyph unicode="&#x3cb;" horiz-adv-x="915" d="M48 1078h266q-10 -167 -10 -392q0 -158 5 -345q2 -138 134 -138q0 -1 1 -1q131 0 131 176l-5 681l294 6v-730q0 -337 -418 -337h-22q-350 30 -362 283q0 505 -14 797zM99 1352q0 61 43 104t103 43q61 0 104 -43t43 -104q0 -60 -43 -103t-104 -43q-60 0 -103 43t-43 103z M509 1352q0 61 43 104t103 43q61 0 104 -43t43 -104q0 -60 -43 -103t-104 -43q-60 0 -103 43t-43 103z" />
<glyph unicode="&#x3cc;" horiz-adv-x="955" d="M26 533q0 502 481 502q421 0 421 -521t-451 -521t-451 540zM306 459q0 -273 176 -273q187 0 187 309t-174 309q-175 0 -188 -309q-1 -19 -1 -36zM325 1253q117 139 192 265l164 -130q-106 -104 -236 -255z" />
<glyph unicode="&#x3cd;" horiz-adv-x="915" d="M48 1078h266q-10 -167 -10 -392q0 -158 5 -345q2 -138 134 -138q0 -1 1 -1q131 0 131 176l-5 681l294 6v-730q0 -337 -418 -337h-22q-350 30 -362 283q0 505 -14 797zM319 1301q117 139 192 265l164 -130q-106 -104 -236 -255z" />
<glyph unicode="&#x3ce;" horiz-adv-x="1401" d="M51 465q-10 135 11 299q8 57 19 117q42 229 106 369l260 -90v-1q-60 -69 -89 -200q-21 -89 -31 -165q-4 -36 -15 -213t13 -246t86 -87q10 -3 21 -5q49 -6 93 30q48 39 63 155l3 20q3 144 0 173l117 -8l125 8q-3 -29 0 -174l3 -20q14 -116 62 -155q44 -36 94 -30 q11 2 20 5q62 18 86.5 87t14.5 246t-15 213q-9 75 -29 164q-29 132 -89 201v1l260 89q64 -140 105 -369q11 -60 18 -118q21 -163 10 -299q-13 -184 -81 -302t-202 -152q-36 -10 -69 -14q-94 -12 -172 14q-81 25 -137 105q-57 -80 -138 -105q-79 -25 -173 -13q-33 4 -69 14 q-134 35 -201.5 153.5t-79.5 302.5zM591 1337q117 139 192 265l164 -130q-106 -104 -236 -255z" />
<glyph unicode="&#x401;" horiz-adv-x="798" d="M27 1744q0 61 43 104t103 43q61 0 104 -43t43 -104q0 -60 -43 -103t-104 -43q-60 0 -103 43t-43 103zM49 1370q226 9 635 20v-282l-395 16v-328l355 10l9 -271h-317v-254h415v-284l-692 10q11 281 11 566q0 395 -21 797zM437 1744q0 61 43 104t103 43q61 0 104 -43 t43 -104q0 -60 -43 -103t-104 -43q-60 0 -103 43t-43 103z" />
<glyph unicode="&#x402;" horiz-adv-x="980" d="M-115 1506l699 44l12 -200l-273 -17l8 -441q42 130 341 132h4q298 -49 295 -477t-232 -587l-177 170q198 114 158 393q0 85 -3 136q-10 150 -216 150q-86 0 -108 -80l10 -725l-255 -2q0 432 -27 1318l-223 -14z" />
<glyph unicode="&#x403;" d="M42 -79q26 595 26 1196q0 131 -1 263l714 -16l-7 -326l-446 22q-3 -125 -3 -273q0 -372 18 -893zM293 1693q117 139 192 265l164 -130q-106 -104 -236 -255z" />
<glyph unicode="&#x404;" horiz-adv-x="972" d="M12 676q-17 747 528 760q326 7 463 -247l-251 -135q-67 142 -208 139q-243 -6 -233 -437q1 -27 3 -57q29 -487 271 -482q87 2 141 67l203 -169q-119 -114 -319 -119q-582 -14 -598 680zM75 803l714 12q-1 -101 -1 -201v-20l-706 -25z" />
<glyph unicode="&#x405;" horiz-adv-x="909" d="M50 524q0 36 2 75l297 20q-6 -62 -6 -112q0 -227 113 -227h4q137 4 137 146v9q-5 151 -259 296q-247 140 -247 462q0 10 1 20q7 337 378 343h8q335 0 335 -427q0 -34 -2 -72l-261 -15q4 45 4 83q0 179 -87 179q-105 0 -115 -107q-1 -15 -1 -30q0 -89 53 -166 q61 -89 209.5 -163t207.5 -203q42 -93 42 -198q0 -40 -6 -82q-23 -151 -128 -250.5t-282 -108.5q-12 -1 -24 -1q-161 0 -269 118q-104 113 -104 411z" />
<glyph unicode="&#x406;" horiz-adv-x="313" d="M34 1432l245 4q-4 -245 -4 -503q0 -445 12 -926l-249 -23q4 331 4 637q0 430 -8 811z" />
<glyph unicode="&#x407;" horiz-adv-x="381" d="M-173 1741q0 61 43 104t103 43q61 0 104 -43t43 -104q0 -60 -43 -103t-104 -43q-60 0 -103 43t-43 103zM48 1362l285 24q-11 -679 -12 -1379l-249 -23q0 734 -24 1378zM237 1741q0 61 43 104t103 43q61 0 104 -43t43 -104q0 -60 -43 -103t-104 -43q-60 0 -103 43t-43 103 z" />
<glyph unicode="&#x408;" horiz-adv-x="814" d="M10 545v42l263 18q-1 -29 -1 -55q0 -223 54 -270q33 -31 71 -31q30 0 62 18q70 39 70 273v23q-4 255 -22 828l285 17q7 -281 7 -496q0 -535 -44 -667q-62 -187 -204 -232q-85 -27 -165 -27q-54 0 -106 13q-129 30 -189.5 129.5t-71.5 210.5q-9 93 -9 206z" />
<glyph unicode="&#x409;" horiz-adv-x="1468" d="M10 -71l3 264q5 -1 10 -1q30 0 62 18q70 39 70 273v23q-4 255 -22 943l12 1l-1 32l894 13q1 -34 2 -66h17q-17 -227 -17 -393q0 -33 1 -64q195 -6 328 -94.5t143 -404.5v-33q0 -288 -161 -381q-104 -60 -310 -60q-131 0 -302 24q14 452 14 874q0 149 -2 294h-329 q3 -203 3 -336q0 -535 -44 -667q-62 -187 -204 -232q-85 -27 -165 -27h-2zM1015 245q38 -8 70 -8q120 0 150 107q20 73 20 142q0 59 -15 115q-32 123 -218 133z" />
<glyph unicode="&#x40a;" horiz-adv-x="1356" d="M8 2q12 367 12 718q0 350 -12 684h261l-11 -583l285 -12v619l273 -24v-14l72 -1q-17 -227 -17 -393q0 -33 1 -64q195 -6 328 -94.5t143 -404.5v-33q0 -288 -161 -381q-104 -60 -310 -60q-38 0 -79 3v-8h-227v583h-285v-536zM834 215q38 -8 70 -8q120 0 150 107 q20 73 20 142q0 59 -15 115q-32 123 -218 133z" />
<glyph unicode="&#x40b;" horiz-adv-x="949" d="M-112 1488l699 44l12 -200l-273 -17l8 -425q42 130 301 92h4q176 0 240 -138q44 -94 44 -440q0 -170 -11 -402h-242q13 309 13 479q0 85 -3 136q-10 150 -96 150q-166 40 -188 -40l10 -725l-255 -2q0 428 -27 1302l-223 -14z" />
<glyph unicode="&#x40c;" d="M8 -58q7 532 7 1338l250 20l-4 -625q5 9 35 0q127 20 127 117v230q0 328 328 328h82v-205h-82q-123 0 -123 -123v-246q0 -152 -140 -199l-15 5q124 -252 364 -684l-318 -4q-92 233 -272 586v-534zM276 1665q117 139 192 265l164 -130q-106 -104 -236 -255z" />
<glyph unicode="&#x40e;" d="M27 1420l262 21q-9 -300 -9 -494q0 -73 2 -131q4 -214 96 -220q6 -1 11 -1q82 0 104 94q12 55 12 261q0 165 -8 426l246 18q4 -305 4 -524q0 -273 -6 -412q-10 -250 -143 -380q-120 -118 -337 -118q-25 0 -51 2l-28 244q19 -1 37 -1q168 0 230 59q64 61 64 196v16 q-57 -90 -175 -90h-14q-129 6 -200 101.5t-77.5 268t-19.5 664.5zM83 1896h180q0 -120 120 -120t120 120h180q0 -300 -300 -300t-300 300z" />
<glyph unicode="&#x40f;" horiz-adv-x="1101" d="M48 1493l301 11q-18 -520 -18 -892q0 -148 3 -273l446 -3v-22h5q3 125 3 273q0 372 -18 893l301 -27q-26 -595 -26 -1196q0 -131 1 -263l-358 8q-5 -202 -7 -377l-264 -31q-4 207 -11 414l-74 2v15l-259 8q1 132 1 263q0 601 -26 1197z" />
<glyph unicode="&#x410;" horiz-adv-x="960" d="M-18 20q188 854 304 1448l375 6q138 -618 316 -1408l-256 -52l-81 379h-311l-84 -409zM308 667l324 7q-52 216 -170 517q-91 -253 -154 -524z" />
<glyph unicode="&#x411;" horiz-adv-x="847" d="M27 0q14 452 14 874q0 275 -6 538l310 -6v-7l483 -9l-6 -234l-491 20q-3 -88 -3 -163q0 -33 1 -64q195 -6 328 -94.5t143 -404.5v-33q0 -288 -161 -381q-104 -60 -310 -60q-131 0 -302 24zM291 232q38 -8 70 -8q120 0 150 107q20 73 20 142q0 59 -15 115 q-32 123 -218 133z" />
<glyph unicode="&#x412;" horiz-adv-x="886" d="M47 1459q170 18 298 18q235 0 326 -61q140 -94 158 -254q4 -41 4 -79q0 -109 -37 -189q-51 -109 -181 -156q145 -22 208 -105q53 -70 53 -200q0 -25 -2 -52q-12 -170 -107.5 -254t-265.5 -115q-96 -17 -225 -17q-101 0 -221 10q4 279 4 549q0 466 -12 905zM312 1229 l7 -429q186 10 236 127q27 62 27 122q0 50 -20 99q-35 85 -179 85q-32 0 -71 -4zM331 259q23 -1 44 -1q186 0 235 102q27 57 27 103q0 45 -26 79q-43 55 -200 55q-37 0 -80 -3v-335z" />
<glyph unicode="&#x413;" d="M27 7q26 595 26 1196q0 131 -1 263l714 -16l-7 -326l-446 22q-3 -125 -3 -273q0 -372 18 -893z" />
<glyph unicode="&#x414;" horiz-adv-x="1275" d="M21 -347q33 123 26 397q0 88 -1 177l69 -1l1 50h10q29 0 60 17q68 38 68 266v22q-4 248 -21 917l277 16v-6l598 10q4 -163 4 -290q0 -515 19 -1025l139 -2q-1 -89 -1 -177q6 -274 6 -398l-346 -7q23 73 23 323q0 99 -10 53l-561 2l-1 15h-3v-53q0 -251 -21 -324zM455 222 l394 -5q13 402 13 703q0 144 -3 266l-344 2q2 -158 2 -268q0 -520 -43 -648q-9 -26 -19 -50z" />
<glyph unicode="&#x415;" horiz-adv-x="714" d="M12 1364q226 9 635 20v-282l-395 16v-328l355 10l9 -271h-317v-254h415v-284l-692 10q11 281 11 566q0 395 -21 797z" />
<glyph unicode="&#x416;" horiz-adv-x="1432" d="M12 -18q240 432 364 684l-15 -5q-140 47 -140 199v246q0 123 -123 123h-82v205h82q328 0 328 -328v-230q0 -97 127 -117q30 9 35 0l-4 625l234 -19l34 3l-4 -625q5 9 35 0q127 20 127 117v230q0 328 328 328h82v-205h-82q-123 0 -123 -123v-246q0 -152 -140 -199l-15 5 q124 -252 364 -684l-318 -4q-91 232 -270 582q2 -286 5 -518h-7v-12l-239 -4q3 246 5 551q-179 -351 -270 -583z" />
<glyph unicode="&#x417;" d="M13 461v6l259 15q-1 -17 -1 -33q0 -210 110 -217q8 -1 15 -1q104 0 125 110q6 31 6 59q0 79 -45 137q-62 78 -205 78l-12 190q17 -1 32 -1q125 0 172 72q44 67 44 174q0 21 -2 43q-9 128 -115 128h-13q-105 -7 -105 -210q0 -24 1 -51l-252 11q-4 53 -4 99q0 159 48 245 q61 110 200 136q68 13 130 13q63 0 120 -14q111 -27 177.5 -121t71.5 -258v-30q0 -142 -44 -207q-49 -73 -161 -110q93 -14 139.5 -67.5t64.5 -143.5q10 -50 10 -110q0 -49 -7 -106q-15 -125 -101.5 -216t-266.5 -95h-16q-169 0 -270 88q-105 90 -105 387z" />
<glyph unicode="&#x418;" horiz-adv-x="844" d="M-21 1409l309 -4q-18 -406 -22 -794l270 753l294 -14q-16 -351 -16 -725q0 -324 12 -666l-267 18q11 383 24 829l-288 -806l-271 3q1 84 1 168q0 625 -46 1238z" />
<glyph unicode="&#x419;" horiz-adv-x="931" d="M14 1412l309 -4q-18 -406 -22 -794l270 753l294 -14q-16 -351 -16 -725q0 -324 12 -666l-267 18q11 383 24 829l-288 -806l-271 3q1 84 1 168q0 625 -46 1238zM151 1901h180q0 -120 120 -120t120 120h180q0 -300 -300 -300t-300 300z" />
<glyph unicode="&#x41a;" d="M-10 2q7 532 7 1338l250 20l-4 -625q5 9 35 0q127 20 127 117v230q0 328 328 328h82v-205h-82q-123 0 -123 -123v-246q0 -152 -140 -199l-15 5q124 -252 364 -684l-318 -4q-92 233 -272 586v-534z" />
<glyph unicode="&#x41b;" horiz-adv-x="1092" d="M10 -42l3 264q5 -1 10 -1q30 0 62 18q70 39 70 273v23q-4 255 -22 943l285 17v-7l614 11q4 -168 4 -299q0 -601 26 -1197l-301 -11q18 520 18 892q0 148 -3 273l-353 2q2 -162 2 -275q0 -535 -44 -667q-62 -187 -204 -232q-85 -27 -165 -27h-2z" />
<glyph unicode="&#x41c;" horiz-adv-x="1307" d="M34 1449l362 9l233 -1036l171 960l456 -5q-12 -325 -12 -656q0 -369 15 -747l-291 -20q0 398 -9 973l-163 -879l-310 -21l-200 948l-4 -960l-244 -17q7 329 7 653q0 404 -11 798z" />
<glyph unicode="&#x41d;" horiz-adv-x="904" d="M42 16q12 367 12 718q0 350 -12 684h261l-11 -583l285 -12v619l273 -24q-12 -673 -23 -1450h-227v583h-285v-536z" />
<glyph unicode="&#x41e;" horiz-adv-x="952" d="M26 740q0 694 481 694q421 0 421 -720q0 -721 -451 -721t-451 747zM306 637q0 -377 176 -377q187 0 187 427t-174 427q-175 0 -188 -427q-1 -26 -1 -50z" />
<glyph unicode="&#x41f;" horiz-adv-x="1117" d="M38 15q26 595 26 1196q0 131 -1 263l714 -16v-15l259 -8q-1 -132 -1 -263q0 -601 26 -1197l-301 -11q18 520 18 892q0 148 -3 273l-446 3v22h-5q-3 -125 -3 -273q0 -372 18 -893z" />
<glyph unicode="&#x420;" horiz-adv-x="879" d="M48 1402q171 24 302 24q206 0 310 -60q161 -93 161 -381v-33q-10 -316 -143 -404.5t-328 -94.5q-1 -31 -1 -64q0 -166 17 -393l-310 -6q6 263 6 538q0 422 -14 874zM312 1170l7 -489q186 10 218 133q15 56 15 115q0 69 -20 142q-30 107 -150 107q-32 0 -70 -8z" />
<glyph unicode="&#x421;" horiz-adv-x="885" d="M48 738q0 724 396 724q373 0 373 -484q0 -29 -1 -60l-222 -1v27q0 235 -132 235q-141 0 -141 -434q0 -489 148 -489h1q148 1 148 240v99h248v-75q0 -498 -409 -521q-12 -1 -24 -1q-385 0 -385 740z" />
<glyph unicode="&#x422;" horiz-adv-x="835" d="M28 1142v263q147 -4 291 -4q224 0 439 9l9 -280h-252q0 -711 15 -1128l-282 -14q22 710 32 1158z" />
<glyph unicode="&#x423;" d="M30 1454l262 21q-9 -300 -9 -494q0 -73 2 -131q4 -214 96 -220q6 -1 11 -1q82 0 104 94q12 55 12 261q0 165 -8 426l246 18q4 -305 4 -524q0 -273 -6 -412q-10 -250 -143 -380q-120 -118 -337 -118q-25 0 -51 2l-28 244q19 -1 37 -1q168 0 230 59q64 61 64 196v16 q-57 -90 -175 -90h-14q-129 6 -200 101.5t-77.5 268t-19.5 664.5z" />
<glyph unicode="&#x424;" horiz-adv-x="1449" d="M-4 569q2 475 567 534q-2 79 -5 157l285 24q-2 -88 -3 -176q599 -42 597 -583q-3 -466 -606 -502v-118l-249 -23l-1 144q-588 51 -585 543zM239 559q-2 -216 341 -253q-3 251 -8 491q-332 -24 -333 -238zM832 301q381 23 383 235q1 213 -379 255q-3 -244 -4 -490z" />
<glyph unicode="&#x425;" horiz-adv-x="913" d="M6 1370l287 43l181 -530l166 529l267 -13q-75 -216 -236 -683q90 -290 245 -729l-281 -28l-168 560l-169 -536l-284 40q106 284 257 693z" />
<glyph unicode="&#x426;" horiz-adv-x="1197" d="M-3 1463l301 11q-18 -520 -18 -892q0 -148 3 -273h5v7l165 -8l276 -2v-12h5q3 125 3 273q0 372 -18 893l301 -27q-24 -552 -26 -1110l217 8q-13 -368 -16 -661l-264 -31q-3 168 -8 337l-642 14v5l-259 8q1 132 1 263q0 601 -26 1197z" />
<glyph unicode="&#x427;" horiz-adv-x="963" d="M22 502q3 428 249 587l190 -170q-212 -114 -181 -532q25 -147 246 -147q93 0 116 80l-11 725l274 2q0 -460 33 -1433l-219 -20l-10 563q-45 -130 -366 -132h-4q-320 49 -317 477z" />
<glyph unicode="&#x428;" horiz-adv-x="1688" d="M24 1504l301 11q-18 -520 -18 -892q0 -148 3 -273l412 -3q-1 577 -26 1149l301 11q-18 -520 -18 -892q0 -148 3 -273l432 -3q2 116 2 251q0 372 -18 893l301 -27q-26 -595 -26 -1196q0 -131 1 -263l-714 16v15l-197 7v-14l-714 23q1 132 1 263q0 601 -26 1197z" />
<glyph unicode="&#x429;" horiz-adv-x="1854" d="M24 1514l301 11q-18 -520 -18 -892q0 -148 3 -273l412 -3q-1 577 -26 1149l301 11q-18 -520 -18 -892q0 -148 3 -273l432 -3q2 116 2 251q0 372 -18 893l301 -27q-25 -581 -26 -1168l167 6q-13 -368 -16 -661l-264 -31q-4 199 -10 398l-590 13v15l-197 7v-14l-714 23 q1 132 1 263q0 601 -26 1197z" />
<glyph unicode="&#x42a;" horiz-adv-x="1103" d="M9 1441l623 -12v-1h10q-17 -227 -17 -393q0 -33 1 -64q195 -6 328 -94.5t143 -404.5v-33q0 -288 -161 -381q-104 -60 -310 -60q-131 0 -302 24q14 452 14 874q0 157 -2 311l-326 13v20q0 100 -1 201zM588 254q38 -8 70 -8q120 0 150 107q20 73 20 142q0 59 -15 115 q-32 123 -218 133z" />
<glyph unicode="&#x42b;" horiz-adv-x="1399" d="M-1 1431l623 -12v-1h10q-17 -227 -17 -393q0 -33 1 -64q195 -6 328 -94.5t143 -404.5v-33q0 -288 -161 -381q-104 -60 -310 -60q-131 0 -302 24q14 452 14 874q0 157 -2 311l-326 13v20q0 100 -1 201zM578 244q38 -8 70 -8q120 0 150 107q20 73 20 142q0 59 -15 115 q-32 123 -218 133zM1148 1422h20q100 2 201 6l15 -1437l-234 9z" />
<glyph unicode="&#x42c;" d="M19 18q14 452 14 874q0 275 -6 538l310 -6q-17 -227 -17 -393q0 -33 1 -64q195 -6 328 -94.5t143 -404.5v-33q0 -288 -161 -381q-104 -60 -310 -60q-131 0 -302 24zM283 250q38 -8 70 -8q120 0 150 107q20 73 20 142q0 59 -15 115q-32 123 -218 133z" />
<glyph unicode="&#x42d;" horiz-adv-x="1004" d="M-3 1200q137 254 463 247q545 -13 528 -760q-16 -694 -598 -680q-200 5 -319 119l203 169q54 -65 141 -67q213 -4 261 373l-461 16v20q0 100 -1 201l475 -8q-8 368 -233 374q-141 3 -208 -139z" />
<glyph unicode="&#x42e;" horiz-adv-x="1390" d="M8 -8q12 367 12 718q0 350 -12 684h261l-11 -583l209 -9q25 622 480 622q421 0 421 -720q0 -721 -451 -721q-385 0 -441 544h-195v-536zM746 627q0 -377 176 -377q187 0 187 427t-174 427q-175 0 -188 -427q-1 -26 -1 -50z" />
<glyph unicode="&#x42f;" horiz-adv-x="760" d="M48 -16q0 361 56 451q59 92 174 106q-164 45 -215 212q-15 52 -15 100q0 107 77 196q83 95 384 95q108 0 244 -12q-12 -344 -12 -681q0 -221 5 -438l-272 5q17 207 23 439q-14 2 -28 2q-67 0 -117 -58q-43 -51 -43 -281q0 -76 5 -172l-266 3v33zM284 837q0 -44 23 -91 q44 -89 208 -96l6 325q-33 3 -62 3q-126 0 -158 -65q-17 -37 -17 -76z" />
<glyph unicode="&#x430;" horiz-adv-x="796" d="M37 294q0 28 3 60q20 237 337 237q61 0 134 -9v116q0 141 -89 141h-4q-7 1 -13 1q-97 0 -97 -158v-15l-238 20q0 349 336 349h21q329 -18 329 -331v-710l-233 -4l-8 95q-72 -82 -191 -82q-51 0 -110 16q-177 44 -177 274zM289 301q0 -40 32 -71q25 -24 65 -24 q51 0 125 40v176q-43 9 -78 9q-91 0 -124 -61q-20 -37 -20 -69z" />
<glyph unicode="&#x431;" horiz-adv-x="937" d="M26 501q0 52 6 98l-6 -7q21 358 21 382q0 162 79 247q91 97 346 106h63q119 8 136 18q50 32 50 117q0 31 -6 68l231 -25q3 -26 3 -50q0 -162 -80 -247q-61 -89 -462 -97q-55 -10 -84 -27q-50 -32 -50 -117q0 -15 1 -32q98 37 233 37q421 0 421 -489t-451 -489t-451 507z M306 431q0 -255 176 -255q187 0 187 289q0 290 -174 290q-175 0 -188 -290q-1 -18 -1 -34z" />
<glyph unicode="&#x432;" horiz-adv-x="618" d="M7 1047q123 13 216 13q171 0 237 -44q101 -68 114 -184q3 -30 3 -58q0 -79 -27 -137q-37 -79 -131 -113q105 -16 151 -76q38 -51 38 -145q0 -18 -1 -38q-9 -123 -78 -184t-193 -84q-69 -12 -163 -12q-73 0 -160 7q3 203 3 398q0 339 -9 657zM199 880l5 -311q135 7 171 92 q20 45 20 89q0 36 -14 71q-26 62 -130 62q-23 0 -52 -3zM213 176h32q135 0 170 74q20 41 20 74t-19 58q-31 40 -145 40q-27 0 -58 -3v-243z" />
<glyph unicode="&#x433;" horiz-adv-x="757" d="M8 -3q26 454 26 912q0 100 -1 201l714 -12l-7 -249l-446 17q-3 -95 -3 -208q0 -284 18 -681z" />
<glyph unicode="&#x434;" horiz-adv-x="1188" d="M21 -347q30 123 24 397q0 88 -1 177l72 -1v2h9q28 0 57 14q65 31 65 215v18q-4 202 -20 744l263 14v-6l568 9q4 -133 4 -236q0 -400 17 -798l90 -1q-1 -89 -1 -177q6 -274 6 -398l-318 -7q21 73 21 323q0 99 -10 53l-515 2l-1 15h-3v-53q0 -251 -19 -324zM455 222l359 -5 q10 303 10 534q0 116 -3 215l-326 2q2 -128 2 -217q0 -422 -41 -527q0 -1 -1 -2z" />
<glyph unicode="&#x435;" horiz-adv-x="747" d="M30 451v30q10 516 335 516q347 0 347 -461q0 -56 -5 -120h-447q0 -257 99 -257h7q87 7 87 133q0 27 -4 60l238 5q0 -381 -333 -386q-4 -1 -7 -1q-317 0 -317 481zM236 600h226v24q0 182 -103 182q-111 0 -123 -206z" />
<glyph unicode="&#x436;" horiz-adv-x="1344" d="M33 -11q214 331 325 524l-13 -3q-125 36 -125 152v189q0 94 -110 94h-73v157h73q293 0 293 -251v-177q0 -74 113 -90q27 7 32 1l-4 479l116 -8l116 8l-3 -479q4 6 31 -1q113 16 113 90v177q0 251 293 251h74v-157h-74q-110 0 -110 -94v-189q0 -116 -125 -152l-13 3 q111 -193 325 -524l-284 -3q-80 174 -234 434q2 -219 5 -397l-114 2l-113 -2q3 179 4 397q-154 -260 -234 -434z" />
<glyph unicode="&#x437;" horiz-adv-x="594" d="M15 337v4l191 11q-1 -12 -1 -24q0 -155 81 -160h11q77 0 92 81q5 22 5 43q0 58 -33 101q-46 57 -151 57l-9 140h23q92 0 127 53q32 49 32 128q0 15 -1 32q-7 94 -85 94h-9q-78 -5 -78 -155q0 -17 1 -37l-186 8q-3 39 -3 73q0 117 36 180q45 81 147 100q50 10 96 10 t88 -10q82 -20 131 -89.5t53 -190.5v-22q0 -104 -33 -152q-36 -54 -118 -81q68 -11 102.5 -50t47.5 -106q7 -37 7 -81q0 -36 -5 -78q-11 -92 -74.5 -159t-196.5 -70h-12q-124 0 -199 65q-77 66 -77 285z" />
<glyph unicode="&#x438;" horiz-adv-x="802" d="M-9 1063l285 29q-16 -321 -20 -626l249 620l272 19q-15 -277 -15 -570q0 -255 11 -522l-246 -13q10 301 22 653l-266 -663l-250 -26v132q0 490 -42 967z" />
<glyph unicode="&#x439;" horiz-adv-x="790" d="M-9 1063l285 29q-16 -321 -20 -626l249 620l272 19q-15 -277 -15 -570q0 -255 11 -522l-246 -13q10 301 22 653l-266 -663l-250 -26v132q0 490 -42 967zM107 1505h180q0 -120 120 -120t120 120h180q0 -300 -300 -300t-300 300z" />
<glyph unicode="&#x43a;" d="M17 -4q7 416 7 1047l234 16l-4 -490q4 7 33 0q119 16 119 92v180q0 257 307 257h77v-161h-77q-115 0 -115 -96v-192q0 -119 -131 -156l-14 4q116 -198 341 -536l-298 -3q-86 182 -255 459v-418z" />
<glyph unicode="&#x43b;" horiz-adv-x="1036" d="M31 -24l2 176h10q27 0 57 12q65 26 65 183v15q-4 171 -21 632l264 11v-5l568 8q4 -113 4 -200q0 -403 24 -802l-279 -7q17 348 17 597q0 99 -3 183l-327 2q2 -109 2 -185q0 -358 -40 -447q-58 -125 -189 -155q-79 -18 -153 -18h-1z" />
<glyph unicode="&#x43c;" horiz-adv-x="1303" d="M34 1424l362 9l233 -1036l171 960l456 -5q-12 -325 -12 -656q0 -369 15 -747l-291 -20q0 398 -9 973l-163 -879l-310 -21l-200 948l-4 -960l-244 -17q7 329 7 653q0 404 -11 798z" />
<glyph unicode="&#x43d;" horiz-adv-x="874" d="M48 12q12 367 12 718q0 350 -12 684h261l-11 -583l285 -12v619l273 -24q-12 -673 -23 -1450h-227v583h-285v-536z" />
<glyph unicode="&#x43e;" horiz-adv-x="747" d="M30 463v28q10 516 362 516q340 0 340 -472q0 -19 -1 -38q-14 -511 -362 -516q-4 -1 -8 -1q-331 0 -331 483zM259 447q0 -57 6 -115q16 -144 103 -149h7q81 0 111 107q25 89 25 211q0 30 -1 61q-8 161 -48 201q-25 24 -60 24q-20 0 -43 -8q-63 -22 -86 -163 q-14 -84 -14 -169z" />
<glyph unicode="&#x43f;" horiz-adv-x="931" d="M-6 4q26 453 26 912q0 100 -1 200l321 -5l559 9q-1 -101 -1 -201q0 -458 26 -912l-301 -20q18 397 18 681q0 103 -2 190l-232 9l-127 -5q-3 -91 -3 -198q0 -284 18 -681z" />
<glyph unicode="&#x440;" d="M46 -419q6 337 6 717q0 346 -5 726l237 1l8 -154q74 112 197 112q307 0 307 -485v-20q-7 -486 -306 -486q-12 0 -24 1q-102 5 -165 111q0 -222 11 -523h-266zM296 676l5 -376q58 -79 117 -79q24 0 48 14q73 40 73 239q0 24 -1 50q-10 244 -97 257q-9 1 -17 1 q-76 0 -128 -106z" />
<glyph unicode="&#x441;" horiz-adv-x="730" d="M30 481v30q10 516 338 521h8q302 0 302 -346q0 -20 -1 -40l-215 -16v24q0 182 -103 182q-105 0 -105 -295v-33q6 -319 106 -319h6q87 7 87 133q0 27 -4 60l238 -15q0 -361 -333 -366q-4 -1 -7 -1q-317 0 -317 481z" />
<glyph unicode="&#x442;" horiz-adv-x="751" d="M8 890v206q147 -3 291 -3q224 0 439 7l9 -219h-252q0 -556 15 -882l-282 -11q22 555 32 906z" />
<glyph unicode="&#x443;" horiz-adv-x="803" d="M38 1021l262 21q-9 -300 -9 -494q0 -73 2 -131q4 -214 96 -220q6 -1 11 -1q82 0 104 94q12 55 12 261q0 165 -8 426l246 18q4 -305 4 -524q0 -273 -6 -412q-10 -250 -143 -380q-120 -118 -337 -118q-25 0 -51 2l-28 244q19 -1 37 -1q168 0 230 59q64 61 64 196v16 q-57 -90 -175 -90h-14q-129 6 -200 101.5t-77.5 268t-19.5 664.5z" />
<glyph unicode="&#x444;" horiz-adv-x="1231" d="M-44 454v20q7 486 306 486q12 0 24 -1q102 -5 165 -111q0 222 -11 523h266q-4 -214 -5 -445l4 -81q74 112 197 112q307 0 307 -485v-20q-7 -486 -306 -486q-12 0 -24 1q-102 5 -165 111q0 -222 11 -523h-266q4 214 5 445l-4 81q-74 -112 -197 -112q-307 0 -307 485z M213 488q0 -24 1 -50q10 -244 97 -257q9 -1 17 -1q76 0 128 106l-5 376q-58 79 -117 79q-24 0 -48 -14q-73 -40 -73 -239zM709 640l5 -376q58 -79 117 -79q24 0 48 14q73 40 73 239q0 24 -1 50q-10 244 -97 257q-9 1 -17 1q-76 0 -128 -106z" />
<glyph unicode="&#x445;" horiz-adv-x="812" d="M22 15q107 243 202 478l-196 473l263 40l105 -393l104 396l264 -31q-92 -195 -196 -475q92 -242 203 -495l-258 -28l-126 385l-120 -382z" />
<glyph unicode="&#x446;" horiz-adv-x="1109" d="M4 1129l301 21q-18 -397 -18 -681q0 -107 3 -198l127 -5l232 9q2 87 2 190q0 284 -18 681l301 -20q-26 -450 -26 -903l142 20q2 -294 12 -586l-302 -21q11 202 18 379l-428 7l-321 -5q1 100 1 200q0 459 -26 912z" />
<glyph unicode="&#x447;" d="M39 918q3 73 254 95q-20 -16 -20 -287q0 -91 5 -142q15 -156 101 -156t108 81l-10 464l245 2q0 -200 39 -963l-194 -21l-18 354q-42 -130 -226 -131q-2 -1 -3 -1q-182 0 -241 164q-40 109 -40 541z" />
<glyph unicode="&#x448;" horiz-adv-x="1549" d="M28 1129l301 21q-18 -397 -18 -681q0 -113 3 -208l331 13q-2 426 -26 847l301 21q-18 -397 -18 -681q0 -107 3 -198l127 -5l232 9q2 87 2 190q0 284 -18 681l301 -20q-26 -454 -26 -912q0 -100 1 -201l-559 9l-321 -5v18l-591 -10q1 100 1 200q0 459 -26 912z" />
<glyph unicode="&#x449;" horiz-adv-x="1676" d="M28 1129l301 21q-18 -397 -18 -681q0 -113 3 -208l331 13q-2 426 -26 847l301 21q-18 -397 -18 -681q0 -107 3 -198l127 -5l232 9q2 87 2 190q0 284 -18 681l301 -20q-25 -443 -26 -889l142 22q2 -317 12 -633l-302 -23q11 219 18 412l-428 7l-321 -5v18l-591 -10 q1 100 1 200q0 459 -26 912z" />
<glyph unicode="&#x44a;" horiz-adv-x="971" d="M12 1239l539 -10v-1h8q-14 -197 -14 -340q0 -29 1 -55q168 -6 283 -82.5t124 -349.5v-29q0 -249 -139 -329q-90 -52 -268 -52q-114 0 -262 21q13 391 13 756q0 136 -2 268l-282 12v17q0 87 -1 174zM526 173q34 -7 63 -7q109 0 136 97q18 66 18 128q0 54 -13 105 q-29 111 -198 120z" />
<glyph unicode="&#x44b;" horiz-adv-x="1303" d="M12 1239l539 -10v-1h8q-14 -197 -14 -340q0 -29 1 -55q168 -6 283 -82.5t124 -349.5v-29q0 -249 -139 -329q-90 -52 -268 -52q-114 0 -262 21q13 391 13 756q0 136 -2 268l-282 12v17q0 87 -1 174zM526 173q34 -7 63 -7q109 0 136 97q18 66 18 128q0 54 -13 105 q-29 111 -198 120zM1001 8l12 1252l21 1q108 4 217 11l2 -1264h-252z" />
<glyph unicode="&#x44c;" horiz-adv-x="690" d="M24 12q12 391 12 756q0 237 -5 465l268 -5q-15 -197 -15 -340q0 -29 1 -55q169 -6 284 -82.5t124 -349.5v-29q0 -249 -140 -329q-90 -52 -268 -52q-113 0 -261 21zM266 173q34 -7 63 -7q109 0 136 97q18 66 18 128q0 54 -14 105q-29 111 -197 120z" />
<glyph unicode="&#x44d;" horiz-adv-x="678" d="M-30 847q97 179 327 174q384 -9 372 -536q-11 -490 -422 -480q-141 3 -225 84l143 119q39 -46 100 -47q151 -4 184 263l-325 11v14q0 71 -1 142l335 -5q-6 259 -164 263q-100 3 -147 -98z" />
<glyph unicode="&#x44e;" horiz-adv-x="1067" d="M9 5q9 288 9 563q0 274 -9 535h201l-9 -456l161 -7q19 487 369 487q323 0 323 -564q0 -565 -347 -565q-295 0 -339 426h-149v-420zM576 503q0 -296 135 -296q144 0 144 335q0 334 -134 334t-144 -334q-1 -21 -1 -39z" />
<glyph unicode="&#x44f;" d="M48 -26q0 361 54 451q57 92 168 106q-158 45 -208 212q-14 52 -14 100q0 107 75 196q80 95 370 95q104 0 236 -12q-12 -344 -12 -681q0 -221 5 -438l-263 5q17 207 22 439q-14 2 -26 2q-66 0 -113 -58q-42 -51 -42 -281q0 -76 4 -172l-256 3v33zM276 807q0 -44 22 -91 q43 -89 201 -96l6 325q-32 3 -60 3q-122 0 -152 -65q-17 -37 -17 -76z" />
<glyph unicode="&#x451;" horiz-adv-x="747" d="M14 1279q0 61 43 104t103 43q61 0 104 -43t43 -104q0 -60 -43 -103t-104 -43q-60 0 -103 43t-43 103zM31 451v30q10 516 335 516q347 0 347 -461q0 -56 -5 -120h-447q0 -257 99 -257h7q87 7 87 133q0 27 -4 60l238 5q0 -381 -333 -386q-4 -1 -7 -1q-317 0 -317 481z M237 600h226v24q0 182 -103 182q-111 0 -123 -206zM424 1279q0 61 43 104t103 43q61 0 104 -43t43 -104q0 -60 -43 -103t-104 -43q-60 0 -103 43t-43 103z" />
<glyph unicode="&#x452;" horiz-adv-x="874" d="M-98 1130v200h222q-2 65 -4 133l204 20l3 -153h275v-200h-272l4 -210q42 130 221 132h4q176 0 240 -138q44 -94 44 -440q0 -170 -11 -402h-4q0 -14 -1 -28q-10 -280 -118 -380q-95 -88 -277 -88q-27 0 -56 2l-28 254q42 -7 76 -7q95 0 131 55q34 53 44 192h-9 q13 309 13 479q0 85 -3 136q-10 150 -96 150t-108 -80l10 -725l-255 -2q0 377 -21 1100h-228z" />
<glyph unicode="&#x453;" d="M28 -3q26 454 26 912q0 100 -1 201l714 -12l-7 -249l-446 17q-3 -95 -3 -208q0 -284 18 -681zM249 1301q117 139 192 265l164 -130q-106 -104 -236 -255z" />
<glyph unicode="&#x454;" horiz-adv-x="723" d="M24 467q-12 527 373 536q230 5 326 -174l-177 -96q-47 101 -147 98q-158 -4 -164 -263l335 5q-1 -71 -1 -142v-14l-325 -11q34 -267 184 -263q62 1 100 47l143 -119q-84 -81 -225 -84q-411 -10 -422 480z" />
<glyph unicode="&#x455;" horiz-adv-x="710" d="M28 345l229 11v-13q0 -154 95 -156h4q92 0 92 89v7q-4 98 -181.5 158t-213.5 202q-13 50 -13 96q0 84 43 156q66 110 200 126q36 4 70 4q89 0 157 -31q93 -43 129 -123q24 -55 24 -122q0 -32 -5 -66l-214 -5q3 25 3 46q0 100 -64 107q-7 1 -14 1q-66 0 -89 -67 q-8 -23 -8 -42q0 -47 44 -81q62 -48 183.5 -97.5t163.5 -168.5q15 -45 15 -90q0 -76 -44 -153q-70 -123 -217 -143q-32 -5 -63 -5q-110 0 -204 57q-120 73 -122 303z" />
<glyph unicode="&#x456;" horiz-adv-x="335" d="M17 1257q0 60 43 103t103 43q61 0 104 -43t43 -103q0 -61 -43 -104t-104 -43q-60 0 -103 43t-43 104zM35 1006l252 15q-12 -408 -12 -811q0 -108 1 -215h-234q-7 585 -7 1011z" />
<glyph unicode="&#x457;" horiz-adv-x="335" d="M-179 1292q0 61 43 104t103 43q61 0 104 -43t43 -104q0 -60 -43 -103t-104 -43q-60 0 -103 43t-43 103zM46 1006l252 15q-12 -408 -12 -811q0 -108 1 -215h-234q-7 585 -7 1011zM231 1292q0 61 43 104t103 43q61 0 104 -43t43 -104q0 -60 -43 -103t-104 -43 q-60 0 -103 43t-43 103z" />
<glyph unicode="&#x458;" horiz-adv-x="335" d="M-187 -163q42 -7 76 -7q95 0 131 55q47 73 47 305v10q-1 239 -19 797l246 18q4 -305 4 -529q0 -281 -6 -437q-10 -280 -118 -380q-95 -88 -277 -88q-27 0 -56 2zM27 1267q0 60 43 103t103 43q61 0 104 -43t43 -103q0 -61 -43 -104t-104 -43q-60 0 -103 43t-43 104z" />
<glyph unicode="&#x459;" horiz-adv-x="1296" d="M-5 -60l3 200h8q26 0 54 13q61 30 61 207v18q-4 193 -19 715l10 1l-1 24l774 10l2 -50h15q-8 -95 -12 -176v-5q-3 -63 -3 -117q0 -25 1 -49q169 -4 284 -71.5t124 -306.5v-25q0 -219 -139 -289q-91 -46 -269 -46q-113 0 -262 18q13 343 13 663q0 113 -2 223h-285 q2 -154 2 -255q0 -405 -38 -506q-53 -141 -176 -176q-74 -20 -143 -20h-2zM855 187q33 -6 61 -6q104 0 130 81q17 56 17 108q0 45 -13 87q-28 94 -189 101z" />
<glyph unicode="&#x45a;" horiz-adv-x="1236" d="M28 37q11 253 11 496q0 241 -11 472h231l-9 -403l252 -8v427l242 -16v-10l64 -1q-15 -156 -15 -271q0 -23 1 -44q172 -4 290 -65t127 -279v-23q0 -199 -143 -263q-92 -42 -274 -42q-33 0 -70 2v-5h-202v402h-252v-370zM760 184q34 -5 62 -5q106 0 133 73q18 51 18 98 q0 41 -14 80q-28 85 -193 92z" />
<glyph unicode="&#x45b;" horiz-adv-x="868" d="M-98 1070v200h222q-2 65 -4 133l204 20l3 -153h275v-200h-272l4 -210q42 130 221 132h4q176 0 240 -138q44 -94 44 -440q0 -170 -11 -402h-242q13 309 13 479q0 85 -3 136q-10 150 -96 150t-108 -80l10 -725l-255 -2q0 377 -21 1100h-228z" />
<glyph unicode="&#x45c;" d="M8 -4q7 416 7 1047l234 16l-4 -490q4 7 33 0q119 16 119 92v180q0 257 307 257h77v-161h-77q-115 0 -115 -96v-192q0 -119 -131 -156l-14 4q116 -198 341 -536l-298 -3q-86 182 -255 459v-418zM295 1301q117 139 192 265l164 -130q-106 -104 -236 -255z" />
<glyph unicode="&#x45e;" horiz-adv-x="803" d="M38 1021l262 21q-9 -300 -9 -494q0 -73 2 -131q4 -214 96 -220q6 -1 11 -1q82 0 104 94q12 55 12 261q0 165 -8 426l246 18q4 -305 4 -524q0 -273 -6 -412q-10 -250 -143 -380q-120 -118 -337 -118q-25 0 -51 2l-28 244q19 -1 37 -1q168 0 230 59q64 61 64 196v16 q-57 -90 -175 -90h-14q-129 6 -200 101.5t-77.5 268t-19.5 664.5zM97 1480h180q0 -120 120 -120t120 120h180q0 -300 -300 -300t-300 300z" />
<glyph unicode="&#x45f;" horiz-adv-x="934" d="M4 1129l301 21q-18 -397 -18 -681q0 -107 3 -198l127 -5l104 4l92 14v-11l36 2q2 87 2 190q0 284 -18 681l301 -20q-26 -454 -26 -912q0 -100 1 -201l-293 5q3 -184 9 -367l-302 -23q10 209 18 394l-312 -5q1 100 1 200q0 459 -26 912z" />
<glyph unicode="&#x2000;" horiz-adv-x="996" />
<glyph unicode="&#x2001;" horiz-adv-x="1992" />
<glyph unicode="&#x2002;" horiz-adv-x="996" />
<glyph unicode="&#x2003;" horiz-adv-x="1992" />
<glyph unicode="&#x2004;" horiz-adv-x="664" />
<glyph unicode="&#x2005;" horiz-adv-x="498" />
<glyph unicode="&#x2006;" horiz-adv-x="332" />
<glyph unicode="&#x2007;" horiz-adv-x="332" />
<glyph unicode="&#x2008;" horiz-adv-x="249" />
<glyph unicode="&#x2009;" horiz-adv-x="398" />
<glyph unicode="&#x200a;" horiz-adv-x="110" />
<glyph unicode="&#x2010;" horiz-adv-x="580" d="M40 620v250h500v-250h-500z" />
<glyph unicode="&#x2011;" horiz-adv-x="580" d="M40 620v250h500v-250h-500z" />
<glyph unicode="&#x2012;" horiz-adv-x="580" d="M40 620v250h500v-250h-500z" />
<glyph unicode="&#x2013;" horiz-adv-x="580" d="M40 620v250h500v-250h-500z" />
<glyph unicode="&#x2014;" horiz-adv-x="772" d="M40 620v250h700v-250h-700z" />
<glyph unicode="&#x2015;" horiz-adv-x="1206" d="M-8 850v200h1166v-200h-1166z" />
<glyph unicode="&#x2017;" horiz-adv-x="694" d="M-8 -150h700v-200h-700v200z" />
<glyph unicode="&#x2018;" horiz-adv-x="381" d="M40 1457q0 2 1 4q0 41 8 70.5t27.5 55.5t51.5 39q30 12 63 12h3q34 -1 69.5 -19t54.5 -52.5t19 -79.5t-24 -81t-101 -62q18 -91 129 -123l-20 -86q-102 8 -153.5 49.5t-78.5 87.5t-38 97q-11 48 -11 88z" />
<glyph unicode="&#x2019;" horiz-adv-x="381" d="M40 1221q111 32 129 123q-77 26 -101 62t-24 81t19 79.5t54.5 52.5t70.5 19h2q33 0 64 -12q31 -13 50.5 -39t27.5 -55.5t9 -70.5v-4q0 -40 -11 -88q-11 -51 -38 -97t-78.5 -87.5t-153.5 -49.5z" />
<glyph unicode="&#x201a;" horiz-adv-x="381" d="M40 -79q111 32 129 123q-77 26 -101 62t-24 81t19 79.5t54.5 52.5t70.5 19h2q33 0 64 -12q31 -13 50.5 -39t27.5 -55.5t9 -70.5v-4q0 -40 -11 -88q-11 -51 -38 -97t-78.5 -87.5t-153.5 -49.5z" />
<glyph unicode="&#x201b;" horiz-adv-x="381" d="M40 1457q0 -40 11 -88q11 -51 38 -97t78.5 -87.5t153.5 -49.5l20 86q-111 32 -129 123q77 26 101 62t24 81t-19 79.5t-54.5 52.5t-70.5 19h-2q-33 0 -64 -12q-31 -13 -50.5 -39t-27.5 -55.5t-9 -70.5v-4z" />
<glyph unicode="&#x201c;" horiz-adv-x="713" d="M40 1407q0 2 1 4q0 41 8 70.5t27.5 55.5t51.5 39q30 12 63 12h3q34 -1 69.5 -19t54.5 -52.5t19 -79.5t-24 -81t-101 -62q18 -91 129 -123l-20 -86q-102 8 -153.5 49.5t-78.5 87.5t-38 97q-11 48 -11 88zM380 1457q0 2 1 4q0 41 8 70.5t27.5 55.5t51.5 39q30 12 63 12h3 q34 -1 69.5 -19t54.5 -52.5t19 -79.5t-24 -81t-101 -62q18 -91 129 -123l-20 -86q-102 8 -153.5 49.5t-78.5 87.5t-38 97q-11 48 -11 88z" />
<glyph unicode="&#x201d;" horiz-adv-x="713" d="M40 1221q111 32 129 123q-77 26 -101 62t-24 81t19 79.5t54.5 52.5t70.5 19h2q33 0 64 -12q31 -13 50.5 -39t27.5 -55.5t9 -70.5v-4q0 -40 -11 -88q-11 -51 -38 -97t-78.5 -87.5t-153.5 -49.5zM380 1171q111 32 129 123q-77 26 -101 62t-24 81t19 79.5t54.5 52.5t70.5 19 h2q33 0 64 -12q31 -13 50.5 -39t27.5 -55.5t9 -70.5v-4q0 -40 -11 -88q-11 -51 -38 -97t-78.5 -87.5t-153.5 -49.5z" />
<glyph unicode="&#x201e;" horiz-adv-x="713" d="M40 -109q111 32 129 123q-77 26 -101 62t-24 81t19 79.5t54.5 52.5t70.5 19h2q33 0 64 -12q31 -13 50.5 -39t27.5 -55.5t9 -70.5v-4q0 -40 -11 -88q-11 -51 -38 -97t-78.5 -87.5t-153.5 -49.5zM380 -159q111 32 129 123q-77 26 -101 62t-24 81t19 79.5t54.5 52.5t70.5 19 h2q33 0 64 -12q31 -13 50.5 -39t27.5 -55.5t9 -70.5v-4q0 -40 -11 -88q-11 -51 -38 -97t-78.5 -87.5t-153.5 -49.5z" />
<glyph unicode="&#x2020;" horiz-adv-x="920" d="M31 896v250h290v290h250v-290h300v-250h-300v-900h-250v900h-290z" />
<glyph unicode="&#x2021;" horiz-adv-x="920" d="M40 320v250h290v360h-290v250h290v290h250v-290h300v-250h-300v-360h300v-250h-300v-290h-250v290h-290z" />
<glyph unicode="&#x2022;" horiz-adv-x="515" d="M59 677q0 26 4 52q13 77 63 136q44 54 134 54q9 0 19 -1q105 -5 143.5 -57t45.5 -148q2 -21 2 -41q0 -70 -20 -120q-26 -65 -108 -88q-37 -11 -73 -11q-45 0 -88 16q-80 29 -105 106q-17 51 -17 102z" />
<glyph unicode="&#x2026;" horiz-adv-x="1150" d="M40 191q0 61 43 104t103 43q61 0 104 -43t43 -104q0 -60 -43 -103t-104 -43q-60 0 -103 43t-43 103zM423 191q0 61 43 104t103 43q61 0 104 -43t43 -104q0 -60 -43 -103t-104 -43q-60 0 -103 43t-43 103zM806 191q0 61 43 104t103 43q61 0 104 -43t43 -104 q0 -60 -43 -103t-104 -43q-60 0 -103 43t-43 103z" />
<glyph unicode="&#x202f;" horiz-adv-x="398" />
<glyph unicode="&#x2030;" horiz-adv-x="2451" d="M47 1071v24q10 435 362 435q340 0 340 -398q0 -16 -1 -32q-14 -431 -362 -435q-4 -1 -8 -1q-331 0 -331 407zM276 1054q0 -43 6 -86q16 -106 103 -110h8q80 0 110 79q25 66 25 156q0 22 -1 45q-8 119 -48 149q-25 18 -60 18q-20 0 -43 -6q-63 -17 -86 -121 q-14 -62 -14 -124zM557 20l440 1540l170 -30l-440 -1540zM957 417v24q10 435 362 435q340 0 340 -398q0 -16 -1 -32q-14 -431 -362 -435q-4 -1 -8 -1q-331 0 -331 407zM1186 400q0 -43 6 -86q16 -106 103 -110h8q80 0 110 79q25 66 25 156q0 22 -1 45q-8 119 -48 149 q-25 18 -60 18q-20 0 -43 -6q-63 -17 -86 -121q-14 -62 -14 -124zM1707 417v24q10 435 362 435q340 0 340 -398q0 -16 -1 -32q-14 -431 -362 -435q-4 -1 -8 -1q-331 0 -331 407zM1936 400q0 -43 6 -86q16 -106 103 -110h8q80 0 110 79q25 66 25 156q0 22 -1 45 q-8 119 -48 149q-25 18 -60 18q-20 0 -43 -6q-63 -17 -86 -121q-14 -62 -14 -124z" />
<glyph unicode="&#x2032;" horiz-adv-x="395" d="M18 1337q117 139 192 265l164 -130q-106 -104 -236 -255z" />
<glyph unicode="&#x2033;" horiz-adv-x="751" d="M18 1337q117 139 192 265l164 -130q-106 -104 -236 -255zM374 1337q117 139 192 265l164 -130q-106 -104 -236 -255z" />
<glyph unicode="&#x2039;" horiz-adv-x="540" d="M50 700l230 400h220l-200 -400l200 -400h-220z" />
<glyph unicode="&#x203a;" horiz-adv-x="540" d="M50 300l200 400l-200 400h220l230 -400l-230 -400h-220z" />
<glyph unicode="&#x203c;" horiz-adv-x="670" d="M27 141q0 61 43 104t103 43q61 0 104 -43t43 -104q0 -60 -43 -103t-104 -43q-60 0 -103 43t-43 103zM32 1403h264q-14 -509 -19 -1006l-222 -5q-10 426 -23 1011zM362 141q0 61 43 104t103 43q61 0 104 -43t43 -104q0 -60 -43 -103t-104 -43q-60 0 -103 43t-43 103z M367 1403h264q-14 -509 -19 -1006l-222 -5q-10 426 -23 1011z" />
<glyph unicode="&#x203e;" horiz-adv-x="694" d="M-8 1516v200h700v-200h-700z" />
<glyph unicode="&#x205f;" horiz-adv-x="498" />
<glyph unicode="&#x20a3;" horiz-adv-x="696" d="M21 169v200h47q1 102 1 204q0 395 -21 797q226 10 635 21v-282l-395 15v-375l355 9l9 -271h-317v-118h386v-200h-386v-175l-277 13q3 81 5 162h-42z" />
<glyph unicode="&#x20a4;" horiz-adv-x="919" d="M-2 683h160q3 -18 5 -93h-163v-166h165q-1 -79 -19 -165l-145 1l7 -254q190 -6 323 -6q95 0 160 3q160 7 350 71l-75 249q-184 -65 -348 -65q-41 0 -81 4q27 84 38 162h277l-2 166h-267v93h268v171h-295q-11 130 -12 135v10q0 186 111 200h11q94 0 94 -208v-28l239 6 q3 35 3 67q0 140 -49 232q-61 113 -158 147q-56 19 -125 19q-48 0 -101 -9q-132 -24 -211 -147q-73 -113 -73 -258q3 -98 15 -166h-102v-171z" />
<glyph unicode="&#x20a6;" horiz-adv-x="896" d="M48 595v200h63q0 101 -2 200h-61v200h58q-2 83 -5 165l205 14l45 -179h135q-2 109 -6 220l216 4q-6 -112 -11 -224h63v-200h-70q-4 -100 -6 -200h76v-200h-80q-4 -206 -4 -414q0 -84 1 -168l-190 -3l-146 585h-51q7 -322 12 -608l-187 -18q8 321 9 626h-64zM274 795h5 l-5 21v-21zM401 995l50 -200h43q-2 99 -3 200h-90z" />
<glyph unicode="&#x20a7;" horiz-adv-x="1983" d="M48 1402q154 24 272 24q185 0 279 -60q140 -90 145 -362l129 -2l-1 316l227 15v-331l191 5l3 -189l-194 -9v-455q0 -159 135 -159q28 0 61 7l-9 -220q-48 -6 -91 -6q-316 0 -322 326v489l-145 -9q-29 -173 -113 -234q-120 -89 -295 -95q-1 -31 -1 -64q0 -166 15 -393 l-279 -6q6 263 6 538q0 422 -13 874zM286 1170l6 -489q167 10 196 133q14 56 14 115q0 69 -18 142q-27 107 -135 107q-29 0 -63 -8zM1305 337l229 11v-13q0 -154 95 -156h4q92 0 92 89v7q-4 98 -181.5 158t-213.5 202q-13 50 -13 96q0 84 43 156q66 110 200 126q36 4 70 4 q89 0 157 -31q93 -43 129 -123q24 -55 24 -122q0 -32 -5 -66l-214 -5q3 25 3 46q0 100 -64 107q-7 1 -14 1q-66 0 -89 -67q-8 -23 -8 -42q0 -47 44 -81q62 -48 183.5 -97.5t163.5 -168.5q15 -45 15 -90q0 -76 -44 -153q-70 -123 -217 -143q-32 -5 -63 -5q-110 0 -204 57 q-120 73 -122 303z" />
<glyph unicode="&#x20a8;" horiz-adv-x="1514" d="M48 1497q155 16 278 16q342 0 436 -125q88 -117 88 -258q0 -64 -17 -132q-58 -220 -244 -279q130 -18 197 -140q64 -118 64 -594v-43l-302 -4q5 126 5 226q0 303 -49 371q-56 76 -133 76q-15 0 -31 -3q6 -305 26 -578l-310 -6q6 286 6 576q0 444 -14 897zM312 1304 l7 -428q186 9 236 126q27 62 27 121q0 51 -20 100q-36 85 -179 85q-33 0 -71 -4zM874 297l229 11v-13q0 -154 95 -156h4q92 0 92 89v7q-4 98 -181.5 158t-213.5 202q-13 50 -13 96q0 84 43 156q66 110 200 126q36 4 70 4q89 0 157 -31q93 -43 129 -123q24 -55 24 -122 q0 -32 -5 -66l-214 -5q3 25 3 46q0 100 -64 107q-7 1 -14 1q-66 0 -89 -67q-8 -23 -8 -42q0 -47 44 -81q62 -48 183.5 -97.5t163.5 -168.5q15 -45 15 -90q0 -76 -44 -153q-70 -123 -217 -143q-32 -5 -63 -5q-110 0 -204 57q-120 73 -122 303z" />
<glyph unicode="&#x20a9;" horiz-adv-x="1337" d="M-42 1376l300 19l23 -245h201l22 125l361 4l58 -490h80l54 571l300 -39q-108 -654 -204 -1322l-364 -19l-76 609h-109l-118 -628l-342 14q-77 680 -186 1401zM299 950l50 -544l97 544h-147zM642 789h47l-19 150zM947 589l21 -176l17 176h-38z" />
<glyph unicode="&#x20aa;" horiz-adv-x="1061" d="M10 563q-22 124 13.5 212t198.5 70l468 -55l97 -528l-179 -43l-90 528l-214 25q-90 10 -107.5 -39.5t11.5 -207.5q80 -479 87 -515l-168 -47q-110 563 -117 600zM288 555l169 76l98 -560l214 -25q92 -10 109 40t-12 207q-113 595 -94 538l167 54q119 -593 124 -629 q24 -126 -11.5 -213.5t-198.5 -68.5l-468 55z" />
<glyph unicode="&#x20ab;" horiz-adv-x="794" d="M46 830q0 7 1 14q4 332 214 332q8 0 17 -1q72 -4 116 -78q0 69 -1 150h-179v149h175q-1 34 -2 69h187q-1 -34 -1 -69h163v-149h-165q-1 -137 -1 -281q0 -238 3 -495l-167 -1l-5 108q-52 -78 -139 -78q-216 0 -216 330zM49 200v200h700v-200h-700zM220 850q0 -15 1 -32 q7 -161 71 -170q7 -1 13 -1q56 0 93 75l-4 243q-40 56 -83 56q-18 0 -36 -9q-55 -29 -55 -162z" />
<glyph unicode="&#x20ac;" horiz-adv-x="1039" d="M40 450v170h144q-3 56 -3 118v12h-141v170h148q46 542 389 542q373 0 373 -484q0 -29 -1 -60l-222 -1v27q0 235 -133 235q-108 0 -133 -259h229l-30 -170h-206v-5q0 -67 3 -125h180l-30 -170h-133q35 -194 127 -194h1q149 1 149 240v99h248v-75q0 -498 -409 -522 q-12 -1 -23 -1q-303 0 -368 453h-159z" />
<glyph unicode="&#x20ad;" horiz-adv-x="748" d="M7 566v200h46q1 268 1 577l213 20l-4 -597h12q135 306 251 561l238 -16q-104 -227 -273 -545h216v-200h-230q102 -238 276 -605l-270 -4q-79 233 -232 586v-534l-203 -4q3 250 4 561h-45z" />
<glyph unicode="&#x20ae;" horiz-adv-x="896" d="M48 476v200h240q1 51 2 99h-242v200h246q2 90 4 171l-214 -4v263q125 -4 247 -4q191 0 373 9l8 -280h-214v-155h250v-200h-249v-99h249v-200h-247q3 -272 9 -474l-239 -14q7 262 12 488h-235z" />
<glyph unicode="&#x20b1;" horiz-adv-x="896" d="M38 1414q171 24 302 24q206 0 310 -60q49 -28 83 -75h6v-8q72 -105 72 -298v-33q-10 -316 -143 -404.5t-328 -94.5q-1 -31 -1 -64q0 -166 17 -393l-310 -6q6 263 6 538q0 89 -1 180h-9v200h7q-1 91 -3 183h-7v200h2q-1 55 -3 111zM303 1103l3 -183h236v21q0 69 -20 142 q-3 11 -7 20h-212zM309 693q76 4 126 27h-126v-27z" />
<glyph unicode="&#x20b4;" horiz-adv-x="850" d="M50 447q0 40 6 78v179h70q61 88 174 144q64 32 112 67h-356v189h45q-1 18 -1 35q0 427 335 427h8q371 -6 378 -343q1 -10 1 -20q0 -52 -6 -99h40v-189h-102q-62 -108 -179 -174q-32 -18 -61 -37h342v-95h5q2 -39 2 -75q0 -298 -104 -411q-108 -118 -269 -118q-12 0 -24 1 q-177 9 -282 108.5t-128 250.5q-6 42 -6 82zM316 436q0 -142 137 -146h4q113 0 113 225h-238q-15 -35 -16 -70v-9zM359 1135q0 -15 1 -31h193q9 35 9 73q0 15 -1 30q-10 107 -115 107q-87 0 -87 -179z" />
<glyph unicode="&#x2122;" horiz-adv-x="1080" d="M50 1390v120h400v-120h-140v-380h-120v380h-140zM500 1010v500h160l110 -300l110 300h160v-500h-120v300l-100 -300h-100l-100 300v-300h-120z" />
<glyph unicode="&#x2206;" horiz-adv-x="882" d="M-28 81q210 907 313 1339l352 11q122 -674 281 -1482zM293 285l301 -39l-131 842q-99 -432 -170 -803z" />
<glyph unicode="&#x220f;" horiz-adv-x="1058" d="M12 26q26 595 26 1196q0 131 -1 263l714 -16v-15l259 -8q-1 -132 -1 -263q0 -601 26 -1197l-301 -11q18 520 18 892q0 148 -3 273l-446 3v22h-5q-3 -125 -3 -273q0 -372 18 -893z" />
<glyph unicode="&#x2211;" horiz-adv-x="955" d="M-12 1299l11 1l-10 158q493 -12 926 -3l12 -231q-302 13 -611 24q132 -229 283 -497v13l59 -115l-262 -451q256 4 535 10l13 -231q-448 20 -909 33h-34q259 427 387 671q-233 337 -375 576h-11l-1 20q-7 11 -13 22z" />
<glyph unicode="&#x2248;" horiz-adv-x="883" d="M50 188q0 366 244 366q122 0 189 -91q56 -77 103 -77q10 0 19 4q55 18 55 164h183q0 -366 -244 -366q-122 0 -195 92q-61 76 -105 76q-9 0 -17 -3q-49 -19 -49 -165h-183zM50 554q0 366 244 366q122 0 189 -91q56 -77 103 -77q10 0 19 4q55 18 55 164h183 q0 -366 -244 -366q-122 0 -195 92q-61 76 -105 76q-9 0 -17 -3q-49 -19 -49 -165h-183z" />
<glyph unicode="&#x2260;" horiz-adv-x="880" d="M40 420v250h245l120 250h-365v250h485l41 85l176 -25l-30 -60h128v-250h-251l-123 -250h374v-250h-497l-32 -65l-166 25l19 40h-124z" />
<glyph unicode="&#x2264;" horiz-adv-x="780" d="M40 0v250h745v-250h-745zM40 825v200l700 450v-300l-420 -250l420 -250v-300z" />
<glyph unicode="&#x2265;" horiz-adv-x="780" d="M40 0v250h745v-250h-745zM40 375v300l420 250l-420 250v300l700 -450v-200z" />
<glyph unicode="&#x25fc;" horiz-adv-x="1010" d="M0 0v1010h1010v-1010h-1010z" />
<glyph unicode="&#xfb01;" horiz-adv-x="1034" d="M28 984l158 7q-2 27 -2 55q0 94 19 193q23 129 140 206q87 58 220 58q44 0 94 -7l-2 -219q-30 4 -56 4q-83 0 -122 -41q-43 -43 -43 -168q0 -30 3 -66l214 3v-203l-220 -14q8 -328 8 -620q0 -88 -1 -172l-254 -11q3 333 10 788l-162 -8zM726 1257q0 60 43 103t103 43 q61 0 104 -43t43 -103q0 -61 -43 -104t-104 -43q-60 0 -103 43t-43 104zM744 1006l252 15q-12 -408 -12 -811q0 -108 1 -215h-234q-7 585 -7 1011z" />
</font>
</defs>
</svg>
