<?xml version="1.0" standalone="no"?>
<!DOCTYPE svg PUBLIC "-//W3C//DTD SVG 1.1//EN" "http://www.w3.org/Graphics/SVG/1.1/DTD/svg11.dtd" >
<svg xmlns="http://www.w3.org/2000/svg" xmlns:xlink="http://www.w3.org/1999/xlink" version="1.1">
<metadata></metadata>
<defs>
<font id="clarendon_csbold" horiz-adv-x="942" >
<font-face units-per-em="2048" ascent="1638" descent="-410" />
<missing-glyph horiz-adv-x="593" />
<glyph horiz-adv-x="0" />
<glyph unicode="&#xd;" horiz-adv-x="593" />
<glyph unicode=" "  horiz-adv-x="593" />
<glyph unicode="&#x09;" horiz-adv-x="593" />
<glyph unicode="&#xa0;" horiz-adv-x="593" />
<glyph unicode="!" horiz-adv-x="567" d="M96 1204q0 41 6.5 87t32 94.5t70.5 74t90 25.5t96 -29q37 -25 62.5 -71t33 -99t7.5 -74q0 -49 -17 -137l-31 -125q-27 -113 -43 -213t-16 -190l-4 -103h-176l-4 103q0 104 -11.5 174t-50.5 229l-26 109l-4 16q-6 25 -10.5 54.5t-4.5 74.5zM102 135q0 74 52.5 128 t138.5 54q82 0 135 -52t53 -120q0 -74 -56 -122t-132 -48q-80 0 -135.5 47t-55.5 113z" />
<glyph unicode="&#x22;" horiz-adv-x="811" d="M70 971v504h252v-504h-252zM451 971v504h251v-504h-251z" />
<glyph unicode="#" horiz-adv-x="1200" d="M70 426l28 135h236l76 352h-236l29 136h235l88 417h136l-89 -417h187l88 417h135l-88 -417h235l-28 -136h-236l-75 -352h237l-29 -135h-237l-88 -418h-135l88 418h-187l-88 -418h-135l88 418h-235zM469 561h186l76 352h-186z" />
<glyph unicode="$" horiz-adv-x="1480" d="M49 1063q0 182 150.5 313t404.5 131l72 -2v101h143v-115h17l10 -2q76 0 165 -48t103 -58.5t45 -36.5l53 129h177v-529h-183q-8 37 -32.5 107.5t-108.5 148.5t-201 107l-49 8l2 -412l103 -14q287 -55 408.5 -168t121.5 -307q0 -184 -135 -301t-395 -144l-107 -6v-135h-145 v145l-54 9q-168 35 -305 141l-30 25l-52 -150h-176v567h193l12 -53q31 -96 87 -162.5t121.5 -106.5t174.5 -79l33 -10v444l-76 12l-182 47q-168 53 -250 129t-98.5 152t-16.5 123zM395 1130q0 -84 70 -129l49 -22l25 -6l61 -17l16 -4l56 -18l2 385l-39 -2q-66 0 -112 -19.5 t-87 -60.5t-41 -107zM815 145q82 0 130 17.5t69.5 31t62.5 46t41 110.5q0 47 -25.5 89t-78.5 72t-129 48l-47 10l-23 4v-428z" />
<glyph unicode="%" horiz-adv-x="1691" d="M61 1071q0 172 110 275.5t300 103.5q188 0 300 -103.5t112 -273.5q0 -35 -13.5 -124t-122 -173t-276.5 -84q-190 0 -300 103.5t-110 275.5zM125 0l1305 1411h141l-1303 -1411h-143zM299 1034q8 -88 45 -161.5t129 -73.5q43 0 82 28.5t63.5 79.5t24.5 127v76 q0 115 -49 174t-123 59q-72 0 -122 -60t-50 -173v-39v-37zM809 354q0 162 108.5 266.5t288.5 104.5q23 0 49.5 -3t112.5 -16.5t175 -109.5t89 -238q0 -37 -12 -113.5t-97 -154.5t-165 -90t-102.5 -12h-34.5h-31h-25q-16 4 -99 16t-170 107.5t-87 242.5zM1042 354 q0 -74 17.5 -123t54.5 -93t105 -44q70 0 96 33t38.5 50.5t28 60.5t15.5 116q0 76 -13.5 114t-22.5 54.5t-42 55t-100 38.5q-66 0 -103 -43t-55.5 -93t-18.5 -126z" />
<glyph unicode="&#x26;" horiz-adv-x="1826" d="M37 420q0 178 87 249.5t136 102.5t129 74l29 14l-15 25l-14 30q-61 121 -61 226q0 119 100 230.5t291 111.5l69 -6q121 -23 192 -104t71 -183q0 -61 -28 -118.5t-74 -107t-130 -100.5l-35 -20l78 -103q129 -160 277 -307l18 19q70 88 90 174l4 14l2 18v13v14q0 37 -49 49 l-12 2l-16 2h-23h-82v162h610v-153h-67h-17q-63 -6 -90.5 -26t-60.5 -81l-21 -41l-10 -22q-43 -86 -61.5 -118t-59.5 -91l-22 -29l-19 -25l21 -20l22 -21l31 -22q51 -37 84 -51.5t62 -14.5q76 0 118.5 49.5t42.5 157.5v19v112h154v-121v-57q0 -158 -98.5 -256t-257.5 -98 q-92 0 -161 25.5t-89.5 33.5t-42.5 23q-57 29 -90 53l-50 -29q-80 -43 -152.5 -67.5t-136 -33.5t-130.5 -9q-98 0 -188.5 23.5t-172.5 75.5t-132 142t-50 191zM340 461q0 -74 44 -143.5t115.5 -107.5t162.5 -38q51 0 119.5 18.5t127.5 57.5l-393 471l-24 -17 q-152 -102 -152 -241zM596 1188q0 -66 45 -137l16 -27l17 -23l14 -20l33 18q76 45 107.5 95.5t31.5 91.5q0 35 -20.5 69.5t-53 50t-63.5 15.5q-16 0 -71.5 -11.5t-55.5 -121.5z" />
<glyph unicode="'" horiz-adv-x="442" d="M70 971l45 504h258l-45 -504h-258z" />
<glyph unicode="(" horiz-adv-x="845" d="M59 594q0 78 1 160t21.5 261t125 353t280 262t359.5 88v-159l-82 -25q-172 -66 -250 -209t-78 -448q0 -502 90 -719t314 -256v-166q-90 0 -278.5 49t-345.5 258t-157 551z" />
<glyph unicode=")" horiz-adv-x="845" d="M0 -104l82 24q172 66 250 209t78 449q0 502 -90.5 718.5t-313.5 255.5v166q90 0 278.5 -49t345 -259t156.5 -550v-117v-49q0 -82 -20.5 -259t-124.5 -350t-279.5 -261t-361.5 -88v160z" />
<glyph unicode="*" horiz-adv-x="1054" d="M29 1030q61 135 92 281l348 -207l-88 397l74 -6q57 0 112.5 2t110.5 4l-84 -397l356 190q31 -154 76 -282l-399 -23l282 -289q-137 -78 -245 -155l-136 375l-166 -365l-57 45l-57 43l-60 45l-57 43l303 256z" />
<glyph unicode="+" horiz-adv-x="1429" d="M207 444v320h350v348h315v-348h351v-320h-349v-350h-319v350h-348z" />
<glyph unicode="," horiz-adv-x="503" d="M61 -172l15 10l35 21q70 43 98.5 71.5t44.5 71.5l-33 -6q-76 0 -117 46t-41 105q0 68 53.5 119t125.5 51q80 0 142 -59t62 -149q0 -88 -71.5 -186.5t-210.5 -180.5l-37 -21z" />
<glyph unicode="-" horiz-adv-x="624" d="M16 387v264h592v-264h-592z" />
<glyph unicode="." horiz-adv-x="501" d="M61 135q0 74 53.5 127t135.5 53t136 -51t54 -121q0 -72 -57 -121t-135 -49q-80 0 -133.5 47t-53.5 115z" />
<glyph unicode="/" horiz-adv-x="1394" d="M29 0l1173 1497h164l-1171 -1497h-166z" />
<glyph unicode="0" horiz-adv-x="1427" d="M45 711q0 311 191.5 508.5t472.5 197.5q27 0 62.5 -4t177 -30.5t288.5 -213t147 -462.5q0 -289 -141 -479.5t-306 -225.5t-245 -35q-285 0 -466 206t-181 538zM416 709l4 -84q0 -47 5 -86t23.5 -133.5t66.5 -166t113.5 -92t108.5 -20.5q129 0 203 125t74 379q0 27 -2 82 t-2 80q0 129 -28 215t-87 165.5t-182 79.5q-127 0 -184.5 -81.5t-83 -164.5t-25.5 -214z" />
<glyph unicode="1" horiz-adv-x="1427" d="M305 1057v166h88q39 0 121 14t156 129l16 27h229v-1106q0 -66 9.5 -83.5t46.5 -23.5h14h150v-180h-826v180h152h22q55 0 70.5 19.5t15.5 87.5v84v686h-264z" />
<glyph unicode="2" horiz-adv-x="1425" d="M66 0l4 68q25 193 120 311.5t320 230.5l100 52l72 34l39 21q121 76 167 141.5t46 147.5q0 102 -84 167.5t-234 65.5q-41 0 -113.5 -10t-132 -48t-89.5 -104q31 10 79 10q37 -4 91.5 -25.5t54.5 -121.5q0 -31 -10.5 -58.5t-50 -71.5t-134.5 -44q-12 0 -30.5 3t-58.5 12.5 t-83 68.5t-43 139q0 47 7.5 72.5t47 108.5t187 161t352.5 78q55 0 84 -2t108 -14.5t156.5 -44t141 -81.5t101.5 -129t38 -165q0 -100 -48 -184t-116 -125t-119 -62.5t-121 -46.5l-16 -6l-205 -62l-86 -28q-152 -53 -219 -102.5t-108 -131.5l55 29q129 63 250 63 q86 0 207 -30l61 -17l51 -14l45 -10q14 -2 43 -2q92 0 143.5 43t51.5 119l4 69h154v-72q0 -203 -90.5 -309t-268.5 -106q-143 0 -332 69l-55 21q-127 43 -205 43q-61 0 -100 -23.5t-66 -72.5l-10 -25h-153z" />
<glyph unicode="3" horiz-adv-x="1427" d="M74 369q0 70 33.5 126t85 76.5t88.5 20.5q70 0 120 -40t56 -76t6 -43v-13q0 -127 -141 -154l-33 -2q33 -39 82 -65.5t112 -38.5l54 -10q16 -2 31.5 -3.5t35.5 -1.5q131 0 218 55.5t104.5 119t17.5 94.5q0 109 -92 179.5t-258 70.5h-33v149l37 -2q150 0 223.5 50 t81.5 105.5t8 77.5q0 102 -86 166t-241 64q-96 0 -164 -27.5t-109 -77.5q43 6 88 -12l39 -20q57 -41 58 -111q0 -68 -46.5 -107.5t-81 -46t-57.5 -6.5q-82 0 -134 54.5t-52 138.5q0 16 3 38.5t29.5 99.5t162 156t356.5 79q94 0 190.5 -13.5t169 -41t132 -72.5t92 -112 t32.5 -138q0 -129 -81 -198t-167 -97l-45 -10l31 -11q98 -33 168 -82t103.5 -116.5t33.5 -147.5q0 -84 -33.5 -154.5t-91 -114.5t-105.5 -66.5t-116.5 -41t-119 -24.5t-115 -8t-66.5 -2q-195 0 -333 53t-209.5 143t-71.5 191z" />
<glyph unicode="4" horiz-adv-x="1427" d="M47 420v192l766 783h297v-803h217v-172h-219v-133v-25q6 -55 19.5 -68.5t62.5 -13.5h131v-180h-817v180h149h23q51 0 67.5 21.5t16.5 85.5v133h-713zM285 594h475v493z" />
<glyph unicode="5" horiz-adv-x="1427" d="M88 326q0 84 52.5 142t135.5 58q33 0 48 -4q113 -18 127 -75.5t14 -81.5q0 -59 -37 -100.5t-100 -47.5l-41 2q127 -82 278 -82q162 0 263.5 79t107.5 146.5t6 92.5q0 141 -100.5 224t-274.5 83q-29 0 -43 -3t-81.5 -24.5t-108.5 -91.5h-170l37 756q92 -12 200.5 -22.5 t194.5 -10.5h104q190 0 307 7t238 32q-25 -156 -190.5 -210t-618.5 -54l-69 2l-17 -322q82 49 167 77t185 28h89.5t171 -20.5t229 -150.5t104.5 -329q-14 -166 -153 -283.5t-272.5 -131t-174.5 -15.5t-73 -2q-223 0 -355.5 71.5t-156 149.5t-23.5 111z" />
<glyph unicode="6" horiz-adv-x="1427" d="M82 639q0 41 2 64.5t20.5 173t160 305t307 189.5t262.5 34q166 0 289.5 -63.5t158.5 -136t35 -118.5q0 -68 -42 -116.5t-112 -59.5l-45 -4q-84 0 -132 42t-48 108q0 18 11.5 64t86.5 77l27 8l-43 15q-104 31 -176 30q-31 0 -113 -9t-162 -94t-96 -182.5t-17 -137.5 t-1 -64v-41l37 27q150 102 333 102q18 0 42 -2t137.5 -14.5t230.5 -127t117 -284.5q0 -14 -2 -31.5t-13.5 -105.5t-169 -202t-397.5 -114q-88 0 -257 33t-300 200t-131 435zM469 412q0 -117 58.5 -192t127 -88t99.5 -13q102 0 169.5 65.5t78 142t10.5 91.5 q0 109 -59.5 180.5t-124 83.5t-95.5 12q-117 0 -190.5 -77.5t-73.5 -204.5z" />
<glyph unicode="7" horiz-adv-x="1427" d="M104 797v602h172v-172l46 53q119 119 272 119q39 0 73.5 -6.5t49 -8.5t37.5 -12l45 -14l57 -21q127 -45 203 -45q55 0 86 23.5t43 70.5h137q-20 -123 -60 -219t-126 -229l-29 -41l-94 -135l-49 -78q-211 -350 -211 -684h-373l6 61q20 188 76.5 327.5t179.5 301.5l74 88 l20 23l123 129l127 137l31 37l39 45l-45 -19q-100 -35 -191 -34q-66 0 -137 14l-49 10l-53 10q-51 10 -82 11q-72 0 -122 -33t-75.5 -81t-36.5 -142l-2 -29v-59h-162z" />
<glyph unicode="8" horiz-adv-x="1427" d="M59 348q0 106 58.5 169t126 106t143.5 61l-35 23q-217 133 -217 315q0 29 16.5 115t163 176t400.5 90q61 0 172.5 -10.5t211 -59.5t146.5 -117.5t47 -148.5q0 -109 -66.5 -167t-138.5 -99l-43 -21l-20 -10l16 -8l45 -21q25 -12 58 -29.5t88 -52t97 -110.5t42 -162 q0 -154 -97 -243t-202.5 -130t-251.5 -41h-223q-184 16 -308 77t-176.5 136.5t-52.5 161.5zM338 365q0 -113 91 -165.5t153.5 -61.5t101.5 -10t64 -1q84 0 144 18.5t113.5 62.5t53.5 111q0 78 -66.5 115t-105.5 55.5t-126.5 51t-193.5 63.5l-35 -12q-68 -27 -112.5 -66 t-63 -78.5t-18.5 -82.5zM434 1090q0 -55 42 -88t80 -52.5t120 -54.5l108 -39l54 -16l32 12q82 35 122 90t40 119q0 92 -86 142t-268 50q-31 0 -44 -3t-63.5 -18t-93.5 -50t-43 -92z" />
<glyph unicode="9" horiz-adv-x="1429" d="M80 956v31q4 20 15 108.5t168 203t394 114.5q96 0 262 -33.5t297.5 -201.5t131.5 -437v-84q-6 -37 -22.5 -169t-158 -287.5t-307.5 -189.5t-262 -34q-168 0 -292 63.5t-157.5 136.5t-33.5 118q0 68 42 117t111 59l45 4q84 0 132.5 -42t48.5 -107q0 -18 -11.5 -64.5 t-87.5 -77.5l-28 -8l45 -14q100 -31 180 -31q27 0 108.5 9.5t161.5 95.5t96.5 191t17.5 155.5t1 76.5l-37 -26q-145 -100 -332 -101h-30h-25q-16 4 -127 16.5t-228.5 127.5t-117.5 280zM420 961l6 -48q31 -184 135.5 -204.5t134.5 -20.5q119 0 192 77t73 204q0 14 -2.5 31.5 t-9.5 67.5t-62.5 111.5t-116.5 73t-92 11.5q-104 0 -171 -65.5t-83 -182.5z" />
<glyph unicode=":" horiz-adv-x="548" d="M96 135q0 74 53.5 127t135.5 53t136 -51t54 -121q0 -72 -57.5 -121t-134.5 -49q-80 0 -133.5 47t-53.5 115zM98 885q0 66 54.5 114t136.5 48q76 0 132 -47.5t56 -114.5q0 -68 -55 -115t-135 -47q-84 0 -136.5 48t-52.5 114z" />
<glyph unicode=";" horiz-adv-x="552" d="M96 -172l15 10l34 21q70 43 98.5 71.5t45.5 71.5l-33 -6q-76 0 -117 46t-41 105q0 68 53.5 119t124.5 51q80 0 142.5 -59t62.5 -149q0 -88 -71.5 -186.5t-210.5 -180.5l-37 -21zM100 885q0 68 52.5 116t138.5 48q76 0 132 -48.5t56 -115.5q0 -68 -56 -115t-134 -47 q-84 0 -136.5 48t-52.5 114z" />
<glyph unicode="&#x3c;" horiz-adv-x="1001" d="M70 737l862 480v-293l-369 -187l369 -186v-293z" />
<glyph unicode="=" horiz-adv-x="1425" d="M203 289v293h1020v-293h-1020zM203 696v293h1020v-293h-1020z" />
<glyph unicode="&#x3e;" horiz-adv-x="1001" d="M70 258v293l368 186l-368 187v293l862 -480z" />
<glyph unicode="?" horiz-adv-x="1114" d="M23 1094q0 43 23.5 135t185 176t407.5 84q211 0 335 -111.5t124 -265.5q0 -117 -67.5 -197.5t-276.5 -205.5l-31 -23q-63 -51 -91 -100t-28 -121v-39h-178q-4 37 -4 59q0 14 2 32t9 80t97 179l76 88l76 94q51 72 51 150q0 70 -46 126t-109.5 72.5t-110.5 16.5 q-14 0 -31.5 -2t-113 -15.5t-129.5 -152.5q41 29 90 29q29 0 67.5 -16.5t63 -53.5t24.5 -84q0 -61 -50 -116.5t-142 -55.5q-37 0 -86 13.5t-93 76t-44 148.5zM334 135q0 74 52 128t138 54q82 0 135.5 -52t53.5 -122q0 -76 -56.5 -122t-138.5 -46q-78 0 -131 47t-53 113z" />
<glyph unicode="@" horiz-adv-x="1626" d="M117 735q0 223 96 392t255 261.5t260 104.5t153 12q279 0 460 -177t181 -445q0 -76 -22.5 -187.5t-101.5 -220t-139.5 -134.5t-91 -32t-51.5 -6q-70 0 -117 37t-53 98v27l-41 -68q-70 -88 -172 -88q-47 0 -156.5 46t-109.5 343l8 70q18 125 72.5 221t133.5 152.5 t167 56.5q66 0 116 -31.5t70 -87.5l17 99h106l-74 -424l-26 -166l-6 -84q0 -96 82 -96q8 0 30.5 6t44 22.5t60.5 58.5t71.5 113.5t45 133t12.5 100.5q0 238 -141.5 388t-366.5 150q-25 0 -53.5 -3t-149.5 -20.5t-269.5 -197.5t-148.5 -432v-37q4 -25 4 -37q0 -57 14.5 -105 t69 -164t193.5 -208t307 -92q197 0 346.5 98.5t229.5 218.5l28 -120l-51 -60q-233 -252 -559 -252q-291 0 -495.5 185.5t-220 344t-16.5 182.5t-1 54zM602 598q0 -43 6 -69.5t30 -74.5t107 -48q55 0 84 29.5t49.5 67.5t38 85t28.5 88t18 82l6 37l12 69q2 14 3 42t3 48v25 q0 53 -37 88t-90 35q-33 0 -70.5 -16.5t-75.5 -65.5t-73 -150l-27 -98q-6 -37 -9 -82t-3 -92z" />
<glyph unicode="A" horiz-adv-x="1689" d="M-35 0v180h55h15l14 2q39 4 62.5 25.5t48.5 79.5l491 1188h410l471 -1188q25 -63 47.5 -82t77.5 -25h12h55v-180h-757v180h145q51 0 51 29q0 10 -2 16l-24 62l-78 194h-565l-80 -194q-8 -20 -15.5 -42t-7.5 -34q0 -31 53 -31h154v-180h-633zM567 666h422l-209 536z" />
<glyph unicode="B" horiz-adv-x="1685" d="M16 0v180h148h22q59 0 76 19.5t17 87.5l2 84v817q0 70 -15.5 88t-77.5 18h-22h-150v181h969q291 0 437.5 -88.5t146.5 -245.5q0 -43 -13.5 -105.5t-77 -130t-175.5 -114.5l-29 -11l33 -8q170 -41 261 -136t91 -226q0 -37 -8.5 -74t-16.5 -61.5t-40.5 -85t-132 -116 t-279.5 -69.5l-101 -4h-1065zM664 188h288q131 0 205 51.5t85 115t11 91.5q0 106 -80.5 167t-232.5 61h-276v-486zM664 858h286l47 2q180 27 193.5 123t13.5 111q0 202 -263 202h-3h-274v-438z" />
<glyph unicode="C" horiz-adv-x="1554" d="M49 729q0 78 30 247t198.5 333t310 186.5t192.5 24.5t56 2q125 0 231.5 -34t189.5 -102l50 -45l55 129h176v-563h-205l-6 54q-31 182 -144.5 275t-297.5 93q-186 0 -300 -146.5t-114 -410.5q0 -59 13.5 -191t100.5 -252t186 -147.5t161 -27.5q145 0 252.5 95t134.5 251 l6 65h209l-4 -84q-29 -238 -205 -378t-467 -140q-53 0 -239.5 17.5t-378 225.5t-191.5 523z" />
<glyph unicode="D" horiz-adv-x="1828" d="M16 1294v181h873q428 0 660.5 -186.5t232.5 -516.5q0 -84 -35 -269.5t-223.5 -342t-491.5 -156.5l-127 -4h-887v180h146q78 0 99.5 19.5t21.5 87.5v59v840q0 70 -14.5 88t-71.5 18l-25 2h-158zM668 182h235q213 0 321.5 110.5t125 250t16.5 167v42.5q0 45 -19.5 194.5 t-121 246.5t-322.5 97h-233z" />
<glyph unicode="E" horiz-adv-x="1675" d="M16 0v180h152h22q59 0 76 19.5t17 87.5v73v828q0 68 -15.5 87t-70.5 19h-23h-158v181h1608v-566h-197v90q0 160 -95 230.5t-316 70.5h-350v-444h157q96 0 138.5 42t42.5 144v48h180v-656h-176v58q0 182 -174 182h-168v-490h360l66 2q176 0 255.5 80t79.5 252l3 84h194 v-602h-1608z" />
<glyph unicode="F" horiz-adv-x="1597" d="M16 1294v181h1586v-568h-189l-2 78l-4 62q-25 141 -105.5 193t-281.5 52h-361v-448h132q117 0 166 41t49 143l2 55h172v-657h-168v51l-4 37q-12 86 -56.5 120t-146.5 34h-146v-381q0 -104 70 -105l37 -2h22h154v-180h-924v180h160h23q47 0 61 20.5t14 86.5v53v846 q0 70 -17 89t-81 19h-162z" />
<glyph unicode="G" horiz-adv-x="1794" d="M51 713q0 100 33 256.5t190.5 313.5t317.5 188.5t248 31.5q229 0 328 -70.5t130 -101.5l39 144h197v-566h-199q0 16 -6 37t-54 192t-384 171q-193 0 -303.5 -159t-110.5 -445q0 -47 8.5 -92.5t32 -122t73.5 -150.5t135 -127t200 -53q111 0 170 44t80.5 78.5t21.5 61.5 v129l-2 31q-4 45 -18.5 61.5t-49.5 16.5h-53h-31l-92 2v180l813 -6v-180h-116q-45 0 -64.5 -15.5t-23.5 -56.5l-2 -21v-14v-471h-173l-63 152l-45 -41q-94 -76 -195.5 -112t-236.5 -36q-78 0 -264.5 26.5t-358.5 229.5t-172 494z" />
<glyph unicode="H" horiz-adv-x="1978" d="M16 0v180h160h21q49 0 65.5 20.5t16.5 86.5v901q0 68 -12.5 85t-67.5 21h-21h-160v181h873v-181h-152q-76 0 -75 -45l-2 -63v-342h655v342l-2 55v8q-2 23 -19.5 34t-54.5 11h-154v181h875v-181h-160h-22q-51 -4 -65.5 -22.5t-14.5 -83.5v-901q0 -66 15.5 -86.5 t64.5 -20.5h22h160v-180h-870v180h135q59 0 74.5 17.5t15.5 89.5v377h-655v-377l2 -49v-13q4 -29 25.5 -37t45.5 -8h152v-180h-871z" />
<glyph unicode="I" d="M16 1294v181h910v-181h-156h-18l-29 -4q-39 -4 -48 -32.5t-9 -71.5l-2 -899q0 -70 13 -88.5t66 -18.5h23h160v-180h-908v180h152h23q55 0 71.5 20.5t16.5 86.5v69l2 830q0 68 -15.5 87t-70.5 19l-21 2h-160z" />
<glyph unicode="J" horiz-adv-x="1273" d="M-29 319q0 100 37 139.5t45 46.5t32 21.5t58.5 22.5t67.5 8q78 0 126 -50t48 -122v-33q-6 -16 -16.5 -44.5t-52.5 -60.5t-99 -32h-31q35 -35 76 -53.5t94 -18.5q150 0 214.5 64.5t64.5 222.5v756q0 59 -15.5 81.5t-58.5 22.5l-39 4h-22h-152v181h903v-181h-151l-17 -2 q-35 0 -47 -14t-16 -66v-26v-731q0 -246 -136 -372t-417 -126q-186 0 -303 60.5t-155 148.5t-38 153z" />
<glyph unicode="K" horiz-adv-x="1908" d="M16 0v180h172h19q43 4 56 23.5t13 83.5l5 51v850q0 63 -13.5 82.5t-56.5 23.5h-21h-174v181h856v-181h-151q-37 0 -47 -18.5t-10 -89.5v-432l516 434q27 20 39 34.5t18 26.5q6 16 -2 29.5t-27 15.5h-94h-84v181h819v-181h-145q-51 0 -107 -45l-75 -63l-330 -273l496 -626 l22 -27q43 -45 65.5 -61.5t51.5 -18.5h10h94v-180h-872v180h84l82 2l30 6q18 6 19 29q0 18 -10 37l-23 33l-338 393l-239 -207v-186q0 -70 12 -88.5t61 -18.5h25h125v-180h-871z" />
<glyph unicode="L" horiz-adv-x="1570" d="M16 0v180h156q63 0 80.5 19.5t17.5 87.5v94v807q0 68 -12 85t-65 21h-21h-156v181h899v-181h-151h-23q-53 0 -70.5 -21.5t-17.5 -84.5v-1002h221q266 0 364.5 72t98.5 264l2 88h203v-610h-1526z" />
<glyph unicode="M" horiz-adv-x="2306" d="M16 0v178h148h22h35q47 0 58 68l2 26v930q0 47 -27 70.5t-86 23.5h-41h-111v179h797l358 -992l340 992h779v-179h-164l-27 -2h-10q-47 -6 -47 -94v-926q0 -94 51 -94l16 -2h23h158v-178h-828v178h131q41 0 53.5 16.5t12.5 77.5v965l-412 -1237h-291l-432 1217v-945v-45 l2 -10q0 -39 58 -39h147v-178h-715z" />
<glyph unicode="N" horiz-adv-x="1896" d="M16 0v180h179q53 0 68.5 19.5t15.5 87.5v899q0 66 -13.5 85t-62.5 23h-17h-170v181h676l731 -1053v766l-2 29q0 41 -12 56t-43 19l-16 2h-162v181h692v-181h-160q-51 0 -65.5 -14t-14.5 -68l-2 -24v-1188h-360l-778 1122l2 -835q0 -70 14 -88.5t64 -18.5h161v-180h-725z " />
<glyph unicode="O" horiz-adv-x="1757" d="M51 750q0 348 221.5 561t606.5 213t606 -215t221 -566q0 -348 -221 -561t-606 -213t-606.5 213.5t-221.5 567.5zM455 750q0 -252 91 -406t189.5 -178.5t147.5 -24.5q180 0 300 160t120 449q0 283 -121 441.5t-301 158.5q-47 0 -144.5 -25t-189.5 -178t-92 -397z" />
<glyph unicode="P" horiz-adv-x="1626" d="M16 0v180h136h24q63 0 84 20.5t21 86.5v57v844q0 57 -13.5 77.5t-50.5 24.5l-33 4h-20h-146v181h1076q252 0 389 -104.5t137 -283.5q0 -166 -109.5 -279.5t-318.5 -139.5l-94 -6h-434v-375q0 -59 16 -82t65 -23l60 -2h14h152v-180h-955zM664 838h262q111 0 171 22.5 t102 79.5t42 135q0 76 -48 136.5t-102.5 72.5t-91 16.5t-90.5 4.5h-245v-467z" />
<glyph unicode="Q" horiz-adv-x="1769" d="M49 756q0 309 178.5 509.5t383 229.5t290.5 29q367 0 588 -217t221 -557q0 -190 -51 -316.5t-164 -218.5l12 -14q31 -37 58.5 -51.5t56.5 -14.5q102 0 123 123l2 27l2 65l156 -2v-86l-9 -104q-20 -133 -104 -210t-205 -77q-51 0 -103 14.5t-118 53t-117 108.5 q-119 -49 -196.5 -59.5t-115.5 -12.5t-69 -2q-315 0 -535 166t-252 344.5t-32 272.5zM461 750q0 -119 27.5 -210t86.5 -171l3 22q49 238 284 238q31 0 68 -4t91 -31t134 -94l45 -37l12 -10l13 22q41 68 58 133.5t17 141.5q0 279 -120.5 438.5t-298.5 159.5q-45 0 -140.5 -24 t-187.5 -178.5t-92 -395.5zM690 293q0 -33 14.5 -60.5t34.5 -48.5q18 -10 30.5 -14t40.5 -10t60 -6h3q111 0 196 73l-29 37q-76 94 -126 125t-113 31q-47 0 -79 -38t-32 -89z" />
<glyph unicode="R" horiz-adv-x="1798" d="M16 0v180h164h23q49 0 63.5 20.5t14.5 86.5v69v830q0 68 -18.5 88t-82.5 20h-164v181h938q301 0 442.5 -63.5t166 -145.5t28.5 -105.5t4 -50.5q0 -111 -72.5 -199t-207.5 -133l-55 -14l34 -10q123 -51 173.5 -133t50.5 -244q0 -59 2 -89t6 -49.5t18.5 -44t48.5 -24.5 q25 0 42.5 16.5t25.5 45t8 87.5v101h162v-131q0 -303 -334 -303q-186 0 -270 103.5t-84 356.5q0 125 -66.5 177.5t-218.5 52.5h-194l2 -389q0 -72 15 -89.5t81 -17.5h151v-180h-897zM664 848h323q113 0 166 59.5t58.5 100.5t5.5 52v15q0 219 -265 219h-288v-446z" />
<glyph unicode="S" horiz-adv-x="1486" d="M49 1063q0 59 31 161.5t179.5 194.5t373.5 92q94 0 195.5 -17t170 -46t142.5 -84l24 -18l54 129h176v-529h-185l-14 55q-53 152 -164.5 238t-271.5 86q-49 0 -93 -1t-96.5 -14.5t-89.5 -34t-64.5 -56t-27.5 -84.5q0 -86 51.5 -115t77 -38t92.5 -26l56 -14l102 -22l63 -13 q123 -25 189.5 -39t170 -51t183.5 -141.5t80 -253.5q0 -195 -143.5 -316.5t-405.5 -121.5h-45q-78 0 -184.5 15t-205.5 52t-187 103l-52 -150h-176v569h193l12 -55q31 -96 93.5 -169t143.5 -117t171 -62t157 -18q139 0 217 59t78 147q-2 14 -2 21q-8 74 -67.5 115t-227.5 84 l-45 10l-45 8l-151 29q-266 47 -399.5 161.5t-133.5 276.5z" />
<glyph unicode="T" horiz-adv-x="1632" d="M16 897v578h1598v-576h-189l-2 76q0 31 -22.5 120t-93 142t-199.5 53l-98 -2v-1001q0 -61 12 -83t49 -22l33 -2h22h152v-180h-938v180h152h26q63 0 84 20.5t21 86.5l4 67v936l-109 -2q-268 0 -288.5 -143.5t-20.5 -179.5l-2 -68h-191z" />
<glyph unicode="U" horiz-adv-x="1796" d="M12 1294v181h838v-181h-125l-20 -2q-49 0 -64.5 -21.5t-15.5 -82.5v-647l2 -39q0 -193 83 -274t269 -81q336 0 336 342l2 62v637q0 70 -12.5 88t-59.5 18h-151v181h690v-181h-146h-18q-39 -4 -52.5 -25.5t-13.5 -80.5v-631q0 -311 -162.5 -453.5t-517.5 -142.5 q-348 0 -490 138.5t-142 443.5v645l-2 31q-4 45 -16.5 58t-51.5 17h-14h-146z" />
<glyph unicode="V" horiz-adv-x="1589" d="M-51 1294v181h784v-181h-153q-57 0 -58 -32q0 -20 23 -76l323 -828l330 830q20 49 21 74q0 32 -60 32h-4h-151v181h636v-181h-71q-45 0 -64.5 -15t-46.5 -73l-8 -18l-492 -1188h-342l-477 1188q-16 39 -24.5 53t-28.5 33.5t-68 19.5h-69z" />
<glyph unicode="W" horiz-adv-x="2445" d="M-39 1294v181h750v-181h-111q-74 0 -74 -49q0 -23 13 -57l282 -830l285 828q14 41 14 65q0 43 -73 43h-136v181h762v-181h-123h-8l-14 -2q-37 -10 -37 -43q0 -20 12 -61l271 -821l278 821q18 55 19 76q0 30 -54 30h-4h-135v181h606v-181h-51h-14l-17 -2q-37 -4 -56 -24.5 t-42 -79.5l-434 -1188h-357l-290 852l-287 -852h-373l-409 1188l-15 31q-35 66 -92 73l-10 2h-8h-68z" />
<glyph unicode="X" horiz-adv-x="1794" d="M0 0v180h96q59 0 88 16.5t99 90.5l405 440l-385 461q-37 43 -64.5 65.5t-44 29.5t-29.5 9t-22 2h-112v181h858v-181h-90h-13l-22 -2q-35 -5 -35 -30q0 -6 2 -13q2 -8 8 -18t31 -43l174 -240l213 240q47 51 53.5 64.5t6.5 17.5q0 16 -21 22l-39 2h-96v181h663v-181h-92 q-51 0 -88 -16l-43 -29l-57 -61l-338 -371l444 -530l27 -31q45 -47 74.5 -61.5t79.5 -14.5h63v-180h-868v180h118q49 0 72 11.5t23 29.5q0 23 -37 66l-250 309l-279 -309q-33 -39 -36 -62q-8 -37 34 -43l50 -2h100v-180h-721z" />
<glyph unicode="Y" horiz-adv-x="1519" d="M-51 1294v181h821v-181h-100l-54 -2q-29 -2 -28 -30q0 -16 10 -35l23 -39l231 -357l223 357l19 35q14 27 14 43q0 23 -35 28h-12h-113v181h623v-181h-53h-15h-14q-37 0 -58.5 -14t-60.5 -63l-20 -29l-398 -580v-321q0 -68 16.5 -87.5t78.5 -19.5h22h152v-180h-918v180 h154h20l35 2q37 0 51.5 22.5t14.5 82.5v65v246l-396 590q-43 63 -64.5 80.5t-66.5 23.5l-22 2h-80z" />
<glyph unicode="Z" horiz-adv-x="1476" d="M16 0v223l953 1067h-318l-59 -2q-174 0 -245 -64.5t-71 -219.5l-4 -95h-194v566h1349v-207l-976 -1088h454q332 0 332 314l2 75h197v-569h-1420z" />
<glyph unicode="[" horiz-adv-x="548" d="M80 -264v2003l469 2v-254l-141 6v-1511l141 6v-254z" />
<glyph unicode="\" horiz-adv-x="655" d="M70 1475h258l258 -1475h-258z" />
<glyph unicode="]" horiz-adv-x="548" d="M0 -12l141 -6v1511l-141 -6v254l469 -2v-2003l-469 -2v254z" />
<glyph unicode="^" horiz-adv-x="1099" d="M70 317l479 863l481 -863h-293l-188 369l-187 -369h-292z" />
<glyph unicode="_" horiz-adv-x="876" d="M70 0h737v-82h-737v82z" />
<glyph unicode="`" horiz-adv-x="518" d="M2 1393l129 153l320 -315l-84 -96z" />
<glyph unicode="a" horiz-adv-x="1363" d="M25 254q0 199 272 268l172 33l61 14q115 29 166.5 68t51.5 98q0 8 -1.5 21.5t-10.5 48.5t-54 64.5t-95 36.5t-79 7h-27q-110 0 -184 -45q84 -31 84 -118q0 -57 -43 -96.5t-109 -39.5q-14 2 -20 2q-63 6 -104.5 49.5t-41.5 102.5q0 23 23 90.5t168 125.5t414 58 q20 0 40.5 -3t115 -16t173 -93t78.5 -215v-412v-35v-32q0 -25 7.5 -41.5t20.5 -26.5t32 -10q25 0 36 20l13 41l8 88v37l2 33h131v-39q0 -199 -56.5 -282t-193.5 -83q-229 0 -297 138l-12 30q-45 -68 -122 -109.5t-162 -53t-128 -11.5q-141 0 -225 61.5t-93 122t-10 78 t-1 25.5zM360 285q0 -27 12.5 -59.5t49.5 -55.5t90 -23q23 0 48.5 4.5t72.5 29t76.5 81.5t29.5 154v90q-43 -23 -71.5 -34t-92.5 -30l-47 -16q-90 -29 -129 -61.5t-39 -79.5z" />
<glyph unicode="b" horiz-adv-x="1423" d="M10 1311v164h522v-555l33 26q109 82 197 94.5t127 12.5q211 0 347 -147.5t136 -387.5v-33q0 -14 -2 -31.5t-9 -101.5t-116.5 -210t-225.5 -149.5t-169 -23.5q-199 0 -350 140l-33 34l-66 -143h-202v1210q0 61 -15.5 81t-58.5 20h-115zM522 500l4 -64q10 -123 56.5 -193.5 t104.5 -87t89 -16.5q104 0 175 95.5t71 271.5q0 154 -53.5 247t-110.5 107t-94 14q-109 0 -175.5 -96t-66.5 -278z" />
<glyph unicode="c" horiz-adv-x="1148" d="M49 492q0 66 25.5 188.5t156.5 234t239 123t127 12.5t46 1q168 0 287 -66.5t153.5 -149.5t34.5 -130q0 -80 -50 -134.5t-130 -54.5q-86 0 -143.5 46t-57.5 110q0 59 49 102l35 25q27 16 64 22q-66 70 -183 70q-63 0 -138 -28.5t-119 -120t-44 -253.5q0 -152 60.5 -239.5 t129 -103t105.5 -15.5q193 0 242 225l4 35h178l-6 -61q-27 -172 -150.5 -269.5t-326.5 -97.5q-20 0 -44 2t-150 13.5t-260 152.5t-134 361z" />
<glyph unicode="d" horiz-adv-x="1425" d="M49 500q0 63 22.5 193t156.5 246t313 116q66 0 160 -25.5t182 -111.5v292q0 59 -20.5 80t-84.5 21h-106v164h545v-1211q0 -57 18 -77.5t72 -20.5h102v-166h-518v135l-31 -33q-139 -125 -317 -125q-53 0 -172 27t-220.5 161t-101.5 335zM401 524l2 -67q12 -143 78 -219 t164 -76q12 0 24.5 1t47.5 9q86 27 131 112t45 242q0 133 -47 217t-106.5 104.5t-100.5 20.5q-90 0 -153.5 -73.5t-79.5 -212.5z" />
<glyph unicode="e" horiz-adv-x="1202" d="M51 506q0 238 160 391.5t418 153.5q233 0 383.5 -136.5t150.5 -357.5v-82h-778v-47q0 -115 58.5 -188.5t125 -90t107.5 -16.5q90 0 158.5 52.5t97.5 148.5l6 28h213q-27 -174 -166 -282.5t-350 -108.5h-72q-33 6 -146.5 21.5t-239.5 159t-126 354.5zM391 625h451v30 q0 109 -60.5 173.5t-150.5 64.5q-31 0 -80 -13.5t-95 -71.5t-61 -142z" />
<glyph unicode="f" horiz-adv-x="858" d="M20 0v166h107q55 0 72.5 19.5t17.5 78.5v586h-194v170h194v129q0 272 177 318t280 46q154 0 254 -62t107 -111.5t7 -71.5q0 -129 -76.5 -148.5t-105.5 -19.5q-68 0 -115 37q-47 41 -47 100q0 70 58 102l37 15l-31 12q-35 14 -72 14q-66 0 -105.5 -48t-39.5 -132l-2 -35 v-145h274v-170h-264v-584q0 -61 21.5 -80.5t95.5 -19.5h26h109v-166h-785z" />
<glyph unicode="g" horiz-adv-x="1372" d="M18 -258q0 102 58.5 137t81.5 46.5t39 17.5l-35 16q-53 35 -81 78t-28 94q0 96 74 150.5t117 74.5l-31 25q-57 55 -87 126t-30 144q0 90 42 170t152.5 154t313.5 74q84 0 161 -16.5t135 -41t110 -59.5l18 24q61 78 119.5 91.5t93.5 13.5q66 0 117 -31t70.5 -76t19.5 -86 q0 -59 -37 -102t-92 -43q-57 0 -94 35t-37 88q0 27 6 43t10 25.5t15 21.5q-16 4 -23 4q-43 0 -67.5 -39t-24.5 -59q0 -12 6 -35l4 -19l8 -32q12 -55 13 -107q0 -88 -45.5 -175t-137.5 -141t-245 -71h-156q-33 0 -66.5 5t-76.5 16l-15 4l-35 8q-20 4 -24 4q-25 0 -42.5 -25.5 t-17.5 -44.5q0 -53 51.5 -68.5t78 -19.5t79.5 -4h49l144 4h78q154 0 233.5 -12t148 -44t110.5 -99.5t42 -143.5q0 -86 -60.5 -168t-221 -127t-449.5 -45q-43 0 -81 2t-132 16.5t-151.5 34t-116 65.5t-58.5 122zM279 -223q6 -39 49 -66.5t113.5 -42t167 -16.5t118.5 -2 l129 14q100 18 138 47t38 72q0 45 -39 67.5t-137 32.5l-37 4l-143 4l-144 5q-115 0 -151.5 -4.5t-74.5 -33.5q-29 -22 -29 -60q0 -10 2 -21zM403 643q0 -106 43 -163.5t91.5 -67t57.5 -10.5t26 -1q23 0 70.5 9.5t91.5 68t44 164.5v31q-4 23 -8 74t-59 105t-135 54 q-20 0 -121 -24.5t-101 -239.5z" />
<glyph unicode="h" horiz-adv-x="1488" d="M16 0v164h105q55 0 73.5 20.5t18.5 79.5l2 70v876v45q-4 25 -15.5 35t-26.5 14.5t-44 4.5h-111v166h533v-588q88 98 190.5 130t180.5 32q37 0 210 -29t173 -342v-412v-22l2 -27q0 -53 47 -53h119v-164h-658v164h109q47 0 47 51v8v41v373q0 217 -164 217q-33 0 -86 -16.5 t-95 -60.5t-58.5 -88t-16.5 -109v-316v-10v-39q0 -51 41 -51h106v-164h-682z" />
<glyph unicode="i" horiz-adv-x="753" d="M29 0v164h106q53 0 71.5 20.5t18.5 79.5v74v414l-2 39v10l-6 16q-10 18 -25.5 26.5t-48.5 8.5h-108v168h524v-756v-37l2 -12q6 -51 70 -51h106v-164h-708zM184 1323q0 72 52.5 128t134.5 56q86 0 146.5 -49t60.5 -127q0 -72 -57.5 -124t-139.5 -52q-86 0 -141.5 49 t-55.5 119z" />
<glyph unicode="j" horiz-adv-x="741" d="M-174 -229q0 70 43 119t119 49q12 2 16 2q111 0 133.5 -59.5t22.5 -86.5q0 -63 -54 -106l-26 -19q24 -12 49 -12q9 0 18 2q117 16 117 139l2 33v35v878q0 59 -20.5 80t-79.5 21h-109v174h545v-1083q0 -172 -65.5 -265.5t-159.5 -119t-133 -29.5t-80 -4q-125 0 -211 51 t-106.5 108.5t-20.5 92.5zM227 1323q0 74 51.5 129t135.5 55q82 0 147 -49q59 -49 60 -127q0 -72 -57.5 -124t-139.5 -52q-86 0 -141.5 49t-55.5 119z" />
<glyph unicode="k" horiz-adv-x="1482" d="M16 1309v166h533v-940l282 215q39 29 51.5 42t12.5 25q0 25 -35 31h-41h-65v172h655v-170h-109q-51 0 -110 -35l-25 -16l-18 -15l-45 -34l-115 -91l297 -395l27 -33l12 -16l14 -14q35 -35 66 -35h108v-166h-702v164h25q39 0 57 4t18 27q0 10 -6 20l-31 49l-143 195 l-184 -137v-66l2 -41q0 -41 43 -47l24 -2l13 -2h71v-164h-680v164h101q53 0 69.5 15.5t20.5 31.5t4 53v86v860v41v9q-4 18 -19.5 33.5t-68.5 15.5h-109z" />
<glyph unicode="l" horiz-adv-x="751" d="M16 0v164h101q59 0 77.5 18.5t18.5 81.5v76v870q0 61 -17.5 81t-74.5 20h-105v164h531v-1211q0 -59 16.5 -79.5t67.5 -20.5h102v-164h-717z" />
<glyph unicode="m" horiz-adv-x="2215" d="M29 0v164h106q55 0 75.5 20.5t20.5 81.5l2 51v437q0 61 -17 80.5t-73 19.5h-106v166h522v-141q82 98 163 125.5t121 35t85 7.5q113 0 206 -50.5t142 -136.5l35 43q68 74 159 111t187 37q39 0 136 -21.5t161.5 -111t64.5 -273.5v-379q0 -57 14.5 -79.5t53.5 -22.5h113 v-164h-656v166h74h20q39 8 45 53l3 25v22v371l-7 76q-10 61 -53 98t-106 37q-47 0 -137.5 -47t-90.5 -195v-340v-8l2 -41q0 -45 37 -51h10l11 -2h80v-164h-615v166l76 -2h12l10 2q41 6 41 51v29l2 20v377q0 25 -3 47.5t-10 54t-53 66.5t-104 35q-43 0 -86 -22.5t-89 -78 t-46 -170.5v-309v-12l2 -37q0 -53 56 -53h82v-164h-678z" />
<glyph unicode="n" horiz-adv-x="1497" d="M29 0v164h114q49 0 64.5 19.5t15.5 80.5v51v437v36l-2 11q0 51 -71 51h-121v170h520v-146q111 133 233.5 150.5t180.5 17.5q184 0 266 -103t82 -321v-354l2 -20v-29q0 -51 59 -51h109v-164h-647v164h71h15q29 0 41 16.5t16 65.5v18v346v37q0 18 -5 64.5t-54.5 89.5 t-118.5 43q-49 0 -145.5 -45t-96.5 -232v-303v-26l2 -23q0 -49 53 -49l19 -2h80v-164h-682z" />
<glyph unicode="o" horiz-adv-x="1316" d="M51 512q0 236 163 385.5t437 149.5q55 0 183.5 -15.5t258.5 -127t151.5 -226.5t21.5 -176q0 -211 -135.5 -355.5t-279.5 -161t-200 -16.5q-276 0 -438 151.5t-162 391.5zM399 512l4 -82q14 -152 81 -227.5t173 -75.5q117 0 190 93t73 276q0 45 -11.5 143t-78 173 t-173.5 75l-45 -4q-88 -16 -141 -88t-68 -205z" />
<glyph unicode="p" horiz-adv-x="1419" d="M16 -281h105q53 0 70.5 19.5t17.5 81.5v934l-2 39v12q-6 49 -80 49h-111v166h519v-137q102 131 214.5 148.5t151.5 17.5q201 0 334 -143.5t133 -377.5q0 -248 -136 -397t-353 -149h-37q-14 2 -23 2q-125 12 -241 94l-35 26v-284q0 -61 21.5 -81t88.5 -20h99v-168h-736 v168zM535 506q0 -154 46 -237t106.5 -96t96.5 -13q160 0 201 130t41 228l-2 64q-12 139 -76.5 213.5t-161.5 74.5q-29 0 -93 -18t-111 -103t-47 -243z" />
<glyph unicode="q" horiz-adv-x="1419" d="M51 492q0 20 1 40.5t20.5 147.5t161 245.5t333.5 118.5q23 0 46.5 -3t106.5 -15t191 -111l37 -36l62 141h217v-1208v-27l2 -23q0 -53 82 -53h92v-158h-713v154h45h41h25l26 4q41 10 53.5 26.5t12.5 63.5v301q-113 -106 -214 -121.5t-144 -15.5q-211 0 -347.5 146.5 t-136.5 382.5zM403 496q0 -147 63.5 -241.5t184.5 -94.5t177.5 82t63.5 151.5t8 85t1 25.5v33q-4 20 -7 60t-16.5 85t-43 86t-78.5 65.5t-105 24.5q-90 0 -140 -51t-73.5 -110.5t-31.5 -137.5z" />
<glyph unicode="r" horiz-adv-x="1011" d="M16 848v172h529v-150l26 41q104 143 256 144q16 0 95 -14.5t108 -87t29 -115.5q0 -63 -35 -110.5t-74 -56.5t-61 -9q-57 0 -101.5 32.5t-50.5 70.5t-6 48q0 55 41 96q-119 0 -172 -108.5t-53 -206.5v-330q0 -61 21.5 -80.5t90.5 -19.5h109v-164h-750v164h103 q53 0 72.5 21.5t19.5 78.5v74v412q0 59 -19.5 78.5t-74.5 19.5h-103z" />
<glyph unicode="s" horiz-adv-x="1175" d="M55 719q0 74 36 140.5t133.5 129t285.5 62.5q68 0 174.5 -18.5t210.5 -92.5l37 86h141v-352h-151l-19 37q-37 66 -82 103.5t-95 54t-94 20.5t-83 4q-88 0 -132 -33t-44 -78q0 -39 35.5 -62.5t134.5 -45.5l37 -8l112 -21q145 -25 220 -53.5t144.5 -90t69.5 -188.5 q0 -139 -85 -209.5t-179 -100.5t-203 -30q-63 0 -138 12.5t-139.5 38t-127.5 70.5l-39 -94h-147v379h151l14 -31q92 -168 205 -189.5t137.5 -23.5t45.5 -2q47 0 89 14.5t71.5 37t29.5 67.5q0 41 -26.5 62.5t-65.5 34.5t-119 30l-51 10q-86 14 -131 24.5t-98.5 26t-95.5 35 t-105.5 69.5t-63.5 175z" />
<glyph unicode="t" horiz-adv-x="907" d="M10 856v160q47 0 168 29.5t156 287.5l4 62h186v-375h334v-168h-334v-500v-33v-40q0 -61 24.5 -94t67.5 -33q53 0 85 37.5t32 125.5l2 29v92h158v-133q0 -326 -350 -326q-188 0 -270.5 95.5t-82.5 310.5v473h-180z" />
<glyph unicode="u" horiz-adv-x="1468" d="M16 854v166h508v-619q0 -55 7.5 -103t54.5 -87t112 -39q55 0 104.5 24.5t84.5 65.5t46 81t11 116v291q0 59 -16.5 79.5t-67.5 20.5h-106v170h524v-756q0 -61 15.5 -80.5t60.5 -19.5h98v-164h-500v141l-24 -26q-115 -121 -217.5 -129.5t-126 -10.5t-35.5 -2 q-190 0 -274.5 102.5t-84.5 325.5v353v43l-4 22q-10 35 -49 35h-121z" />
<glyph unicode="v" horiz-adv-x="1212" d="M-51 850v170h678v-168h-107q-69 0 -69 -42q0 -7 4 -24l14 -34l215 -484l197 486q16 43 16 59q0 31 -33 37l-10 2h-8h-76v168h494v-168h-78h-10l-11 -2q-20 -4 -33.5 -19.5t-33.5 -54.5l-11 -22l-321 -754h-305l-340 750q-25 49 -43.5 68.5t-29.5 25.5t-40 6h-59z" />
<glyph unicode="w" horiz-adv-x="1906" d="M-29 854v166h621v-166h-39l-27 -2q-49 -6 -49 -39q0 -10 5 -27.5t10 -31.5l161 -451l166 453q10 31 10 47q0 49 -61 49l-25 2h-26v166h637v-166l-29 -2h-31q-71 0 -71 -48q0 -17 10 -48l168 -449l176 447q14 35 14 57q0 33 -43 39l-16 2l-12 2h-41v166h456v-168h-32 l-25 -2q-66 0 -100 -74l-11 -22l-290 -754h-297l-226 575l-231 -575h-285l-297 754q-23 59 -45 79.5t-69 20.5h-13h-43z" />
<glyph unicode="x" horiz-adv-x="1376" d="M-12 0v164h61q57 0 115 33l26 16l9 8l49 43l252 225l-267 263l-49 49q-43 43 -96 49l-12 2h-8h-45v168h673v-168h-16l-35 -2h-14q-31 -4 -27 -33q2 -8 14.5 -23.5t36.5 -41.5l105 -111l112 111l31 30l19 19l10 18q8 25 -19 31h-10l-6 2h-51v168h504v-170h-37 q-41 0 -64.5 -8t-66.5 -41l-58 -49l-241 -209l288 -279l17 -14l37 -35q37 -31 56 -41t50 -10h58v-164h-695v164h35l14 2h17q20 2 30.5 17.5t0.5 31.5q-8 16 -41 49l-119 125l-127 -125l-43 -49q-8 -12 -8 -20q0 -18 18 -27l18 -4h39v-164h-540z" />
<glyph unicode="y" horiz-adv-x="1298" d="M-41 -221q0 78 46 136t89 65.5t66 7.5q70 0 118 -44t48 -108q0 -14 -7.5 -64.5t-105.5 -80.5l-27 -4q35 -33 88 -33q51 0 100.5 33.5t90.5 103.5l16 29l17 30l53 109l-397 795l-13 24l-12 23q-25 41 -68 47l-12 2h-16h-70v170h715v-164h-109l-26 -2q-37 0 -37 -33 q0 -12 10 -39l12 -26l213 -437l222 437l12 26l10 23q4 6 4 18q0 33 -61 33h-107v164h516v-164l-16 -2l-51 -2q-37 -6 -66 -51l-18 -29l-10 -20l-471 -893l-35 -64q-47 -78 -88 -127t-114 -103t-202 -54q-100 0 -181 49t-103.5 113.5t-22.5 105.5z" />
<glyph unicode="z" horiz-adv-x="1122" d="M39 0v205l618 647h-200q-240 0 -240 -178v-66h-156v412h1016v-182l-647 -668h215q145 0 206.5 49t61.5 168v72h162v-459h-1036z" />
<glyph unicode="{" horiz-adv-x="724" d="M70 737q59 0 97 42t38 106v645q0 88 51 139t141 51h258v-153h-26q-66 0 -90.5 -22.5t-24.5 -82.5v-540q0 -55 -32.5 -102.5t-86.5 -69.5l-55 -13l55 -12q119 -51 119 -172v-541q0 -57 25.5 -80.5t89.5 -23.5h26v-154h-258q-92 0 -142 50.5t-50 140.5v645q0 63 -38 105 t-97 42z" />
<glyph unicode="|" horiz-adv-x="397" d="M70 0v1475h258v-1475h-258z" />
<glyph unicode="}" horiz-adv-x="724" d="M70 -92h26q66 0 90.5 22.5t24.5 81.5v541q0 55 32.5 102t86.5 70l55 12l-55 13q-119 51 -119 172v540q0 57 -25.5 81t-89.5 24h-26v153h258q92 0 142 -50t50 -140v-645q0 -63 38 -105.5t97 -42.5q-59 0 -97 -42t-38 -105v-645q0 -88 -51 -139.5t-141 -51.5h-258v154z" />
<glyph unicode="~" horiz-adv-x="1036" d="M70 555l2 51q14 160 80.5 241t175.5 81q31 0 58.5 -6.5t70.5 -20.5l170 -65l47 -17q18 -6 33 -6q39 0 53 42t14 56l2 19h191l-2 -51q-29 -319 -254 -320q-55 0 -131 27l-170 63l-48 17q-16 8 -34 8q-35 0 -50.5 -41t-15.5 -58l-2 -20h-190z" />
<glyph unicode="&#xa1;" horiz-adv-x="567" d="M96 254q0 37 2 56.5t13 74.5l30 125q27 106 44.5 207.5t17.5 195.5l4 103h176l4 -103q0 -98 13.5 -182t48.5 -221l24 -109l4 -16q2 -10 9.5 -45t7.5 -84l-5 -61q-10 -76 -34.5 -121t-66.5 -72t-93 -27t-94 27t-66.5 72t-31 101t-7.5 79zM109 1325q0 66 53 113t135 47 q76 0 133 -48t57 -122q0 -68 -55 -120t-135 -52q-84 0 -136 54t-52 128z" />
<glyph unicode="&#xa2;" horiz-adv-x="1148" d="M51 485q0 76 19.5 173.5t98.5 190.5t182 139t222 46v150h107v-146l70 -8l71 -8l8 -2q45 -10 98.5 -38t98.5 -75t68.5 -103t23.5 -104q0 -80 -50 -134t-130 -54q-86 0 -143.5 46t-57.5 110q0 59 49 102l35 25q27 16 64 22q-33 33 -70 50.5t-84 17.5q-37 0 -53 -4v-754 l57 2q84 14 132 66.5t71 154.5l4 35h178l-6 -61q-49 -311 -403 -363l-35 -4v-143h-109v147l-53 6q-219 35 -341 173.5t-122 344.5zM408 461q6 -27 10 -58.5t31.5 -95t54 -96.5t65.5 -49l-2 676q-72 -33 -115.5 -114t-43.5 -202v-61z" />
<glyph unicode="&#xa3;" horiz-adv-x="1304" d="M51 240q0 94 69.5 165.5t174.5 71.5q61 0 129 -24l20 -9q0 51 -12 85t-59 114l-17 27l-286 -6v180l182 -2l-4 14l-19 37q-33 80 -38 118t-5 64q0 168 144.5 293t380.5 125q213 0 349 -107.5t136 -265.5v-47l-291 -29l-4 25q-20 174 -160 197q-20 2 -30 2t-82 -13.5 t-72 -138.5q0 -43 23 -104l12 -31l14 -31l25 -53l24 -53l314 4v-180h-260l12 -52q12 -61 12 -120q0 -37 -6 -78t-16 -78l14 -10l23 -13q72 -41 122 -41q12 0 37 5q96 25 115 133l2 30l229 -57q0 -25 -6 -50.5t-29.5 -108.5t-114.5 -163.5t-210 -80.5q-111 0 -219 69l-35 25 l-21 16l-22 19q-33 -43 -76 -71t-84 -44t-76 -16q-86 0 -156.5 29.5t-99 72.5t-41 83t-12.5 73zM233 236q0 -12 6.5 -47t79.5 -35q33 0 69 22.5t56 71.5l7 20q-25 25 -52.5 36t-43 14.5t-31.5 3.5q-90 0 -91 -86z" />
<glyph unicode="&#xa4;" d="M70 428l112 113q-59 94 -59 200t59 201l-108 109q16 25 34.5 45t45.5 45l116 -117q49 33 100.5 49.5t104.5 16.5q109 0 197 -64l114 117l27 -21q35 -31 59 -71l-110 -107q63 -88 63 -207q0 -106 -67 -200l112 -113l-18 -21l-18 -20l-48 -47l-114 115q-84 -63 -199 -64 q-37 0 -55.5 2t-48.5 14q-51 14 -95 50l-120 -115l-21 20l-20 23l-23 22zM244 737q0 -94 67.5 -161.5t163.5 -67.5q94 0 162 67.5t68 161.5q0 96 -67 163t-163 67t-163.5 -66t-67.5 -164z" />
<glyph unicode="&#xa5;" horiz-adv-x="1679" d="M29 1294v181h821v-181h-100l-54 -2q-29 -2 -28 -30q0 -16 10 -35l22 -39l232 -357l223 357l19 35q14 27 14 43q0 23 -35 28h-12h-113v181h623v-181h-54h-14h-14q-37 0 -59.5 -14t-61.5 -66l-18 -26l-285 -428h459v-127h-549l-23 -31l2 -55l568 2v-121l-568 -4l-2 -137 q0 -53 10.5 -80t83.5 -27h23h151v-180h-917v180h154h20l35 2q37 0 51 22.5t14 82.5v65l-2 78h-577l-2 123h586l-5 45l-28 41h-551v127h467l-283 422q-43 63 -64.5 80.5t-66.5 23.5l-22 2h-80z" />
<glyph unicode="&#xa6;" horiz-adv-x="397" d="M70 -213v634h258v-634h-258zM70 578v634h258v-634h-258z" />
<glyph unicode="&#xa7;" horiz-adv-x="1267" d="M49 571q0 76 28.5 143.5t92.5 133.5l55 47q-55 43 -84.5 106.5t-29.5 135.5t28.5 135t86 112.5t136 79t142 35.5t84 7t49.5 1q199 0 332 -78.5t171 -180t38 -163.5h-306l-4 29q-35 143 -124 162.5t-117 19.5q-45 0 -104.5 -26.5t-59.5 -93.5q0 -41 33 -74q29 -25 98 -58 l336 -137q68 -27 177.5 -109.5t109.5 -271.5q0 -162 -123 -278l-52 -43q113 -78 113 -223q0 -25 -6 -56.5t-22.5 -97.5t-112.5 -138.5t-216 -88t-190 -15.5q-197 0 -331 82t-166.5 182.5t-32.5 176.5l307 -2l2 -33q10 -80 60.5 -130t98.5 -58.5t60 -8.5h27q109 0 139.5 47 t30.5 84q0 59 -49 88l-62 33l-356 148q-137 57 -212 158.5t-75 217.5zM371 606q0 -92 102 -133l348 -145l21 18q57 63 57 127q0 102 -129 158l-311 137l-19 -16q-33 -33 -51 -73t-18 -73z" />
<glyph unicode="&#xa8;" horiz-adv-x="722" d="M-4 1305q0 66 47 110.5t115 44.5q70 0 118 -48t48 -116t-48.5 -114.5t-117.5 -46.5q-72 0 -117 49t-45 121zM401 1298q0 68 47.5 115t116.5 47q63 0 112.5 -47t49.5 -117q0 -63 -45 -112t-115 -49q-68 0 -117 46.5t-49 116.5z" />
<glyph unicode="&#xa9;" horiz-adv-x="1785" d="M119 741q0 152 59.5 295.5t169 253t252.5 168t293 58.5q156 0 295 -57.5t250.5 -169t170 -255t58.5 -293.5q0 -156 -57.5 -295t-169 -250.5t-254 -170t-293.5 -58.5q-156 0 -294 56.5t-309 227.5t-171 490zM250 741q0 -131 49 -249.5t142.5 -213t209 -142.5t242.5 -48 t243.5 48t210 142.5t141.5 213t48 249.5q0 268 -140.5 412.5t-258 193t-244.5 48.5t-242.5 -48.5t-258 -191t-142.5 -414.5zM489 733v36.5t15.5 93.5t98.5 158t162 95t112 14q119 0 194 -69l14 -12l-2 73h136v-135t2 -133h-148l-4 18q-25 78 -81 102.5t-95 24.5 q-68 0 -118 -54t-55 -110.5t-6 -78t-1 -31.5q0 -121 48 -183.5t132 -62.5q25 0 94.5 17.5t93.5 140.5l4 27l160 -39q-10 -119 -109.5 -200t-250.5 -81h-25q-12 0 -101 13.5t-179.5 119t-90.5 256.5z" />
<glyph unicode="&#xaa;" horiz-adv-x="937" d="M70 506v176h798v-176h-798zM74 995q0 96 75.5 162t196.5 66q55 0 113 -15l33 -8l22 -8l21 -8v59q0 106 -101 121h-49q-74 -12 -98 -68l-6 -14l-201 21q25 94 115 147t247 53l68 -4q143 -14 204.5 -74.5t61.5 -179.5v-297l92 4v-170l-82 2q-61 0 -124.5 -1t-126.5 -1v64 l-23 -15q-27 -16 -47.5 -25t-47 -18.5t-55 -13.5t-53.5 -4q-104 0 -169.5 63.5t-65.5 161.5zM311 997q0 -43 27 -67.5t70 -24.5q27 0 55 13l57 34l15 13v96l-17 8l-57 25q-25 6 -45 6q-47 0 -76 -29t-29 -74z" />
<glyph unicode="&#xab;" horiz-adv-x="868" d="M29 567l358 580h109l-193 -574l199 -573h-101zM367 567l358 580h109l-193 -574l199 -573h-101z" />
<glyph unicode="&#xac;" horiz-adv-x="1269" d="M70 737v258h1130v-553h-196v295h-934z" />
<glyph unicode="&#xad;" horiz-adv-x="624" d="M16 387v264h592v-264h-592z" />
<glyph unicode="&#xae;" horiz-adv-x="1785" d="M119 741q0 152 59.5 295.5t169 253t252.5 168t293 58.5q156 0 295 -57.5t250.5 -169t170 -255t58.5 -293.5q0 -156 -57.5 -295t-169 -250.5t-254 -170t-293.5 -58.5q-156 0 -294 56.5t-309 227.5t-171 490zM250 741q0 -131 49 -249.5t142.5 -213t209 -142.5t242.5 -48 t243.5 48t210 142.5t141.5 213t48 249.5q0 268 -140.5 412.5t-258 193t-244.5 48.5t-242.5 -48.5t-258 -191t-142.5 -414.5zM535 358v134l77 -3v498l-77 -2v133l182 -4l61 2l144 2q154 0 230.5 -55t76.5 -160q0 -121 -107 -176l-22 -10l127 -228l69 3v-134l-55 2h-55 l-119 -2l-160 328h-88v-197l76 3v-134l-176 4zM819 807l21 -2h43q113 0 121 40t8 58q0 86 -127 86h-43l-23 -2v-180z" />
<glyph unicode="&#xaf;" horiz-adv-x="737" d="M0 1165v201h737v-201h-737z" />
<glyph unicode="&#xb0;" horiz-adv-x="718" d="M70 1214q0 117 84 205q88 84 206 84q117 0 205 -84q84 -88 84 -205q0 -119 -84 -204.5t-205 -85.5q-123 0 -206.5 83.5t-83.5 206.5zM170 1214q0 -78 54.5 -134t135.5 -56q78 0 134.5 55.5t56.5 132.5q0 80 -42 122t-76 56.5t-73 14.5q-80 0 -135 -55.5t-55 -135.5z" />
<glyph unicode="&#xb1;" horiz-adv-x="1429" d="M198 62v293h1020v-293h-1020zM211 788v320h350v348h315v-348h351v-320h-349v-350h-319v350h-348z" />
<glyph unicode="&#xb2;" horiz-adv-x="856" d="M39 545l2 41q16 115 73.5 186.5t190.5 138.5l62 31l43 21l22 12q72 45 100.5 85t28.5 89q0 59 -51 99t-141 40h-25q-18 -4 -52 -8t-70 -26.5t-54 -61.5l49 6l31 -8q55 -23 55 -80q0 -41 -29.5 -72.5t-87.5 -31.5q-25 0 -77 12t-52 119q0 43 29 102t117 105.5t215 46.5h61 q27 -6 64 -11.5t81 -24t84 -50t62.5 -77.5t22.5 -100q0 -59 -30 -109t-68 -72.5t-74.5 -39t-71.5 -28.5l-10 -5l-123 -36l-51 -19q-90 -33 -131 -61.5t-66 -77.5l33 16q78 39 149 39q51 0 125 -18l37 -10l31 -9l26 -6q8 -2 27 -2q53 0 85 26.5t32 71.5l2 41h92v-43 q0 -250 -215 -249q-82 0 -199 43l-33 12q-74 25 -122 24q-68 0 -101 -57l-6 -14h-92z" />
<glyph unicode="&#xb3;" horiz-adv-x="856" d="M45 766q0 43 18.5 75.5t50 46t54.5 13.5q41 0 71.5 -24.5t36.5 -63.5q14 -92 -83 -108l-19 -3q41 -47 117 -61l31 -6q14 -2 38 -2q78 0 131.5 33.5t64.5 70.5t11 56q0 63 -55 106t-156 43h-20v90h22q90 0 134.5 30t52.5 89q10 70 -40 114t-155 44q-57 0 -98 -15.5 t-66 -46.5q29 4 54 -8l22 -12q35 -25 35 -68q0 -41 -26.5 -64.5t-63.5 -29.5q-59 -8 -99 31t-32 100l8 35q27 78 108.5 125t213.5 47h45t71 -8.5t99.5 -24.5t99.5 -58t53 -134q0 -78 -38 -110t-62.5 -46t-46.5 -21l-27 -6l18 -6q23 -8 53.5 -23.5t80 -50t49.5 -137.5 q0 -45 -21.5 -90t-55.5 -70.5t-62.5 -39t-71.5 -25.5l-72 -12q-59 -6 -108 -6q-117 0 -199 31.5t-115 72.5t-42 67.5t-9 59.5z" />
<glyph unicode="&#xb4;" horiz-adv-x="534" d="M68 1245l346 297l118 -162l-387 -243z" />
<glyph unicode="&#xb5;" horiz-adv-x="1492" d="M16 -209h121q39 0 49 35l4 22v816h334v-1039h-508v166zM16 854v166h508v-619q0 -55 7.5 -103t54.5 -87t112 -39q55 0 104.5 24.5t84.5 65.5t46 81t11 116v291q0 59 -16.5 79.5t-67.5 20.5h-106v170h524v-756q0 -61 15.5 -80.5t60.5 -19.5h98v-164h-500v141l-24 -26 q-115 -121 -217.5 -129.5t-126 -10.5t-35.5 -2q-190 0 -274.5 102.5t-84.5 325.5v396l-4 22q-10 35 -49 35h-121z" />
<glyph unicode="&#xb6;" horiz-adv-x="1263" d="M70 1038q0 180 126 308.5t306 128.5h686v-148h-686q-119 0 -203 -86t-84 -207q0 -117 84 -200.5t201 -83.5h129v467h159v-1217h-286v139l127 -4v467h-127q-178 0 -305 127t-127 309zM911 0v1217h160l-2 -1084l125 6v-137z" />
<glyph unicode="&#xb7;" horiz-adv-x="595" d="M109 510q0 74 53 127t135 53t136 -51t54 -121q0 -72 -57 -121t-135 -49q-80 0 -133 47t-53 115z" />
<glyph unicode="&#xb8;" horiz-adv-x="352" d="M-4 -406l29 80l24 -4h12.5t12.5 -2q14 0 53 8.5t55.5 29t16.5 36.5q0 35 -27 47t-46.5 16.5t-45.5 4.5h-47l71 237h93l-31 -141q12 4 39 4q47 0 99 -34t52 -114q0 -55 -40 -97t-91 -63.5t-121 -21.5q-37 0 -59 2t-49 12z" />
<glyph unicode="&#xb9;" horiz-adv-x="856" d="M182 1180v98h54l34 2q88 16 131 84l11 16h137v-663q0 -37 6 -48.5t27 -15.5h10h88v-108h-494v108h90h15q33 0 42 11.5t9 52.5v51v412h-160z" />
<glyph unicode="&#xba;" horiz-adv-x="917" d="M70 682h776l2 -176h-776zM72 1133q0 145 87 244.5t172 110.5t100 12t28 1h30q20 -4 102.5 -15t168.5 -107.5t86 -245.5q0 -145 -87 -242.5t-170 -110t-101.5 -13.5t-28.5 -1h-23q-12 0 -101 13.5t-176 111t-87 242.5zM319 1133l5 -37q8 -74 30.5 -104.5t48 -43 t56.5 -12.5q66 0 101.5 53t35.5 148q0 25 -4 61.5t-23.5 70.5t-50.5 49t-59 15q-29 0 -58.5 -15t-50 -49t-26.5 -95z" />
<glyph unicode="&#xbb;" horiz-adv-x="868" d="M29 1147h100l373 -574l-359 -573h-108l192 567zM367 1147h100l373 -574l-359 -573h-108l192 567z" />
<glyph unicode="&#xbf;" horiz-adv-x="1114" d="M16 354q0 117 69 199t275 207l31 20q63 51 91 102.5t28 118.5v41h178q4 -14 4 -29.5v-29.5q0 -86 -22.5 -149.5t-83.5 -141.5l-76 -88l-78 -96q-51 -72 -51 -150q0 -72 45 -125t111.5 -70.5t119.5 -17.5h25q16 4 110.5 16.5t129.5 153.5q-37 -29 -86 -28q-31 0 -70 16 t-63.5 53t-24.5 84q0 66 49 119t141 53q37 0 87.5 -14t94.5 -76.5t44 -152.5q0 -39 -23.5 -131.5t-186.5 -176.5t-409 -84q-211 0 -335 112t-124 265zM401 1331q0 68 55.5 115t139.5 47q33 0 67.5 -13.5t62.5 -37t41 -54t13 -67.5q0 -66 -52 -118t-136 -52t-137.5 53 t-53.5 127z" />
<glyph unicode="&#xc0;" horiz-adv-x="1689" d="M-35 0v180h55h15l14 2q39 4 62.5 25.5t48.5 79.5l491 1188h410l471 -1188q25 -63 47.5 -82t77.5 -25h12h55v-180h-757v180h145q51 0 51 29q0 10 -2 16l-24 62l-78 194h-565l-80 -194q-8 -20 -15.5 -42t-7.5 -34q0 -31 53 -31h154v-180h-633zM567 666h422l-209 536z M588 1825l129 153l319 -315l-84 -96z" />
<glyph unicode="&#xc1;" horiz-adv-x="1689" d="M-35 0v180h55h15l14 2q39 4 62.5 25.5t48.5 79.5l491 1188h410l471 -1188q25 -63 47.5 -82t77.5 -25h12h55v-180h-757v180h145q51 0 51 29q0 10 -2 16l-24 62l-78 194h-565l-80 -194q-8 -20 -15.5 -42t-7.5 -34q0 -31 53 -31h154v-180h-633zM567 666h422l-209 536z M645 1677l346 297l119 -162l-387 -243z" />
<glyph unicode="&#xc2;" horiz-adv-x="1689" d="M-35 0v180h55h15l14 2q39 4 62.5 25.5t48.5 79.5l491 1188h410l471 -1188q25 -63 47.5 -82t77.5 -25h12h55v-180h-757v180h145q51 0 51 29q0 10 -2 16l-24 62l-78 194h-565l-80 -194q-8 -20 -15.5 -42t-7.5 -34q0 -31 53 -31h154v-180h-633zM498 1628l254 299h184 l254 -299l-66 -61l-280 192l-281 -192zM567 666h422l-209 536z" />
<glyph unicode="&#xc3;" horiz-adv-x="1689" d="M-35 0v180h55h15l14 2q39 4 62.5 25.5t48.5 79.5l491 1188h410l471 -1188q25 -63 47.5 -82t77.5 -25h12h55v-180h-757v180h145q51 0 51 29q0 10 -2 16l-24 62l-78 194h-565l-80 -194q-8 -20 -15.5 -42t-7.5 -34q0 -31 53 -31h154v-180h-633zM471 1597l4 41 q43 231 236 232q61 0 133 -27l76 -26l16 -9q74 -29 115 -28q68 0 92 71l4 19h72v-53q-8 -102 -64.5 -157.5t-144.5 -55.5q-53 0 -121 22l-80 27l-12 4q-96 37 -150 37q-76 0 -100 -82l-2 -15h-74zM567 666h422l-209 536z" />
<glyph unicode="&#xc4;" horiz-adv-x="1689" d="M-35 0v180h55h13l14 2q70 0 113 105l493 1188h408l471 -1188q25 -63 47.5 -82t77.5 -25h12h55v-180h-757v180h145q51 0 51 29q0 10 -2 16l-4 11l-20 51l-80 194h-563l-80 -194q-8 -20 -15.5 -42t-7.5 -34q0 -31 53 -31h154v-180h-633zM475 1692q0 70 49 115.5t117 45.5 t116 -48t48 -117q0 -70 -49 -119t-117 -49q-70 0 -104.5 36.5t-47 69.5t-12.5 66zM567 666h422l-209 524zM920 1690q0 68 47 115.5t116 47.5q68 0 117 -47t49 -120q0 -68 -45 -113q-47 -53 -121 -53q-66 0 -114.5 48t-48.5 122z" />
<glyph unicode="&#xc5;" horiz-adv-x="1689" d="M-35 0v180h55h15l14 2q39 4 62.5 25.5t48.5 79.5l491 1188l88 4q-53 29 -81.5 82t-28.5 112q0 88 63.5 154.5t159.5 66.5q92 0 156 -63q72 -66 71 -164q0 -31 -8 -55.5t-26.5 -63.5t-73.5 -73h90l471 -1188q25 -63 47.5 -82t77.5 -25h12h55v-180h-757v180h145q51 0 51 29 q0 10 -2 16l-4 11l-20 51l-80 194h-563l-80 -194q-8 -20 -15.5 -42t-7.5 -34q0 -31 53 -31h154v-180h-633zM567 666h422l-209 524zM737 1665q0 -47 34 -79t83 -32q47 0 79 34t32 79q0 49 -35 80t-80 31q-47 0 -80 -33t-33 -80z" />
<glyph unicode="&#xc6;" horiz-adv-x="2650" d="M-39 0v180h31h43q78 8 155 107l699 889l35 53q4 8 4 22q0 39 -43 39l-78 2h-66v183h1858v-576h-197v78l-6 67q-51 246 -330 246h-424v-440h173q84 0 125.5 42t41.5 134v55h179v-653h-176v53l-3 33q-20 152 -163 152h-177v-484h404q164 0 248 64.5t106 204.5l4 63v80h193 v-594h-1587v180h151h21q57 0 71.5 18.5t14.5 88.5v235h-590l-178 -235l-21 -27l-24 -35q-10 -16 -11 -24q0 -14 17 -19l33 -2h151v-180h-684zM803 696h467v602z" />
<glyph unicode="&#xc7;" horiz-adv-x="1556" d="M49 737q0 78 30 245t198.5 331t310 186.5t192.5 24.5t56 2q125 0 231.5 -34t189.5 -101l50 -43l55 127h176v-564h-205l-6 54q-29 176 -133 272t-268 96q-57 0 -168 -24.5t-199 -162.5t-88 -372q0 -59 13.5 -190t100.5 -251t186 -147.5t161 -27.5q145 0 252.5 95 t134.5 251l6 65h209l-4 -84q-29 -231 -192.5 -373.5t-430.5 -142.5h-37l-18 -63q12 4 37 4q18 0 53 -6t71 -50t36 -104q0 -25 -16.5 -72t-83 -90t-163.5 -43q-20 0 -44.5 1t-65.5 16l29 88l26 -6h27q10 0 22.5 2t42 9t47 29.5t17.5 41.5q0 39 -36 55t-87 16l-45 2l49 172 l-86 9q-285 47 -459 253.5t-174 503.5z" />
<glyph unicode="&#xc8;" horiz-adv-x="1675" d="M16 0v180h152h22q59 0 76 19.5t17 87.5v73v828q0 68 -15.5 87t-70.5 19h-23h-158v181h1608v-566h-197v90q0 160 -95 230.5t-316 70.5h-350v-444h157q96 0 138.5 42t42.5 144v48h180v-656h-176v58q0 182 -174 182h-168v-490h360l66 2q176 0 255.5 80t79.5 252l3 84h194 v-602h-1608zM582 1825l129 153l319 -315l-84 -96z" />
<glyph unicode="&#xc9;" horiz-adv-x="1675" d="M16 0v180h152h22q59 0 76 19.5t17 87.5v73v828q0 68 -15.5 87t-70.5 19h-23h-158v181h1608v-566h-197v90q0 160 -95 230.5t-316 70.5h-350v-444h157q96 0 138.5 42t42.5 144v48h180v-656h-176v58q0 182 -174 182h-168v-490h360l66 2q176 0 255.5 80t79.5 252l3 84h194 v-602h-1608zM639 1677l346 297l119 -162l-387 -243z" />
<glyph unicode="&#xca;" horiz-adv-x="1675" d="M16 0v180h152h22q59 0 76 19.5t17 87.5v73v828q0 68 -15.5 87t-70.5 19h-23h-158v181h1608v-566h-197v90q0 160 -95 230.5t-316 70.5h-350v-444h157q96 0 138.5 42t42.5 144v48h180v-656h-176v58q0 182 -174 182h-168v-490h360l66 2q176 0 255.5 80t79.5 252l3 84h194 v-602h-1608zM492 1628l253 299h185l254 -299l-66 -61l-280 192l-281 -192z" />
<glyph unicode="&#xcb;" horiz-adv-x="1675" d="M16 0v180h152h22q59 0 76 19.5t17 87.5v73v828q0 68 -15.5 87t-70.5 19h-23h-158v181h1608v-566h-197v90q0 160 -95 230.5t-316 70.5h-350v-444h157q96 0 138.5 42t42.5 144v48h180v-656h-176v58q0 182 -174 182h-168v-490h360l66 2q176 0 255.5 80t79.5 252l3 84h194 v-602h-1608zM473 1737q0 66 47 110.5t115 44.5q70 0 118 -48t48 -115q0 -68 -48 -115t-118 -47q-72 0 -117 49t-45 121zM879 1731q0 68 47 114.5t116 46.5q63 0 112.5 -47t49.5 -116q0 -63 -45 -112.5t-115 -49.5q-68 0 -116.5 47t-48.5 117z" />
<glyph unicode="&#xcc;" d="M16 1294v181h910v-181h-156h-18l-29 -4q-39 -4 -48 -32.5t-9 -71.5l-2 -899q0 -70 13 -88.5t66 -18.5h23h160v-180h-908v180h152h23q55 0 71.5 20.5t16.5 86.5v69l2 830q0 68 -15.5 87t-70.5 19l-21 2h-160zM215 1825l129 153l320 -315l-84 -96z" />
<glyph unicode="&#xcd;" d="M16 1294v181h910v-181h-156h-18l-29 -4q-39 -4 -48 -32.5t-9 -71.5l-2 -899q0 -70 13 -88.5t66 -18.5h23h160v-180h-908v180h152h23q55 0 71.5 20.5t16.5 86.5v69l2 830q0 68 -15.5 87t-70.5 19l-21 2h-160zM272 1677l346 297l119 -162l-387 -243z" />
<glyph unicode="&#xce;" d="M16 1294v181h910v-181h-156h-18l-29 -4q-39 -4 -48 -32.5t-9 -71.5l-2 -899q0 -70 13 -88.5t66 -18.5h23h160v-180h-908v180h152h23q55 0 71.5 20.5t16.5 86.5v69l2 830q0 68 -15.5 87t-70.5 19l-21 2h-160zM125 1628l254 299h184l254 -299l-65 -61l-281 192l-281 -192z " />
<glyph unicode="&#xcf;" d="M16 1294v181h910v-181h-156h-18l-29 -4q-39 -4 -48 -32.5t-9 -71.5l-2 -899q0 -70 13 -88.5t66 -18.5h23h160v-180h-908v180h152h23q55 0 71.5 20.5t16.5 86.5v69l2 830q0 68 -15.5 87t-70.5 19l-21 2h-160zM106 1737q0 66 47.5 110.5t114.5 44.5q70 0 118 -48t48 -115 q0 -68 -48 -115t-118 -47q-72 0 -117 49t-45 121zM512 1731q0 68 47 114.5t117 46.5q63 0 112.5 -47t49.5 -116q0 -63 -45 -112.5t-115 -49.5q-68 0 -117 47t-49 117z" />
<glyph unicode="&#xd0;" horiz-adv-x="1828" d="M16 1294v181h873q428 0 660.5 -186.5t232.5 -516.5q0 -84 -35 -269.5t-223.5 -342t-491.5 -156.5l-127 -4h-887v180h146q78 0 99.5 19.5t21.5 87.5v59v840q0 70 -14.5 88t-71.5 18l-25 2h-158zM17 696v82h737v-82h-737zM668 182h235q213 0 321.5 110.5t125 250t16.5 167 v42.5q0 45 -19.5 194.5t-121 246.5t-322.5 97h-233z" />
<glyph unicode="&#xd1;" horiz-adv-x="1896" d="M16 0v180h179q53 0 68.5 19.5t15.5 87.5v899q0 66 -13.5 85t-62.5 23h-17h-170v181h676l731 -1053v766l-2 29q0 41 -12 56t-43 19l-16 2h-162v181h692v-181h-160q-51 0 -65.5 -14t-14.5 -68l-2 -24v-1188h-360l-778 1122l2 -835q0 -70 14 -88.5t64 -18.5h161v-180h-725z M575 1597l5 41q43 231 235 232q61 0 133 -27l76 -26l16 -9q74 -29 115 -28q68 0 92 71l4 19h72v-53q-8 -102 -64.5 -157.5t-144.5 -55.5q-53 0 -121 22l-80 27l-12 4q-96 37 -149 37q-76 0 -101 -82l-2 -15h-74z" />
<glyph unicode="&#xd2;" horiz-adv-x="1757" d="M51 750q0 348 221.5 561t606.5 213t606 -215t221 -566q0 -348 -221 -561t-606 -213t-606.5 213.5t-221.5 567.5zM455 750q0 -252 91 -406t189.5 -178.5t147.5 -24.5q180 0 300 160t120 449q0 283 -121 441.5t-301 158.5q-47 0 -144.5 -25t-189.5 -178t-92 -397zM623 1825 l129 153l319 -315l-84 -96z" />
<glyph unicode="&#xd3;" horiz-adv-x="1757" d="M51 750q0 348 221.5 561t606.5 213t606 -215t221 -566q0 -348 -221 -561t-606 -213t-606.5 213.5t-221.5 567.5zM455 750q0 -252 91 -406t189.5 -178.5t147.5 -24.5q180 0 300 160t120 449q0 283 -121 441.5t-301 158.5q-47 0 -144.5 -25t-189.5 -178t-92 -397zM680 1677 l346 297l119 -162l-387 -243z" />
<glyph unicode="&#xd4;" horiz-adv-x="1757" d="M51 750q0 348 221.5 561t606.5 213t606 -215t221 -566q0 -348 -221 -561t-606 -213t-606.5 213.5t-221.5 567.5zM455 750q0 -252 91 -406t189.5 -178.5t147.5 -24.5q180 0 300 160t120 449q0 283 -121 441.5t-301 158.5q-47 0 -144.5 -25t-189.5 -178t-92 -397zM532 1628 l254 299h185l254 -299l-66 -61l-280 192l-281 -192z" />
<glyph unicode="&#xd5;" horiz-adv-x="1757" d="M51 750q0 348 221.5 561t606.5 213t606 -215t221 -566q0 -348 -221 -561t-606 -213t-606.5 213.5t-221.5 567.5zM455 750q0 -252 91 -406t189.5 -178.5t147.5 -24.5q180 0 300 160t120 449q0 283 -121 441.5t-301 158.5q-47 0 -144.5 -25t-189.5 -178t-92 -397zM506 1597 l4 41q43 231 235 232q61 0 134 -27l75 -26l17 -9q74 -29 114 -28q68 0 93 71l4 19h71v-53q-8 -102 -64 -157.5t-145 -55.5q-53 0 -120 22l-80 27l-13 4q-96 37 -149 37q-76 0 -100 -82l-2 -15h-74z" />
<glyph unicode="&#xd6;" horiz-adv-x="1757" d="M51 750q0 311 176 513.5t379 231.5t285 29q315 0 534.5 -165t246 -313.5t30.5 -201.5t4 -99q0 -346 -223 -558t-604 -212q-383 0 -605.5 214.5t-222.5 560.5zM406 1735q0 31 14 62.5t35.5 53t55.5 33.5t62 12q68 0 116 -48t48 -119q0 -66 -48 -116t-118 -50 q-72 0 -106.5 36.5t-46.5 69.5t-12 66zM455 750q0 -246 92 -399.5t189.5 -178.5t146.5 -25q158 0 273.5 129.5t131 279t15.5 208.5q0 272 -121 429t-301 157q-47 0 -144.5 -25t-189.5 -178t-92 -397zM1024 1735q0 66 48 113.5t118 47.5q68 0 104.5 -35.5t49 -66.5t12.5 -65 q0 -68 -47 -117t-119 -49q-68 0 -117 49t-49 123z" />
<glyph unicode="&#xd7;" horiz-adv-x="1122" d="M82 356l248 246l-246 248l225 225l248 -248l248 248l221 -223l-246 -246l248 -248l-227 -227l-246 246l-248 -248z" />
<glyph unicode="&#xd8;" horiz-adv-x="1757" d="M51 750q0 309 176 512.5t382 232.5t288 29q129 0 238.5 -31t201.5 -90l142 162l94 -64l-135 -158q129 -82 198.5 -231t69.5 -362q0 -344 -220 -560.5t-589 -216.5q-84 0 -205 17.5t-262 81.5l-133 -164l-90 63l131 166q-141 96 -214 247t-73 366zM465 754 q0 -119 16.5 -198t57.5 -157l630 801q-92 143 -276 143q-47 0 -146.5 -24.5t-190.5 -171t-91 -393.5zM604 276q102 -129 277 -129q45 0 142 25t188.5 177.5t91.5 400.5q0 199 -70 327z" />
<glyph unicode="&#xd9;" horiz-adv-x="1796" d="M12 1294v181h838v-181h-125l-20 -2q-49 0 -64.5 -21.5t-15.5 -82.5v-647l2 -39q0 -193 83 -274t269 -81q336 0 336 342l2 62v637q0 70 -12.5 88t-59.5 18h-151v181h690v-181h-146h-18q-39 -4 -52.5 -25.5t-13.5 -80.5v-631q0 -311 -162.5 -453.5t-517.5 -142.5 q-348 0 -490 138.5t-142 443.5v645l-2 31q-4 45 -16.5 58t-51.5 17h-14h-146zM641 1825l129 153l320 -315l-84 -96z" />
<glyph unicode="&#xda;" horiz-adv-x="1796" d="M12 1294v181h838v-181h-125l-20 -2q-49 0 -64.5 -21.5t-15.5 -82.5v-647l2 -39q0 -193 83 -274t269 -81q336 0 336 342l2 62v637q0 70 -12.5 88t-59.5 18h-151v181h690v-181h-146h-18q-39 -4 -52.5 -25.5t-13.5 -80.5v-631q0 -311 -162.5 -453.5t-517.5 -142.5 q-348 0 -490 138.5t-142 443.5v645l-2 31q-4 45 -16.5 58t-51.5 17h-14h-146zM698 1677l346 297l119 -162l-387 -243z" />
<glyph unicode="&#xdb;" horiz-adv-x="1796" d="M12 1294v181h838v-181h-125l-20 -2q-49 0 -64.5 -21.5t-15.5 -82.5v-647l2 -39q0 -193 83 -274t269 -81q336 0 336 342l2 62v637q0 70 -12.5 88t-59.5 18h-151v181h690v-181h-146h-18q-39 -4 -52.5 -25.5t-13.5 -80.5v-631q0 -311 -162.5 -453.5t-517.5 -142.5 q-348 0 -490 138.5t-142 443.5v645l-2 31q-4 45 -16.5 58t-51.5 17h-14h-146zM551 1628l254 299h184l254 -299l-65 -61l-281 192l-281 -192z" />
<glyph unicode="&#xdc;" horiz-adv-x="1796" d="M12 1294v181h838v-181h-125l-20 -2q-47 0 -61.5 -20.5t-14.5 -83.5v-647v-49q0 -184 82 -264.5t266 -80.5q172 0 255 83t83 259l2 62v637q0 70 -12.5 88t-59.5 18h-151v181h690v-181h-146h-18q-39 -4 -52.5 -25.5t-13.5 -80.5v-631q0 -311 -162.5 -453.5t-517.5 -142.5 q-348 0 -489 139.5t-141 442.5v645q0 59 -14.5 80.5t-57.5 25.5h-14h-146zM537 1692q0 70 35.5 103.5t69.5 45.5t63 12q68 0 115.5 -48t47.5 -117q0 -66 -48 -117t-118 -51q-72 0 -106.5 36.5t-46.5 69.5t-12 66zM1090 1692q0 66 48 113.5t117 47.5q68 0 117 -49t49 -118 q0 -63 -48 -114.5t-118 -51.5t-117.5 48t-47.5 124z" />
<glyph unicode="&#xdd;" horiz-adv-x="1519" d="M15 1294v181h821v-181h-100l-54 -2q-29 -2 -28 -30q0 -16 10 -35l23 -39l231 -357l223 357l19 35q14 27 14 43q0 23 -35 28h-12h-113v181h623v-181h-53h-15h-14q-37 0 -58.5 -14t-60.5 -63l-20 -29l-398 -580v-321q0 -68 16.5 -87.5t78.5 -19.5h22h152v-180h-918v180h154 h20l35 2q37 0 51.5 22.5t14.5 82.5v65v246l-396 590q-43 63 -64.5 80.5t-66.5 23.5l-22 2h-80zM670 1700l346 297l118 -162l-387 -243z" />
<glyph unicode="&#xde;" horiz-adv-x="1658" d="M2 1292v181h954v-181h-165l-60 -2q-49 0 -65 -22q-15 -82 -17 -199h445q252 0 389 -92t137 -248q0 -145 -109.5 -245.5t-318.5 -123.5l-94 -6h-434v-102q0 -51 16 -71.5t65 -20.5l60 -2h166v-158h-955v158h160q63 0 84 18.5t21 75.5q23 930 -35 1020q-20 20 -84 20h-160z M664 510h262q111 0 171 19.5t102 69.5t42 120q0 66 -48 119t-102.5 64t-91 14.5t-90.5 3.5h-245v-410z" />
<glyph unicode="&#xdf;" horiz-adv-x="1509" d="M35 0v164h100q47 0 64.5 20.5t17.5 79.5v86v762q0 186 133 296t400 110q96 0 160.5 -9.5t84 -13.5t100.5 -28.5t149.5 -110.5t68.5 -195q0 -92 -56.5 -178t-148.5 -123l47 -12q309 -94 309 -385q0 -25 -2 -52.5t-22.5 -128t-162.5 -198.5t-384 -98h-68q-51 6 -75 8 l-68 10v172l53 -10q37 -4 56 -4q12 0 28.5 2t130 17.5t135 128t21.5 143.5q0 117 -87 186.5t-245 69.5l-69 -4l-29 -5v222h43q129 0 193.5 60t64.5 173q0 98 -61.5 155.5t-170.5 57.5q-90 0 -141 -49t-51 -133v-17l-2 -57v-1112h-516z" />
<glyph unicode="&#xe0;" horiz-adv-x="1361" d="M45 254q0 199 272 268l172 33l62 14q115 29 166 68t51 98q0 8 -1 21.5t-10 48.5t-54.5 64.5t-95.5 36.5t-79 7h-26q-111 0 -185 -45q84 -31 84 -118q0 -57 -43 -96.5t-108 -39.5q-14 2 -21 2q-63 6 -104 49.5t-41 102.5q0 23 22.5 90.5t168 125.5t413.5 58q20 0 41 -3 t115 -16t173 -93t79 -215v-412v-35v-32q0 -25 7 -41.5t20.5 -26.5t31.5 -10q25 0 37 20l12 41l8 88v37l2 33h132v-39q0 -199 -56.5 -282t-193.5 -83q-229 0 -297 138l-13 30q-45 -68 -121.5 -109.5t-161.5 -53t-128 -11.5q-141 0 -225 61.5t-93.5 122t-10.5 78t-1 25.5z M381 285q0 -27 12.5 -59.5t49 -55.5t89.5 -23q23 0 48.5 4.5t72.5 29t77 81.5t30 154v90q-43 -23 -72 -34t-92 -30l-47 -16q-90 -29 -129 -61.5t-39 -79.5zM424 1393l129 153l319 -315l-84 -96z" />
<glyph unicode="&#xe1;" horiz-adv-x="1361" d="M45 254q0 199 272 268l172 33l62 14q115 29 166 68t51 98q0 8 -1 21.5t-10 48.5t-54.5 64.5t-95.5 36.5t-79 7h-26q-111 0 -185 -45q84 -31 84 -118q0 -57 -43 -96.5t-108 -39.5q-14 2 -21 2q-63 6 -104 49.5t-41 102.5q0 23 22.5 90.5t168 125.5t413.5 58q20 0 41 -3 t115 -16t173 -93t79 -215v-412v-35v-32q0 -25 7 -41.5t20.5 -26.5t31.5 -10q25 0 37 20l12 41l8 88v37l2 33h132v-39q0 -199 -56.5 -282t-193.5 -83q-229 0 -297 138l-13 30q-45 -68 -121.5 -109.5t-161.5 -53t-128 -11.5q-141 0 -225 61.5t-93.5 122t-10.5 78t-1 25.5z M381 285q0 -27 12.5 -59.5t49 -55.5t89.5 -23q23 0 48.5 4.5t72.5 29t77 81.5t30 154v90q-43 -23 -72 -34t-92 -30l-47 -16q-90 -29 -129 -61.5t-39 -79.5zM481 1245l346 297l119 -162l-387 -243z" />
<glyph unicode="&#xe2;" horiz-adv-x="1361" d="M45 254q0 199 272 268l172 33l62 14q115 29 166 68t51 98q0 8 -1 21.5t-10 48.5t-54.5 64.5t-95.5 36.5t-79 7h-26q-111 0 -185 -45q84 -31 84 -118q0 -57 -43 -96.5t-108 -39.5q-14 2 -21 2q-63 6 -104 49.5t-41 102.5q0 23 22.5 90.5t168 125.5t413.5 58q20 0 41 -3 t115 -16t173 -93t79 -215v-412v-35v-32q0 -25 7 -41.5t20.5 -26.5t31.5 -10q25 0 37 20l12 41l8 88v37l2 33h132v-39q0 -199 -56.5 -282t-193.5 -83q-229 0 -297 138l-13 30q-45 -68 -121.5 -109.5t-161.5 -53t-128 -11.5q-141 0 -225 61.5t-93.5 122t-10.5 78t-1 25.5z M334 1196l254 299h184l254 -299l-65 -61l-281 192l-281 -192zM381 285q0 -27 12.5 -59.5t49 -55.5t89.5 -23q23 0 48.5 4.5t72.5 29t77 81.5t30 154v90q-43 -23 -72 -34t-92 -30l-47 -16q-90 -29 -129 -61.5t-39 -79.5z" />
<glyph unicode="&#xe3;" horiz-adv-x="1361" d="M45 254q0 199 272 268l172 33l62 14q115 29 166 68t51 98q0 8 -1 21.5t-10 48.5t-54.5 64.5t-95.5 36.5t-79 7h-26q-111 0 -185 -45q84 -31 84 -118q0 -57 -43 -96.5t-108 -39.5q-14 2 -21 2q-63 6 -104 49.5t-41 102.5q0 23 22.5 90.5t168 125.5t413.5 58q20 0 41 -3 t115 -16t173 -93t79 -215v-412v-35v-32q0 -25 7 -41.5t20.5 -26.5t31.5 -10q25 0 37 20l12 41l8 88v37l2 33h132v-39q0 -199 -56.5 -282t-193.5 -83q-229 0 -297 138l-13 30q-45 -68 -121.5 -109.5t-161.5 -53t-128 -11.5q-141 0 -225 61.5t-93.5 122t-10.5 78t-1 25.5z M307 1165l4 41q43 231 236 232q61 0 133 -27l76 -27l16 -8q74 -29 115 -28q68 0 92 71l4 19h72v-54q-8 -102 -64.5 -157.5t-144.5 -55.5q-53 0 -121 23l-80 27l-12 4q-96 37 -150 37q-76 0 -100 -82l-2 -15h-74zM381 285q0 -27 12.5 -59.5t49 -55.5t89.5 -23q23 0 48.5 4.5 t72.5 29t77 81.5t30 154v90q-43 -23 -72 -34t-92 -30l-47 -16q-90 -29 -129 -61.5t-39 -79.5z" />
<glyph unicode="&#xe4;" horiz-adv-x="1370" d="M43 254q0 199 274 268l11 2l170 31l57 14q121 29 171 67t50 97q0 14 -10 57.5t-54 72t-132 40.5l-72 4q-49 0 -90 -12t-80 -35q61 -20 72.5 -62t11.5 -63q0 -106 -76 -116.5t-96 -10.5q-68 0 -114 46t-46 116q0 109 147.5 186.5t450.5 77.5q213 0 314.5 -86t101.5 -241 v-412v-25l2 -34q0 -47 19.5 -62.5t37.5 -15.5q25 0 37 20q8 23 12 41l9 88l2 37v33h131v-39q0 -199 -56.5 -282t-193.5 -83q-229 0 -297 138l-12 30q-45 -68 -121 -109.5t-161 -53t-124 -11.5q-139 0 -230 63.5t-103.5 128t-12.5 95.5zM244 1307q0 68 47 112.5t115 44.5 q66 0 114.5 -47t48.5 -117q0 -35 -10 -62.5t-47 -64t-106 -36.5q-72 0 -117 49t-45 121zM391 283q0 -20 11.5 -55t48 -58t90.5 -23q23 0 48 4.5t72.5 29t77 81.5t29.5 154v90q-43 -23 -71.5 -34t-92.5 -30l-47 -16q-59 -18 -78 -31q-88 -45 -88 -112zM678 1303 q0 68 47 114.5t117 46.5q63 0 101 -33.5t50.5 -63.5t12.5 -67q0 -68 -46.5 -115.5t-115.5 -47.5q-70 0 -118 48t-48 118z" />
<glyph unicode="&#xe5;" horiz-adv-x="1361" d="M45 254q0 199 272 268l172 33l64 14q215 55 215 164q0 14 -10 57.5t-54.5 72t-132.5 40.5l-69 4q-61 0 -103.5 -11t-81.5 -36q84 -31 84 -119q0 -57 -43 -96t-108 -39q-14 2 -21 2q-63 6 -104 49t-41 103q0 23 22.5 90.5t168 125.5t413.5 58q20 0 41 -3t115 -16.5 t173 -93t79 -214.5v-412v-27v-32q0 -25 7 -41.5t20.5 -26.5t31.5 -10q25 0 37 20l12 41l8 88v37l2 33h132v-39q0 -199 -56.5 -282t-193.5 -83q-229 0 -297 138l-13 30q-45 -68 -121.5 -109.5t-161.5 -53t-128 -11.5q-141 0 -225 61.5t-93.5 122t-10.5 78t-1 25.5zM383 285 q0 -23 11.5 -57.5t48 -57.5t89.5 -23q23 0 48.5 4.5t71.5 29t76 81.5t30 154v90q-47 -25 -71.5 -35t-90.5 -29l-47 -16q-59 -18 -78 -31q-88 -45 -88 -110zM469 1296q0 90 58.5 150.5t142.5 60.5q78 0 139 -59t61 -145q0 -78 -56 -139.5t-144 -61.5q-84 0 -142.5 58 t-58.5 136zM567 1300q0 -39 31 -67.5t72 -28.5q43 0 70.5 30t27.5 71t-31.5 69.5t-70.5 28.5q-41 0 -70 -31t-29 -72z" />
<glyph unicode="&#xe6;" horiz-adv-x="1918" d="M43 248q0 20 10 116.5t252 163.5l70 15l26 6l103 16l24 4q86 18 115 27.5t79 37.5t50 111q0 53 -38 95.5t-95 54.5t-78.5 12h-34.5q-66 0 -107.5 -10t-80.5 -33q86 -23 86 -116q0 -109 -71.5 -121.5t-94.5 -12.5q-29 0 -66.5 11.5t-68.5 53.5t-31 97q0 53 35 106.5 t123 94.5t180 52t123 11h47h62q113 0 185.5 -24.5t145.5 -77.5q123 82 208 90t102.5 9t37.5 1q233 0 377 -129t162 -348v-84h-774v-45q0 -135 78 -217t194 -82q18 0 116.5 16.5t147.5 176.5l9 32h217q-4 -35 -15.5 -67.5t-51.5 -110.5t-157.5 -144.5t-279.5 -66.5 q-131 0 -230.5 31t-150.5 75t-73.5 68.5t-45.5 53.5l-35 -37q-82 -82 -159.5 -123t-153.5 -53.5t-129 -12.5q-160 0 -252 78t-92 199zM387 279q0 -43 27.5 -76t62.5 -39t51 -6q45 0 103 20q35 18 84 62.5t49 132.5v135q-27 -14 -58.5 -27.5t-68.5 -23.5l-70 -21l-10 -4 l-27 -10l-41 -14q-70 -31 -86 -69t-16 -60zM1110 625h444v32q-10 111 -65 168.5t-146 57.5q-33 0 -72.5 -8.5t-87.5 -60.5t-67 -138z" />
<glyph unicode="&#xe7;" horiz-adv-x="1148" d="M51 489q0 74 23.5 192t154.5 229.5t240 121.5t132.5 12.5t35.5 2.5q166 0 290 -68t157.5 -149.5t33.5 -129.5q0 -80 -50 -134t-130 -54q-86 0 -143.5 46t-57.5 110q0 59 49 102l35 25q27 16 64 22q-66 70 -183 70q-63 0 -138 -29t-119 -122t-44 -255q0 -154 59.5 -239.5 t129 -101t106.5 -15.5q193 0 242 225l4 35h178l-6 -61q-27 -170 -144.5 -267.5t-312.5 -97.5l-39 -2l-14 -51q12 4 39 4q47 0 99.5 -35t52.5 -115q0 -53 -40 -95t-92.5 -63.5t-121.5 -21.5q-35 0 -57.5 3t-49.5 11l27 80l26 -4q8 -2 25 -2q12 0 52 8.5t56.5 30t16.5 37.5 q0 35 -26.5 46t-46 15.5t-46.5 4.5h-47l47 157l-29 4q-203 37 -320.5 176.5t-117.5 341.5z" />
<glyph unicode="&#xe8;" horiz-adv-x="1202" d="M51 506q0 238 160 391.5t418 153.5q233 0 383.5 -136.5t150.5 -357.5v-82h-778v-47q0 -115 58.5 -188.5t125 -90t107.5 -16.5q90 0 158.5 52.5t97.5 148.5l6 28h213q-27 -174 -166 -282.5t-350 -108.5h-72q-33 6 -146.5 21.5t-239.5 159t-126 354.5zM344 1393l129 153 l320 -315l-84 -96zM391 625h451v30q0 109 -60.5 173.5t-150.5 64.5q-31 0 -80 -13.5t-95 -71.5t-61 -142z" />
<glyph unicode="&#xe9;" horiz-adv-x="1202" d="M51 506q0 238 160 391.5t418 153.5q233 0 383.5 -136.5t150.5 -357.5v-82h-778v-47q0 -115 58.5 -188.5t125 -90t107.5 -16.5q90 0 158.5 52.5t97.5 148.5l6 28h213q-27 -174 -166 -282.5t-350 -108.5h-72q-33 6 -146.5 21.5t-239.5 159t-126 354.5zM391 625h451v30 q0 109 -60.5 173.5t-150.5 64.5q-31 0 -80 -13.5t-95 -71.5t-61 -142zM401 1245l347 297l118 -162l-387 -243z" />
<glyph unicode="&#xea;" horiz-adv-x="1202" d="M51 506q0 238 160 391.5t418 153.5q233 0 383.5 -136.5t150.5 -357.5v-82h-778v-47q0 -115 58.5 -188.5t125 -90t107.5 -16.5q90 0 158.5 52.5t97.5 148.5l6 28h213q-27 -174 -166 -282.5t-350 -108.5h-72q-33 6 -146.5 21.5t-239.5 159t-126 354.5zM254 1196l254 299 h184l254 -299l-65 -61l-281 192l-281 -192zM391 625h451v30q0 109 -60.5 173.5t-150.5 64.5q-31 0 -80 -13.5t-95 -71.5t-61 -142z" />
<glyph unicode="&#xeb;" horiz-adv-x="1202" d="M51 506q0 238 160 391.5t418 153.5q233 0 383.5 -136.5t150.5 -357.5v-82h-778v-47q0 -115 58.5 -188.5t125 -90t107.5 -16.5q90 0 158.5 52.5t97.5 148.5l6 28h213q-27 -174 -166 -282.5t-350 -108.5h-72q-33 6 -146.5 21.5t-239.5 159t-126 354.5zM236 1305 q0 66 47 110.5t114 44.5q70 0 118 -48t48 -116t-48 -114.5t-118 -46.5q-72 0 -116.5 49t-44.5 121zM391 625h451v30q0 109 -60.5 173.5t-150.5 64.5q-31 0 -80 -13.5t-95 -71.5t-61 -142zM641 1298q0 68 47 115t117 47q63 0 112.5 -47t49.5 -117q0 -63 -45 -112t-115 -49 q-68 0 -117 46.5t-49 116.5z" />
<glyph unicode="&#xec;" horiz-adv-x="761" d="M29 0v164h106q53 0 71.5 20.5t18.5 79.5v74v414q0 59 -16 79.5t-66 20.5h-108v168h524v-756v-37l2 -12q6 -51 70 -51h106v-164h-708zM125 1393l129 153l319 -315l-84 -96z" />
<glyph unicode="&#xed;" horiz-adv-x="761" d="M29 0v164h106q53 0 71.5 20.5t18.5 79.5v74v414q0 59 -16 79.5t-66 20.5h-108v168h524v-756v-37l2 -12q6 -51 70 -51h106v-164h-708zM182 1245l346 297l119 -162l-387 -243z" />
<glyph unicode="&#xee;" horiz-adv-x="761" d="M29 0v164h106q53 0 71.5 20.5t18.5 79.5v74v414q0 59 -16 79.5t-66 20.5h-108v168h524v-756v-37l2 -12q6 -51 70 -51h106v-164h-708zM35 1196l254 299h184l254 -299l-65 -61l-281 192l-281 -192z" />
<glyph unicode="&#xef;" horiz-adv-x="761" d="M16 1305q0 66 47.5 110.5t114.5 44.5q70 0 118 -48t48 -116t-48 -114.5t-118 -46.5q-72 0 -117 49t-45 121zM29 0v164h106q53 0 71.5 20.5t18.5 79.5v74v414q0 59 -16 79.5t-66 20.5h-108v168h524v-756v-37l2 -12q6 -51 70 -51h106v-164h-708zM422 1298q0 68 47 115 t117 47q63 0 112.5 -47t49.5 -117q0 -63 -45.5 -112t-114.5 -49q-68 0 -117 46.5t-49 116.5z" />
<glyph unicode="&#xf0;" horiz-adv-x="1239" d="M-12 537q0 236 162.5 385t437.5 149q55 0 184 -14q0 -2 2 -2q-20 45 -47 90q-92 145 -270 145h-197v174h199l106 -6q254 0 444.5 -213t192.5 -719q0 -211 -135 -355t-279.5 -160.5t-199.5 -16.5q-276 0 -438 151.5t-162 391.5zM336 537l4 -82q14 -152 80.5 -227.5 t173.5 -75.5q117 0 189.5 93t72.5 275q0 45 -11 143.5t-78 173t-173 74.5l-45 -4q-88 -16 -141.5 -87.5t-67.5 -205.5zM365 1114l303 461h139l-301 -461h-141z" />
<glyph unicode="&#xf1;" horiz-adv-x="1497" d="M29 0v164h114q49 0 64.5 19.5t15.5 80.5v51v437v36l-2 11q0 51 -71 51h-121v170h520v-146q111 133 233.5 150.5t180.5 17.5q184 0 266 -103t82 -321v-354l2 -20v-29q0 -51 59 -51h109v-164h-647v164h71h15q29 0 41 16.5t16 65.5v18v346v37q0 18 -5 64.5t-54.5 89.5 t-118.5 43q-49 0 -145.5 -45t-96.5 -232v-303v-26l2 -23q0 -49 53 -49l19 -2h80v-164h-682zM375 1165l4 41q43 231 235 232q61 0 134 -27l75 -27l17 -8q74 -29 114 -28q68 0 93 71l4 19h71v-54q-8 -102 -64.5 -157.5t-144.5 -55.5q-53 0 -120 23l-80 27l-13 4 q-96 37 -149 37q-76 0 -100 -82l-2 -15h-74z" />
<glyph unicode="&#xf2;" horiz-adv-x="1316" d="M51 512q0 236 163 385.5t437 149.5q55 0 183.5 -15.5t258.5 -127t151.5 -226.5t21.5 -176q0 -211 -135.5 -355.5t-279.5 -161t-200 -16.5q-276 0 -438 151.5t-162 391.5zM399 512l4 -82q14 -152 81 -227.5t173 -75.5q117 0 190 93t73 276q0 45 -11.5 143t-78 173 t-173.5 75l-45 -4q-88 -16 -141 -88t-68 -205zM401 1393l129 153l320 -315l-84 -96z" />
<glyph unicode="&#xf3;" horiz-adv-x="1316" d="M51 512q0 236 163 385.5t437 149.5q55 0 183.5 -15.5t258.5 -127t151.5 -226.5t21.5 -176q0 -211 -135.5 -355.5t-279.5 -161t-200 -16.5q-276 0 -438 151.5t-162 391.5zM399 512l4 -82q14 -152 81 -227.5t173 -75.5q117 0 190 93t73 276q0 45 -11.5 143t-78 173 t-173.5 75l-45 -4q-88 -16 -141 -88t-68 -205zM459 1245l346 297l119 -162l-387 -243z" />
<glyph unicode="&#xf4;" horiz-adv-x="1316" d="M51 512q0 236 163 385.5t437 149.5q55 0 183.5 -15.5t258.5 -127t151.5 -226.5t21.5 -176q0 -211 -135.5 -355.5t-279.5 -161t-200 -16.5q-276 0 -438 151.5t-162 391.5zM311 1196l254 299h185l254 -299l-66 -61l-281 192l-280 -192zM399 512l4 -82q14 -152 81 -227.5 t173 -75.5q117 0 190 93t73 276q0 45 -11.5 143t-78 173t-173.5 75l-45 -4q-88 -16 -141 -88t-68 -205z" />
<glyph unicode="&#xf5;" horiz-adv-x="1316" d="M51 512q0 236 163 385.5t437 149.5q55 0 183.5 -15.5t258.5 -127t151.5 -226.5t21.5 -176q0 -211 -135.5 -355.5t-279.5 -161t-200 -16.5q-276 0 -438 151.5t-162 391.5zM285 1165l4 41q43 231 235 232q61 0 133 -27l76 -27l17 -8q74 -29 114 -28q68 0 92 71l5 19h71v-54 q-8 -102 -64.5 -157.5t-144.5 -55.5q-53 0 -121 23l-79 27l-13 4q-96 37 -149 37q-76 0 -101 -82l-2 -15h-73zM399 512l4 -82q14 -152 81 -227.5t173 -75.5q117 0 190 93t73 276q0 45 -11.5 143t-78 173t-173.5 75l-45 -4q-88 -16 -141 -88t-68 -205z" />
<glyph unicode="&#xf6;" horiz-adv-x="1316" d="M51 504q0 233 163 383.5t435 150.5q27 0 56.5 -3t158.5 -17t265.5 -158.5t136.5 -351.5q0 -59 -23.5 -173t-152.5 -225.5t-256 -126t-183 -14.5q-276 0 -438 149.5t-162 385.5zM279 1292q0 66 46 112t111 46q74 0 121 -47t47 -115q0 -35 -10 -62.5t-37 -51.5 q-45 -49 -113 -50q-68 0 -116.5 49t-48.5 119zM399 502l4 -76q16 -147 82 -223t172 -76q104 0 172 76t84 223v154q-16 150 -82.5 224.5t-173.5 74.5l-45 -5q-90 -18 -142 -88.5t-67 -205.5zM711 1284q0 72 47 119t121 47q63 0 111 -48t48 -116q0 -66 -47 -114t-121 -48 q-66 0 -112.5 47t-46.5 113z" />
<glyph unicode="&#xf7;" horiz-adv-x="1122" d="M51 516v293h1020v-293h-1020zM375 276q0 74 53.5 127t135.5 53t136 -51t54 -121q0 -72 -57.5 -121t-134.5 -49q-80 0 -133.5 47t-53.5 115zM377 1026q0 66 54.5 114t136.5 48q76 0 132 -47.5t56 -114.5q0 -68 -55 -115t-135 -47q-84 0 -136.5 48t-52.5 114z" />
<glyph unicode="&#xf8;" horiz-adv-x="1316" d="M49 496q0 25 4 56.5t24.5 142t179.5 227t398 116.5q27 0 43.5 -1t108.5 -11t211 -78l80 76h137l-133 -135q76 -66 120 -165t44 -222q0 -233 -164 -383t-443 -150q-203 0 -342 80l-84 -82l-143 2l137 140l-14 14l-20 20q-143 154 -144 353zM412 506q0 -59 12 -127l10 -51 l422 450l-27 27q-76 66 -151 65q-55 0 -107.5 -25.5t-83 -67.5t-47 -95t-22.5 -92t-6 -84zM475 221q35 -49 85 -69.5t95 -20.5q109 0 183.5 93t74.5 255l-4 88l-12 103z" />
<glyph unicode="&#xf9;" horiz-adv-x="1468" d="M16 854v166h508v-619q0 -55 7.5 -103t54.5 -87t112 -39q55 0 104.5 24.5t84.5 65.5t46 81t11 116v291q0 59 -16.5 79.5t-67.5 20.5h-106v170h524v-756q0 -61 15.5 -80.5t60.5 -19.5h98v-164h-500v141l-24 -26q-115 -121 -217.5 -129.5t-126 -10.5t-35.5 -2 q-190 0 -274.5 102.5t-84.5 325.5v353v43l-4 22q-10 35 -49 35h-121zM477 1393l129 153l320 -315l-84 -96z" />
<glyph unicode="&#xfa;" horiz-adv-x="1468" d="M16 854v166h508v-619q0 -55 7.5 -103t54.5 -87t112 -39q55 0 104.5 24.5t84.5 65.5t46 81t11 116v291q0 59 -16.5 79.5t-67.5 20.5h-106v170h524v-756q0 -61 15.5 -80.5t60.5 -19.5h98v-164h-500v141l-24 -26q-115 -121 -217.5 -129.5t-126 -10.5t-35.5 -2 q-190 0 -274.5 102.5t-84.5 325.5v353v43l-4 22q-10 35 -49 35h-121zM535 1245l346 297l118 -162l-387 -243z" />
<glyph unicode="&#xfb;" horiz-adv-x="1468" d="M16 854v166h508v-619q0 -55 7.5 -103t54.5 -87t112 -39q55 0 104.5 24.5t84.5 65.5t46 81t11 116v291q0 59 -16.5 79.5t-67.5 20.5h-106v170h524v-756q0 -61 15.5 -80.5t60.5 -19.5h98v-164h-500v141l-24 -26q-115 -121 -217.5 -129.5t-126 -10.5t-35.5 -2 q-190 0 -274.5 102.5t-84.5 325.5v353v43l-4 22q-10 35 -49 35h-121zM387 1196l254 299h184l254 -299l-65 -61l-281 192l-280 -192z" />
<glyph unicode="&#xfc;" horiz-adv-x="1468" d="M16 854v166h508v-619q0 -55 7.5 -103t54.5 -87t112 -39q55 0 104.5 24.5t84.5 65.5t46 81t11 116v291q0 59 -16.5 79.5t-67.5 20.5h-106v170h522v-756q0 -61 15.5 -80.5t62.5 -19.5h98v-164h-510v141l-24 -26q-119 -123 -220.5 -131.5t-121 -9.5t-31.5 -1 q-188 0 -270 102.5t-82 325.5v353v43l-5 22q-10 35 -51 35h-121zM293 1309q0 68 47 112.5t115 44.5q66 0 116 -48t50 -118q0 -68 -48.5 -114.5t-117.5 -46.5q-70 0 -116 50t-46 120zM723 1303q0 68 48 115.5t116 47.5t116 -47t48 -116q0 -68 -45 -113q-45 -51 -117 -51 q-68 0 -117 47t-49 117z" />
<glyph unicode="&#xfd;" horiz-adv-x="1298" d="M16 -221q0 78 46 136t89 65.5t66 7.5q70 0 118 -44t48 -108q0 -14 -7.5 -64.5t-105.5 -80.5l-27 -4q35 -33 88 -33q51 0 100.5 33.5t90.5 103.5l16 29l17 30l53 109l-397 795l-13 24l-12 23q-25 41 -68 47l-12 2h-16h-70v170h715v-164h-109l-26 -2q-37 0 -37 -33 q0 -12 10 -39l12 -26l213 -437l222 437l12 26l10 23q4 6 4 18q0 33 -61 33h-107v164h516v-164l-16 -2l-51 -2q-37 -6 -66 -51l-18 -29l-10 -20l-471 -893l-35 -64q-47 -78 -88 -127t-114 -103t-202 -54q-100 0 -181 49t-103.5 113.5t-22.5 105.5zM551 1245l346 297l118 -162 l-387 -243z" />
<glyph unicode="&#xfe;" horiz-adv-x="1411" d="M16 -281h105q53 0 70.5 19.5t13.5 81.5v1200h4v180q0 61 -17.5 80.5t-70.5 19.5h-105v168h736v-168h-99q-68 0 -89 -19t-21 -81v-307q98 121 207 139q113 16 151 17q201 0 334 -143.5t133 -377.5q0 -248 -136 -397t-353 -149h-37q-14 2 -23 2q-125 12 -241 94l-35 26 v-284q0 -61 21.5 -81t88.5 -20h99v-168h-736v168zM535 506q0 -154 46 -237t106.5 -96t96.5 -13q160 0 201 130t41 228l-2 64q-12 139 -76.5 213.5t-161.5 74.5q-29 0 -93 -18t-111 -103t-47 -243z" />
<glyph unicode="&#xff;" horiz-adv-x="1298" d="M-41 -221q0 78 46 136t89 65.5t66 7.5q70 0 118 -44t48 -108q0 -14 -7.5 -64.5t-105.5 -80.5l-27 -4q35 -33 88 -33q51 0 100.5 33.5t90.5 103.5l16 29l17 30l53 109l-397 795l-13 24l-12 23q-25 41 -68 47l-12 2h-16h-70v170h715v-164h-109l-26 -2q-37 0 -37 -33 q0 -12 10 -39l12 -26l213 -437l222 437l12 26l10 23q4 6 4 18q0 33 -61 33h-107v164h516v-164l-16 -2l-51 -2q-37 -6 -66 -51l-18 -29l-10 -20l-471 -893l-35 -64q-47 -78 -88 -127t-114 -103t-202 -54q-100 0 -181 49t-103.5 113.5t-22.5 105.5zM285 1305q0 66 47 110.5 t114 44.5q70 0 118 -48t48 -116t-48 -114.5t-118 -46.5q-72 0 -116.5 49t-44.5 121zM690 1298q0 68 47 115t117 47q63 0 112.5 -47t49.5 -117q0 -63 -45 -112t-115 -49q-68 0 -117 46.5t-49 116.5z" />
<glyph unicode="&#x100;" horiz-adv-x="1689" d="M-35 0v180h55h15l14 2q39 4 62.5 25.5t48.5 79.5l491 1188h410l471 -1188q25 -63 47.5 -82t77.5 -25h12h55v-180h-757v180h145q51 0 51 29q0 10 -2 16l-24 62l-78 194h-565l-80 -194q-8 -20 -15.5 -42t-7.5 -34q0 -31 53 -31h154v-180h-633zM477 1620v201h737v-201h-737z M567 666h422l-209 536z" />
<glyph unicode="&#x101;" horiz-adv-x="1363" d="M45 254q0 199 272 268l172 33l61 14q115 29 166.5 68t51.5 98q0 8 -1.5 21.5t-10.5 48.5t-54 64.5t-95 36.5t-79 7h-27q-110 0 -184 -45q84 -31 84 -118q0 -57 -43 -96.5t-109 -39.5q-14 2 -20 2q-63 6 -104.5 49.5t-41.5 102.5q0 23 23 90.5t168 125.5t414 58 q20 0 40.5 -3t115 -16t173 -93t78.5 -215v-412v-35v-32q0 -25 7.5 -41.5t20.5 -26.5t32 -10q25 0 36 20l13 41l8 88v37l2 33h131v-39q0 -199 -56.5 -282t-193.5 -83q-229 0 -297 138l-12 30q-45 -68 -122 -109.5t-162 -53t-128 -11.5q-141 0 -225 61.5t-93 122t-10 78 t-1 25.5zM348 1165v201h737v-201h-737zM380 285q0 -27 12.5 -59.5t49.5 -55.5t90 -23q23 0 48.5 4.5t72.5 29t76.5 81.5t29.5 154v90q-43 -23 -71.5 -34t-92.5 -30l-47 -16q-90 -29 -129 -61.5t-39 -79.5z" />
<glyph unicode="&#x102;" horiz-adv-x="1689" d="M-35 0v180h55h15l14 2q39 4 62.5 25.5t48.5 79.5l491 1188h410l471 -1188q25 -63 47.5 -82t77.5 -25h12h55v-180h-757v180h145q51 0 51 29q0 10 -2 16l-24 62l-78 194h-565l-80 -194q-8 -20 -15.5 -42t-7.5 -34q0 -31 53 -31h154v-180h-633zM506 1864l69 64 q23 -35 95.5 -97.5t171.5 -62.5q102 0 174.5 61.5t99.5 98.5l70 -64q-6 -14 -16.5 -29.5t-94.5 -127t-233 -111.5q-145 0 -230.5 113.5t-105.5 154.5zM567 666h422l-209 536z" />
<glyph unicode="&#x103;" horiz-adv-x="1363" d="M45 254q0 199 272 268l172 33l61 14q115 29 166.5 68t51.5 98q0 8 -1.5 21.5t-10.5 48.5t-54 64.5t-95 36.5t-79 7h-27q-110 0 -184 -45q84 -31 84 -118q0 -57 -43 -96.5t-109 -39.5q-14 2 -20 2q-63 6 -104.5 49.5t-41.5 102.5q0 23 23 90.5t168 125.5t414 58 q20 0 40.5 -3t115 -16t173 -93t78.5 -215v-412v-35v-32q0 -25 7.5 -41.5t20.5 -26.5t32 -10q25 0 36 20l13 41l8 88v37l2 33h131v-39q0 -199 -56.5 -282t-193.5 -83q-229 0 -297 138l-12 30q-45 -68 -122 -109.5t-162 -53t-128 -11.5q-141 0 -225 61.5t-93 122t-10 78 t-1 25.5zM377 1409l69 64q23 -35 95.5 -97.5t171.5 -62.5q102 0 174.5 61.5t99.5 98.5l70 -64q-6 -14 -16.5 -29.5t-94.5 -127t-233 -111.5q-145 0 -230.5 113.5t-105.5 154.5zM380 285q0 -27 12.5 -59.5t49.5 -55.5t90 -23q23 0 48.5 4.5t72.5 29t76.5 81.5t29.5 154v90 q-43 -23 -71.5 -34t-92.5 -30l-47 -16q-90 -29 -129 -61.5t-39 -79.5z" />
<glyph unicode="&#x104;" horiz-adv-x="1689" d="M-35 0v180h55h15l14 2q39 4 62.5 25.5t48.5 79.5l491 1188h410l471 -1188q25 -63 47.5 -82t77.5 -25h12h55v-180h-757v180h145q51 0 51 29q0 10 -2 16l-24 62l-78 194h-565l-80 -194q-8 -20 -15.5 -42t-7.5 -34q0 -31 53 -31h154v-180h-633zM567 666h422l-209 536z M1360 -178q0 98 86 178h144q-68 -55 -68 -123q0 -66 66 -65q25 0 46 8t58 37l33 -62q-66 -129 -205 -129q-74 0 -117 41t-43 115z" />
<glyph unicode="&#x105;" horiz-adv-x="1363" d="M45 254q0 199 272 268l172 33l61 14q115 29 166.5 68t51.5 98q0 8 -1.5 21.5t-10.5 48.5t-54 64.5t-95 36.5t-79 7h-27q-110 0 -184 -45q84 -31 84 -118q0 -57 -43 -96.5t-109 -39.5q-14 2 -20 2q-63 6 -104.5 49.5t-41.5 102.5q0 23 23 90.5t168 125.5t414 58 q20 0 40.5 -3t115 -16t173 -93t78.5 -215v-412v-35v-32q0 -25 7.5 -41.5t20.5 -26.5t32 -10q25 0 36 20l13 41l8 88v37l2 33h131v-39q0 -199 -56.5 -282t-193.5 -83q-229 0 -297 138l-12 30q-45 -68 -122 -109.5t-162 -53t-128 -11.5q-141 0 -225 61.5t-93 122t-10 78 t-1 25.5zM380 285q0 -27 12.5 -59.5t49.5 -55.5t90 -23q23 0 48.5 4.5t72.5 29t76.5 81.5t29.5 154v90q-43 -23 -71.5 -34t-92.5 -30l-47 -16q-90 -29 -129 -61.5t-39 -79.5zM1001 -178q0 98 86 178h144q-68 -55 -68 -123q0 -66 66 -65q25 0 46 8t58 37l33 -62 q-66 -129 -205 -129q-74 0 -117 41t-43 115z" />
<glyph unicode="&#x106;" horiz-adv-x="1554" d="M49 729q0 78 30 247t198.5 333t310 186.5t192.5 24.5t56 2q125 0 231.5 -34t189.5 -102l50 -45l55 129h176v-563h-205l-6 54q-31 182 -144.5 275t-297.5 93q-186 0 -300 -146.5t-114 -410.5q0 -59 13.5 -191t100.5 -252t186 -147.5t161 -27.5q145 0 252.5 95t134.5 251 l6 65h209l-4 -84q-29 -238 -205 -378t-467 -140q-53 0 -239.5 17.5t-378 225.5t-191.5 523zM639 1700l346 297l118 -162l-387 -243z" />
<glyph unicode="&#x107;" horiz-adv-x="1148" d="M49 492q0 66 25.5 188.5t156.5 234t239 123t127 12.5t46 1q168 0 287 -66.5t153.5 -149.5t34.5 -130q0 -80 -50 -134.5t-130 -54.5q-86 0 -143.5 46t-57.5 110q0 59 49 102l35 25q27 16 64 22q-66 70 -183 70q-63 0 -138 -28.5t-119 -120t-44 -253.5q0 -152 60.5 -239.5 t129 -103t105.5 -15.5q193 0 242 225l4 35h178l-6 -61q-27 -172 -150.5 -269.5t-326.5 -97.5q-20 0 -44 2t-150 13.5t-260 152.5t-134 361zM430 1245l346 297l118 -162l-387 -243z" />
<glyph unicode="&#x108;" horiz-adv-x="1554" d="M49 729q0 78 30 247t198.5 333t310 186.5t192.5 24.5t56 2q125 0 231.5 -34t189.5 -102l50 -45l55 129h176v-563h-205l-6 54q-31 182 -144.5 275t-297.5 93q-186 0 -300 -146.5t-114 -410.5q0 -59 13.5 -191t100.5 -252t186 -147.5t161 -27.5q145 0 252.5 95t134.5 251 l6 65h209l-4 -84q-29 -238 -205 -378t-467 -140q-53 0 -239.5 17.5t-378 225.5t-191.5 523zM449 1651l254 299h184l254 -299l-65 -61l-281 192l-281 -192z" />
<glyph unicode="&#x109;" horiz-adv-x="1148" d="M49 492q0 66 25.5 188.5t156.5 234t239 123t127 12.5t46 1q168 0 287 -66.5t153.5 -149.5t34.5 -130q0 -80 -50 -134.5t-130 -54.5q-86 0 -143.5 46t-57.5 110q0 59 49 102l35 25q27 16 64 22q-66 70 -183 70q-63 0 -138 -28.5t-119 -120t-44 -253.5q0 -152 60.5 -239.5 t129 -103t105.5 -15.5q193 0 242 225l4 35h178l-6 -61q-27 -172 -150.5 -269.5t-326.5 -97.5q-20 0 -44 2t-150 13.5t-260 152.5t-134 361zM240 1196l254 299h184l254 -299l-65 -61l-281 192l-281 -192z" />
<glyph unicode="&#x10a;" horiz-adv-x="1554" d="M49 729q0 78 30 247t198.5 333t310 186.5t192.5 24.5t56 2q125 0 231.5 -34t189.5 -102l50 -45l55 129h176v-563h-205l-6 54q-31 182 -144.5 275t-297.5 93q-186 0 -300 -146.5t-114 -410.5q0 -59 13.5 -191t100.5 -252t186 -147.5t161 -27.5q145 0 252.5 95t134.5 251 l6 65h209l-4 -84q-29 -238 -205 -378t-467 -140q-53 0 -239.5 17.5t-378 225.5t-191.5 523zM598 1778q0 72 52.5 128t134.5 56q86 0 146.5 -49t60.5 -127q0 -72 -57.5 -124t-139.5 -52q-86 0 -141.5 49t-55.5 119z" />
<glyph unicode="&#x10b;" horiz-adv-x="1148" d="M49 492q0 66 25.5 188.5t156.5 234t239 123t127 12.5t46 1q168 0 287 -66.5t153.5 -149.5t34.5 -130q0 -80 -50 -134.5t-130 -54.5q-86 0 -143.5 46t-57.5 110q0 59 49 102l35 25q27 16 64 22q-66 70 -183 70q-63 0 -138 -28.5t-119 -120t-44 -253.5q0 -152 60.5 -239.5 t129 -103t105.5 -15.5q193 0 242 225l4 35h178l-6 -61q-27 -172 -150.5 -269.5t-326.5 -97.5q-20 0 -44 2t-150 13.5t-260 152.5t-134 361zM389 1323q0 72 52.5 128t134.5 56q86 0 146.5 -49t60.5 -127q0 -72 -57.5 -124t-139.5 -52q-86 0 -141.5 49t-55.5 119z" />
<glyph unicode="&#x10c;" horiz-adv-x="1554" d="M49 729q0 78 30 247t198.5 333t310 186.5t192.5 24.5t56 2q125 0 231.5 -34t189.5 -102l50 -45l55 129h176v-563h-205l-6 54q-31 182 -144.5 275t-297.5 93q-186 0 -300 -146.5t-114 -410.5q0 -59 13.5 -191t100.5 -252t186 -147.5t161 -27.5q145 0 252.5 95t134.5 251 l6 65h209l-4 -84q-29 -238 -205 -378t-467 -140q-53 0 -239.5 17.5t-378 225.5t-191.5 523zM449 1889l65 61l281 -192l281 192l65 -61l-256 -297h-182z" />
<glyph unicode="&#x10d;" horiz-adv-x="1148" d="M49 492q0 66 25.5 188.5t156.5 234t239 123t127 12.5t46 1q168 0 287 -66.5t153.5 -149.5t34.5 -130q0 -80 -50 -134.5t-130 -54.5q-86 0 -143.5 46t-57.5 110q0 59 49 102l35 25q27 16 64 22q-66 70 -183 70q-63 0 -138 -28.5t-119 -120t-44 -253.5q0 -152 60.5 -239.5 t129 -103t105.5 -15.5q193 0 242 225l4 35h178l-6 -61q-27 -172 -150.5 -269.5t-326.5 -97.5q-20 0 -44 2t-150 13.5t-260 152.5t-134 361zM240 1434l65 61l281 -192l281 192l65 -61l-256 -297h-182z" />
<glyph unicode="&#x10e;" horiz-adv-x="1828" d="M16 1294v181h873q428 0 660.5 -186.5t232.5 -516.5q0 -84 -35 -269.5t-223.5 -342t-491.5 -156.5l-127 -4h-887v180h146q78 0 99.5 19.5t21.5 87.5v59v840q0 70 -14.5 88t-71.5 18l-25 2h-158zM553 1889l65 61l281 -192l281 192l65 -61l-256 -297h-182zM668 182h235 q213 0 321.5 110.5t125 250t16.5 167v42.5q0 45 -19.5 194.5t-121 246.5t-322.5 97h-233z" />
<glyph unicode="&#x10f;" horiz-adv-x="1558" d="M49 500q0 63 22.5 193t156.5 246t313 116q66 0 160 -25.5t182 -111.5v292q0 59 -20.5 80t-84.5 21h-106v164h545v-1211q0 -57 18 -77.5t72 -20.5h102v-166h-518v135l-31 -33q-139 -125 -317 -125q-53 0 -172 27t-220.5 161t-101.5 335zM401 524l2 -67q12 -143 78 -219 t164 -76q12 0 24.5 1t47.5 9q86 27 131 112t45 242q0 133 -47 217t-106.5 104.5t-100.5 20.5q-90 0 -153.5 -73.5t-79.5 -212.5zM1300 991l15 8l35 23q61 37 95 70.5t48 70.5l-33 -4q-72 -6 -114.5 43t-42.5 107q0 72 53 121t125 49q80 0 142.5 -59.5t62.5 -149.5 q0 -88 -71 -185.5t-212 -181.5l-37 -20z" />
<glyph unicode="&#x110;" horiz-adv-x="1828" d="M0 1294v181h873q428 0 660.5 -186.5t232.5 -516.5q0 -84 -35 -269.5t-223.5 -342t-491.5 -156.5l-127 -4h-887v180h146q78 0 99.5 19.5t21.5 87.5v59v840q0 70 -14.5 88t-71.5 18l-25 2h-158zM1 696v82h737v-82h-737zM652 182h235q213 0 321.5 110.5t125 250t16.5 167 v42.5q0 45 -19.5 194.5t-121 246.5t-322.5 97h-233z" />
<glyph unicode="&#x111;" horiz-adv-x="1425" d="M49 500q0 63 22.5 193t156.5 246t313 116q66 0 160 -25.5t182 -111.5v292q0 59 -20.5 80t-84.5 21h-106v164h545v-1211q0 -57 18 -77.5t72 -20.5h102v-166h-518v135l-31 -33q-139 -125 -317 -125q-53 0 -172 27t-220.5 161t-101.5 335zM401 524l2 -67q12 -143 78 -219 t164 -76q12 0 24.5 1t47.5 9q86 27 131 112t45 242q0 133 -47 217t-106.5 104.5t-100.5 20.5q-90 0 -153.5 -73.5t-79.5 -212.5zM631 1122v82h737v-82h-737z" />
<glyph unicode="&#x112;" horiz-adv-x="1675" d="M16 0v180h152h22q59 0 76 19.5t17 87.5v73v828q0 68 -15.5 87t-70.5 19h-23h-158v181h1608v-566h-197v90q0 160 -95 230.5t-316 70.5h-350v-444h157q96 0 138.5 42t42.5 144v48h180v-656h-176v58q0 182 -174 182h-168v-490h360l66 2q176 0 255.5 80t79.5 252l3 84h194 v-602h-1608zM453 1620v201h737v-201h-737z" />
<glyph unicode="&#x113;" horiz-adv-x="1202" d="M51 506q0 238 160 391.5t418 153.5q233 0 383.5 -136.5t150.5 -357.5v-82h-778v-47q0 -115 58.5 -188.5t125 -90t107.5 -16.5q90 0 158.5 52.5t97.5 148.5l6 28h213q-27 -174 -166 -282.5t-350 -108.5h-72q-33 6 -146.5 21.5t-239.5 159t-126 354.5zM240 1165v201h737 v-201h-737zM391 625h451v30q0 109 -60.5 173.5t-150.5 64.5q-31 0 -80 -13.5t-95 -71.5t-61 -142z" />
<glyph unicode="&#x114;" horiz-adv-x="1675" d="M16 0v180h152h22q59 0 76 19.5t17 87.5v73v828q0 68 -15.5 87t-70.5 19h-23h-158v181h1608v-566h-197v90q0 160 -95 230.5t-316 70.5h-350v-444h157q96 0 138.5 42t42.5 144v48h180v-656h-176v58q0 182 -174 182h-168v-490h360l66 2q176 0 255.5 80t79.5 252l3 84h194 v-602h-1608zM482 1864l69 64q23 -35 95.5 -97.5t171.5 -62.5q102 0 174.5 61.5t99.5 98.5l70 -64q-6 -14 -16.5 -29.5t-94.5 -127t-233 -111.5q-145 0 -230.5 113.5t-105.5 154.5z" />
<glyph unicode="&#x115;" horiz-adv-x="1202" d="M51 506q0 238 160 391.5t418 153.5q233 0 383.5 -136.5t150.5 -357.5v-82h-778v-47q0 -115 58.5 -188.5t125 -90t107.5 -16.5q90 0 158.5 52.5t97.5 148.5l6 28h213q-27 -174 -166 -282.5t-350 -108.5h-72q-33 6 -146.5 21.5t-239.5 159t-126 354.5zM269 1409l69 64 q23 -35 95.5 -97.5t171.5 -62.5q102 0 174.5 61.5t99.5 98.5l70 -64q-6 -14 -16.5 -29.5t-94.5 -127t-233 -111.5q-145 0 -230.5 113.5t-105.5 154.5zM391 625h451v30q0 109 -60.5 173.5t-150.5 64.5q-31 0 -80 -13.5t-95 -71.5t-61 -142z" />
<glyph unicode="&#x116;" horiz-adv-x="1675" d="M16 0v180h152h22q59 0 76 19.5t17 87.5v73v828q0 68 -15.5 87t-70.5 19h-23h-158v181h1608v-566h-197v90q0 160 -95 230.5t-316 70.5h-350v-444h157q96 0 138.5 42t42.5 144v48h180v-656h-176v58q0 182 -174 182h-168v-490h360l66 2q176 0 255.5 80t79.5 252l3 84h194 v-602h-1608zM624 1778q0 72 52.5 128t134.5 56q86 0 146.5 -49t60.5 -127q0 -72 -57.5 -124t-139.5 -52q-86 0 -141.5 49t-55.5 119z" />
<glyph unicode="&#x117;" horiz-adv-x="1202" d="M51 506q0 238 160 391.5t418 153.5q233 0 383.5 -136.5t150.5 -357.5v-82h-778v-47q0 -115 58.5 -188.5t125 -90t107.5 -16.5q90 0 158.5 52.5t97.5 148.5l6 28h213q-27 -174 -166 -282.5t-350 -108.5h-72q-33 6 -146.5 21.5t-239.5 159t-126 354.5zM391 625h451v30 q0 109 -60.5 173.5t-150.5 64.5q-31 0 -80 -13.5t-95 -71.5t-61 -142zM411 1323q0 72 52.5 128t134.5 56q86 0 146.5 -49t60.5 -127q0 -72 -57.5 -124t-139.5 -52q-86 0 -141.5 49t-55.5 119z" />
<glyph unicode="&#x118;" horiz-adv-x="1675" d="M16 0v180h152h22q59 0 76 19.5t17 87.5v73v828q0 68 -15.5 87t-70.5 19h-23h-158v181h1608v-566h-197v90q0 160 -95 230.5t-316 70.5h-350v-444h157q96 0 138.5 42t42.5 144v48h180v-656h-176v58q0 182 -174 182h-168v-490h360l66 2q176 0 255.5 80t79.5 252l3 84h194 v-602h-1608zM1259 -178q0 98 86 178h144q-68 -55 -68 -123q0 -66 66 -65q25 0 46 8t58 37l33 -62q-66 -129 -205 -129q-74 0 -117 41t-43 115z" />
<glyph unicode="&#x119;" horiz-adv-x="1202" d="M51 506q0 238 160 391.5t418 153.5q233 0 383.5 -136.5t150.5 -357.5v-82h-778v-47q0 -115 58.5 -188.5t125 -90t107.5 -16.5q90 0 158.5 52.5t97.5 148.5l6 28h213q-27 -174 -166 -282.5t-350 -108.5h-72q-33 6 -146.5 21.5t-239.5 159t-126 354.5zM391 625h451v30 q0 109 -60.5 173.5t-150.5 64.5q-31 0 -80 -13.5t-95 -71.5t-61 -142zM798 -74q0 98 86 178h144q-68 -55 -68 -123q0 -66 66 -65q25 0 46 8t58 37l33 -62q-66 -129 -205 -129q-74 0 -117 41t-43 115z" />
<glyph unicode="&#x11a;" horiz-adv-x="1675" d="M16 0v180h152h22q59 0 76 19.5t17 87.5v73v828q0 68 -15.5 87t-70.5 19h-23h-158v181h1608v-566h-197v90q0 160 -95 230.5t-316 70.5h-350v-444h157q96 0 138.5 42t42.5 144v48h180v-656h-176v58q0 182 -174 182h-168v-490h360l66 2q176 0 255.5 80t79.5 252l3 84h194 v-602h-1608zM475 1889l65 61l281 -192l281 192l65 -61l-256 -297h-182z" />
<glyph unicode="&#x11b;" horiz-adv-x="1202" d="M51 506q0 238 160 391.5t418 153.5q233 0 383.5 -136.5t150.5 -357.5v-82h-778v-47q0 -115 58.5 -188.5t125 -90t107.5 -16.5q90 0 158.5 52.5t97.5 148.5l6 28h213q-27 -174 -166 -282.5t-350 -108.5h-72q-33 6 -146.5 21.5t-239.5 159t-126 354.5zM262 1434l65 61 l281 -192l281 192l65 -61l-256 -297h-182zM391 625h451v30q0 109 -60.5 173.5t-150.5 64.5q-31 0 -80 -13.5t-95 -71.5t-61 -142z" />
<glyph unicode="&#x11c;" horiz-adv-x="1794" d="M51 713q0 100 33 256.5t190.5 313.5t317.5 188.5t248 31.5q229 0 328 -70.5t130 -101.5l39 144h197v-566h-199q0 16 -6 37t-54 192t-384 171q-193 0 -303.5 -159t-110.5 -445q0 -47 8.5 -92.5t32 -122t73.5 -150.5t135 -127t200 -53q111 0 170 44t80.5 78.5t21.5 61.5 v129l-2 31q-4 45 -18.5 61.5t-49.5 16.5h-53h-31l-92 2v180l813 -6v-180h-116q-45 0 -64.5 -15.5t-23.5 -56.5l-2 -21v-14v-471h-173l-63 152l-45 -41q-94 -76 -195.5 -112t-236.5 -36q-78 0 -264.5 26.5t-358.5 229.5t-172 494zM563 1651l254 299h184l254 -299l-65 -61 l-281 192l-281 -192z" />
<glyph unicode="&#x11d;" horiz-adv-x="1372" d="M18 -258q0 102 58.5 137t81.5 46.5t39 17.5l-35 16q-53 35 -81 78t-28 94q0 96 74 150.5t117 74.5l-31 25q-57 55 -87 126t-30 144q0 90 42 170t152.5 154t313.5 74q84 0 161 -16.5t135 -41t110 -59.5l18 24q61 78 119.5 91.5t93.5 13.5q66 0 117 -31t70.5 -76t19.5 -86 q0 -59 -37 -102t-92 -43q-57 0 -94 35t-37 88q0 27 6 43t10 25.5t15 21.5q-16 4 -23 4q-43 0 -67.5 -39t-24.5 -59q0 -12 6 -35l4 -19l8 -32q12 -55 13 -107q0 -88 -45.5 -175t-137.5 -141t-245 -71h-156q-33 0 -66.5 5t-76.5 16l-15 4l-35 8q-20 4 -24 4q-25 0 -42.5 -25.5 t-17.5 -44.5q0 -53 51.5 -68.5t78 -19.5t79.5 -4h49l144 4h78q154 0 233.5 -12t148 -44t110.5 -99.5t42 -143.5q0 -86 -60.5 -168t-221 -127t-449.5 -45q-43 0 -81 2t-132 16.5t-151.5 34t-116 65.5t-58.5 122zM279 -223q6 -39 49 -66.5t113.5 -42t167 -16.5t118.5 -2 l129 14q100 18 138 47t38 72q0 45 -39 67.5t-137 32.5l-37 4l-143 4l-144 5q-115 0 -151.5 -4.5t-74 -33t-27.5 -81.5zM387 1196l254 299h184l254 -299l-65 -61l-281 192l-281 -192zM403 643q0 -106 43 -163.5t91.5 -67t57.5 -10.5t26 -1q23 0 70.5 9.5t91.5 68t44 164.5v31 q-4 23 -8 74t-59 105t-135 54q-20 0 -121 -24.5t-101 -239.5z" />
<glyph unicode="&#x11e;" horiz-adv-x="1794" d="M51 713q0 100 33 256.5t190.5 313.5t317.5 188.5t248 31.5q229 0 328 -70.5t130 -101.5l39 144h197v-566h-199q0 16 -6 37t-54 192t-384 171q-193 0 -303.5 -159t-110.5 -445q0 -47 8.5 -92.5t32 -122t73.5 -150.5t135 -127t200 -53q111 0 170 44t80.5 78.5t21.5 61.5 v129l-2 31q-4 45 -18.5 61.5t-49.5 16.5h-53h-31l-92 2v180l813 -6v-180h-116q-45 0 -64.5 -15.5t-23.5 -56.5l-2 -21v-14v-471h-173l-63 152l-45 -41q-94 -76 -195.5 -112t-236.5 -36q-78 0 -264.5 26.5t-358.5 229.5t-172 494zM570 1864l69 64q23 -35 95.5 -97.5 t171.5 -62.5q102 0 174.5 61.5t99.5 98.5l70 -64q-6 -14 -16.5 -29.5t-94.5 -127t-233 -111.5q-145 0 -230.5 113.5t-105.5 154.5z" />
<glyph unicode="&#x11f;" horiz-adv-x="1372" d="M18 -258q0 102 58.5 137t81.5 46.5t39 17.5l-35 16q-53 35 -81 78t-28 94q0 96 74 150.5t117 74.5l-31 25q-57 55 -87 126t-30 144q0 90 42 170t152.5 154t313.5 74q84 0 161 -16.5t135 -41t110 -59.5l18 24q61 78 119.5 91.5t93.5 13.5q66 0 117 -31t70.5 -76t19.5 -86 q0 -59 -37 -102t-92 -43q-57 0 -94 35t-37 88q0 27 6 43t10 25.5t15 21.5q-16 4 -23 4q-43 0 -67.5 -39t-24.5 -59q0 -12 6 -35l4 -19l8 -32q12 -55 13 -107q0 -88 -45.5 -175t-137.5 -141t-245 -71h-156q-33 0 -66.5 5t-76.5 16l-15 4l-35 8q-20 4 -24 4q-25 0 -42.5 -25.5 t-17.5 -44.5q0 -53 51.5 -68.5t78 -19.5t79.5 -4h49l144 4h78q154 0 233.5 -12t148 -44t110.5 -99.5t42 -143.5q0 -86 -60.5 -168t-221 -127t-449.5 -45q-43 0 -81 2t-132 16.5t-151.5 34t-116 65.5t-58.5 122zM279 -223q6 -39 49 -66.5t113.5 -42t167 -16.5t118.5 -2 l129 14q100 18 138 47t38 72q0 45 -39 67.5t-137 32.5l-37 4l-143 4l-144 5q-115 0 -151.5 -4.5t-74 -33t-27.5 -81.5zM394 1409l69 64q23 -35 95.5 -97.5t171.5 -62.5q102 0 174.5 61.5t99.5 98.5l70 -64q-6 -14 -16.5 -29.5t-94.5 -127t-233 -111.5q-145 0 -230.5 113.5 t-105.5 154.5zM403 643q0 -106 43 -163.5t91.5 -67t57.5 -10.5t26 -1q23 0 70.5 9.5t91.5 68t44 164.5v31q-4 23 -8 74t-59 105t-135 54q-20 0 -121 -24.5t-101 -239.5z" />
<glyph unicode="&#x120;" horiz-adv-x="1794" d="M51 713q0 100 33 256.5t190.5 313.5t317.5 188.5t248 31.5q229 0 328 -70.5t130 -101.5l39 144h197v-566h-199q0 16 -6 37t-54 192t-384 171q-193 0 -303.5 -159t-110.5 -445q0 -47 8.5 -92.5t32 -122t73.5 -150.5t135 -127t200 -53q111 0 170 44t80.5 78.5t21.5 61.5 v129l-2 31q-4 45 -18.5 61.5t-49.5 16.5h-53h-31l-92 2v180l813 -6v-180h-116q-45 0 -64.5 -15.5t-23.5 -56.5l-2 -21v-14v-471h-173l-63 152l-45 -41q-94 -76 -195.5 -112t-236.5 -36q-78 0 -264.5 26.5t-358.5 229.5t-172 494zM712 1778q0 72 52.5 128t134.5 56 q86 0 146.5 -49t60.5 -127q0 -72 -57.5 -124t-139.5 -52q-86 0 -141.5 49t-55.5 119z" />
<glyph unicode="&#x121;" horiz-adv-x="1372" d="M18 -258q0 102 58.5 137t81.5 46.5t39 17.5l-35 16q-53 35 -81 78t-28 94q0 96 74 150.5t117 74.5l-31 25q-57 55 -87 126t-30 144q0 90 42 170t152.5 154t313.5 74q84 0 161 -16.5t135 -41t110 -59.5l18 24q61 78 119.5 91.5t93.5 13.5q66 0 117 -31t70.5 -76t19.5 -86 q0 -59 -37 -102t-92 -43q-57 0 -94 35t-37 88q0 27 6 43t10 25.5t15 21.5q-16 4 -23 4q-43 0 -67.5 -39t-24.5 -59q0 -12 6 -35l4 -19l8 -32q12 -55 13 -107q0 -88 -45.5 -175t-137.5 -141t-245 -71h-156q-33 0 -66.5 5t-76.5 16l-15 4l-35 8q-20 4 -24 4q-25 0 -42.5 -25.5 t-17.5 -44.5q0 -53 51.5 -68.5t78 -19.5t79.5 -4h49l144 4h78q154 0 233.5 -12t148 -44t110.5 -99.5t42 -143.5q0 -86 -60.5 -168t-221 -127t-449.5 -45q-43 0 -81 2t-132 16.5t-151.5 34t-116 65.5t-58.5 122zM279 -223q6 -39 49 -66.5t113.5 -42t167 -16.5t118.5 -2 l129 14q100 18 138 47t38 72q0 45 -39 67.5t-137 32.5l-37 4l-143 4l-144 5q-115 0 -151.5 -4.5t-74 -33t-27.5 -81.5zM403 643q0 -106 43 -163.5t91.5 -67t57.5 -10.5t26 -1q23 0 70.5 9.5t91.5 68t44 164.5v31q-4 23 -8 74t-59 105t-135 54q-20 0 -121 -24.5t-101 -239.5z M536 1323q0 72 52.5 128t134.5 56q86 0 146.5 -49t60.5 -127q0 -72 -57.5 -124t-139.5 -52q-86 0 -141.5 49t-55.5 119z" />
<glyph unicode="&#x122;" horiz-adv-x="1634" d="M51 713q0 100 33 256.5t190.5 313.5t317.5 188.5t248 31.5q229 0 328 -70.5t130 -101.5l39 144h197v-566h-199q0 16 -6 37t-54 192t-384 171q-193 0 -303.5 -159t-110.5 -445q0 -47 8.5 -92.5t32 -122t73.5 -150.5t135 -127t200 -53q111 0 170 44t80.5 78.5t21.5 61.5 v129l-2 31q-4 45 -18.5 61.5t-49.5 16.5h-53h-31l-92 2v180l813 -6v-180h-116q-45 0 -64.5 -15.5t-23.5 -56.5l-2 -21v-14v-471h-173l-63 152l-45 -41q-94 -76 -195.5 -112t-236.5 -36q-78 0 -264.5 26.5t-358.5 229.5t-172 494zM725 -449l29 80l24 -4h12.5t12.5 -2 q14 0 53 8.5t55.5 29t16.5 36.5q0 35 -27 47t-46 16.5t-46 4.5h-47l35 71l98 25q12 4 39 4q47 0 99 -34t52 -114q0 -55 -39.5 -97t-91 -63.5t-120.5 -21.5q-37 0 -59.5 2t-49.5 12z" />
<glyph unicode="&#x123;" horiz-adv-x="1271" d="M18 -258q0 102 58.5 137t81.5 46.5t39 17.5l-35 16q-53 35 -81 78t-28 94q0 96 74 150.5t117 74.5l-31 25q-57 55 -87 126t-30 144q0 90 42 170t152.5 154t313.5 74q84 0 161 -16.5t135 -41t110 -59.5l18 24q61 78 119.5 91.5t93.5 13.5q66 0 117 -31t70.5 -76t19.5 -86 q0 -59 -37 -102t-92 -43q-57 0 -94 35t-37 88q0 27 6 43t10 25.5t15 21.5q-16 4 -23 4q-43 0 -67.5 -39t-24.5 -59q0 -12 6 -35l4 -19l8 -32q12 -55 13 -107q0 -88 -45.5 -175t-137.5 -141t-245 -71h-156q-33 0 -66.5 5t-76.5 16l-15 4l-35 8q-20 4 -24 4q-25 0 -42.5 -25.5 t-17.5 -44.5q0 -53 51.5 -68.5t78 -19.5t79.5 -4h49l144 4h78q154 0 233.5 -12t148 -44t110.5 -99.5t42 -143.5q0 -86 -60.5 -168t-221 -127t-449.5 -45q-43 0 -81 2t-132 16.5t-151.5 34t-116 65.5t-58.5 122zM279 -223q6 -39 49 -66.5t113.5 -42t167 -16.5t118.5 -2 l129 14q100 18 138 47t38 72q0 45 -39 67.5t-137 32.5l-37 4l-143 4l-144 5q-115 0 -151.5 -4.5t-74 -33t-27.5 -81.5zM403 643q0 -106 43 -163.5t91.5 -67t57.5 -10.5t26 -1q23 0 70.5 9.5t91.5 68t44 164.5v31q-4 23 -8 74t-59 105t-135 54q-20 0 -121 -24.5t-101 -239.5z M438 1386q0 88 71 185.5t212 181.5l37 21l65 -109l-14 -8l-35 -23q-61 -37 -95 -70.5t-48 -70.5l33 4q72 6 114.5 -43t42.5 -106q0 -72 -53 -121t-125 -49q-80 0 -142.5 59t-62.5 149z" />
<glyph unicode="&#x124;" horiz-adv-x="1978" d="M16 0v180h160h21q49 0 65.5 20.5t16.5 86.5v901q0 68 -12.5 85t-67.5 21h-21h-160v181h873v-181h-152q-76 0 -75 -45l-2 -63v-342h655v342l-2 55v8q-2 23 -19.5 34t-54.5 11h-154v181h875v-181h-160h-22q-51 -4 -65.5 -22.5t-14.5 -83.5v-901q0 -66 15.5 -86.5 t64.5 -20.5h22h160v-180h-870v180h135q59 0 74.5 17.5t15.5 89.5v377h-655v-377l2 -49v-13q4 -29 25.5 -37t45.5 -8h152v-180h-871zM643 1651l254 299h184l254 -299l-65 -61l-281 192l-281 -192z" />
<glyph unicode="&#x125;" horiz-adv-x="1488" d="M16 0v164h105q55 0 73.5 20.5t18.5 79.5l2 70v876v45q-4 25 -15.5 35t-26.5 14.5t-44 4.5h-111v166h533v-588q88 98 190.5 130t180.5 32q37 0 210 -29t173 -342v-412v-22l2 -27q0 -53 47 -53h119v-164h-658v164h109q47 0 47 51v8v41v373q0 217 -164 217q-33 0 -86 -16.5 t-95 -60.5t-58.5 -88t-16.5 -109v-316v-10v-39q0 -51 41 -51h106v-164h-682zM399 1659l254 299h184l254 -299l-65 -61l-281 192l-281 -192z" />
<glyph unicode="&#x126;" horiz-adv-x="1978" d="M16 0v180h160h21q49 0 65.5 20.5t16.5 86.5v901q0 68 -12.5 85t-67.5 21h-21h-160v181h873v-181h-152q-76 0 -75 -45l-2 -63v-342h655v342l-2 55v8q-2 23 -19.5 34t-54.5 11h-154v181h875v-181h-160h-22q-51 -4 -65.5 -22.5t-14.5 -83.5v-901q0 -66 15.5 -86.5 t64.5 -20.5h22h160v-180h-870v180h135q59 0 74.5 17.5t15.5 89.5v377h-655v-377l2 -49v-13q4 -29 25.5 -37t45.5 -8h152v-180h-871zM78 1069v82h737v-82h-737z" />
<glyph unicode="&#x127;" horiz-adv-x="1488" d="M16 0v164h105q55 0 73.5 20.5t18.5 79.5l2 70v876v45q-4 25 -15.5 35t-26.5 14.5t-44 4.5h-111v166h533v-588q88 98 190.5 130t180.5 32q37 0 210 -29t173 -342v-412v-22l2 -27q0 -53 47 -53h119v-164h-658v164h109q47 0 47 51v8v41v373q0 217 -164 217q-33 0 -86 -16.5 t-95 -60.5t-58.5 -88t-16.5 -109v-316v-10v-39q0 -51 41 -51h106v-164h-682zM17 1102v82h737v-82h-737z" />
<glyph unicode="&#x128;" d="M16 1294v181h910v-181h-156h-18l-29 -4q-39 -4 -48 -32.5t-9 -71.5l-2 -899q0 -70 13 -88.5t66 -18.5h23h160v-180h-908v180h152h23q55 0 71.5 20.5t16.5 86.5v69l2 830q0 68 -15.5 87t-70.5 19l-21 2h-160zM98 1620l4 41q43 231 236 232q61 0 133 -27l75 -27l17 -8 q74 -29 114 -28q68 0 93 71l4 19h71v-54q-8 -102 -64 -157.5t-144 -55.5q-53 0 -121 23l-80 27l-12 4q-96 37 -150 37q-76 0 -100 -82l-2 -15h-74z" />
<glyph unicode="&#x129;" horiz-adv-x="761" d="M10 1165l4 41q43 231 236 232q61 0 133 -27l75 -27l17 -8q74 -29 114 -28q68 0 93 71l4 19h71v-54q-8 -102 -64 -157.5t-144 -55.5q-53 0 -121 23l-80 27l-12 4q-96 37 -150 37q-76 0 -100 -82l-2 -15h-74zM31 0v164h106q53 0 71.5 20.5t18.5 79.5v74v414q0 59 -16 79.5 t-66 20.5h-108v168h524v-756v-37l2 -12q6 -51 70 -51h106v-164h-708z" />
<glyph unicode="&#x12a;" d="M16 1294v181h910v-181h-156h-18l-29 -4q-39 -4 -48 -32.5t-9 -71.5l-2 -899q0 -70 13 -88.5t66 -18.5h23h160v-180h-908v180h152h23q55 0 71.5 20.5t16.5 86.5v69l2 830q0 68 -15.5 87t-70.5 19l-21 2h-160zM102 1620v201h737v-201h-737z" />
<glyph unicode="&#x12b;" horiz-adv-x="761" d="M14 1165v201h737v-201h-737zM29 0v164h106q53 0 71.5 20.5t18.5 79.5v74v414q0 59 -16 79.5t-66 20.5h-108v168h524v-756v-37l2 -12q6 -51 70 -51h106v-164h-708z" />
<glyph unicode="&#x12c;" d="M16 1294v181h910v-181h-156h-18l-29 -4q-39 -4 -48 -32.5t-9 -71.5l-2 -899q0 -70 13 -88.5t66 -18.5h23h160v-180h-908v180h152h23q55 0 71.5 20.5t16.5 86.5v69l2 830q0 68 -15.5 87t-70.5 19l-21 2h-160zM131 1864l69 64q23 -35 95.5 -97.5t171.5 -62.5 q102 0 174.5 61.5t99.5 98.5l70 -64q-6 -14 -16.5 -29.5t-94.5 -127t-233 -111.5q-145 0 -230.5 113.5t-105.5 154.5z" />
<glyph unicode="&#x12d;" horiz-adv-x="761" d="M29 0v164h106q53 0 71.5 20.5t18.5 79.5v74v414q0 59 -16 79.5t-66 20.5h-108v168h524v-756v-37l2 -12q6 -51 70 -51h106v-164h-708zM43 1409l69 64q23 -35 95.5 -97.5t171.5 -62.5q102 0 174.5 61.5t99.5 98.5l70 -64q-6 -14 -16.5 -29.5t-94.5 -127t-233 -111.5 q-145 0 -230.5 113.5t-105.5 154.5z" />
<glyph unicode="&#x12e;" d="M16 1294v181h910v-181h-156h-18l-29 -4q-39 -4 -48 -32.5t-9 -71.5l-2 -899q0 -70 13 -88.5t66 -18.5h23h160v-180h-908v180h152h23q55 0 71.5 20.5t16.5 86.5v69l2 830q0 68 -15.5 87t-70.5 19l-21 2h-160zM561 -178q0 98 86 178h144q-68 -55 -68 -123q0 -66 66 -65 q25 0 46 8t58 37l33 -62q-66 -129 -205 -129q-74 0 -117 41t-43 115z" />
<glyph unicode="&#x12f;" horiz-adv-x="753" d="M29 0v164h106q53 0 71.5 20.5t18.5 79.5v74v414l-2 39v10l-6 16q-10 18 -25.5 26.5t-48.5 8.5h-108v168h524v-756v-37l2 -12q6 -51 70 -51h106v-164h-708zM184 1323q0 72 52.5 128t134.5 56q86 0 146.5 -49t60.5 -127q0 -72 -57.5 -124t-139.5 -52q-86 0 -141.5 49 t-55.5 119zM372 -178q0 98 86 178h144q-68 -55 -68 -123q0 -66 66 -65q25 0 46 8t58 37l33 -62q-66 -129 -205 -129q-74 0 -117 41t-43 115z" />
<glyph unicode="&#x130;" d="M16 1294v181h910v-181h-156h-18l-29 -4q-39 -4 -48 -32.5t-9 -71.5l-2 -899q0 -70 13 -88.5t66 -18.5h23h160v-180h-908v180h152h23q55 0 71.5 20.5t16.5 86.5v69l2 830q0 68 -15.5 87t-70.5 19l-21 2h-160zM274 1778q0 72 52.5 128t134.5 56q86 0 146.5 -49t60.5 -127 q0 -72 -57.5 -124t-139.5 -52q-86 0 -141.5 49t-55.5 119z" />
<glyph unicode="&#x131;" horiz-adv-x="761" d="M29 0v164h106q53 0 71.5 20.5t18.5 79.5v74v414q0 59 -16 79.5t-66 20.5h-108v168h524v-756v-37l2 -12q6 -51 70 -51h106v-164h-708z" />
<glyph unicode="&#x132;" horiz-adv-x="2215" d="M16 1294v181h910v-181h-156h-18l-29 -4q-39 -4 -48 -32.5t-9 -71.5l-2 -899q0 -70 13 -88.5t66 -18.5h23h160v-180h-908v180h152h23q55 0 71.5 20.5t16.5 86.5v69l2 830q0 68 -15.5 87t-70.5 19l-21 2h-160zM913 319q0 100 37 139.5t45 46.5t32 21.5t58.5 22.5t67.5 8 q78 0 126 -50t48 -122v-33q-6 -16 -16.5 -44.5t-52.5 -60.5t-99 -32h-31q35 -35 76 -53.5t94 -18.5q150 0 214.5 64.5t64.5 222.5v756q0 59 -15.5 81.5t-58.5 22.5l-39 4h-22h-152v181h903v-181h-151l-17 -2q-35 0 -47 -14t-16 -66v-26v-731q0 -246 -136 -372t-417 -126 q-186 0 -303 60.5t-155 148.5t-38 153z" />
<glyph unicode="&#x133;" horiz-adv-x="1495" d="M29 0v164h106q53 0 71.5 20.5t18.5 79.5v74v414l-2 39v10l-6 16q-10 18 -25.5 26.5t-48.5 8.5h-108v168h524v-756v-37l2 -12q6 -51 70 -51h106v-164h-708zM184 1323q0 72 52.5 128t134.5 56q86 0 146.5 -49t60.5 -127q0 -72 -57.5 -124t-139.5 -52q-86 0 -141.5 49 t-55.5 119zM580 -229q0 70 43 119t119 49q12 2 16 2q111 0 133.5 -59.5t22.5 -86.5q0 -63 -54 -106l-26 -19q33 -16 67 -10q117 16 117 139l2 33v35v878q0 59 -20.5 80t-79.5 21h-109v174h545v-1083q0 -172 -65.5 -265.5t-159.5 -119t-133 -29.5t-80 -4q-125 0 -211 51 t-106.5 108.5t-20.5 92.5zM981 1323q0 74 51.5 129t135.5 55q82 0 147 -49q59 -49 60 -127q0 -72 -57.5 -124t-139.5 -52q-86 0 -141.5 49t-55.5 119z" />
<glyph unicode="&#x134;" horiz-adv-x="1273" d="M-29 319q0 100 37 139.5t45 46.5t32 21.5t58.5 22.5t67.5 8q78 0 126 -50t48 -122v-33q-6 -16 -16.5 -44.5t-52.5 -60.5t-99 -32h-31q35 -35 76 -53.5t94 -18.5q150 0 214.5 64.5t64.5 222.5v756q0 59 -15.5 81.5t-58.5 22.5l-39 4h-22h-152v181h903v-181h-151l-17 -2 q-35 0 -47 -14t-16 -66v-26v-731q0 -246 -136 -372t-417 -126q-186 0 -303 60.5t-155 148.5t-38 153zM471 1651l254 299h184l254 -299l-65 -61l-281 192l-281 -192z" />
<glyph unicode="&#x135;" horiz-adv-x="665" d="M-174 -229q0 70 43 119t119 49q12 2 16 2q111 0 133.5 -59.5t22.5 -86.5q0 -63 -54 -106l-26 -19q33 -16 67 -10q117 16 117 139l2 33v35v878q0 59 -20.5 80t-79.5 21h-109v174h545v-1083q0 -172 -65.5 -265.5t-159.5 -119t-133 -29.5t-80 -4q-125 0 -211 51 t-106.5 108.5t-20.5 92.5zM-4 1196l254 299h184l254 -299l-65 -61l-281 192l-281 -192z" />
<glyph unicode="&#x136;" horiz-adv-x="1890" d="M16 0v180h172h19q43 4 56 23.5t13 83.5l5 51v850q0 63 -13.5 82.5t-56.5 23.5h-21h-174v181h856v-181h-151q-37 0 -47 -18.5t-10 -89.5v-432l516 434q27 20 39 34.5t18 26.5q6 16 -2 29.5t-27 15.5h-94h-84v181h819v-181h-145q-51 0 -107 -45l-75 -63l-330 -273l496 -626 l22 -27q43 -45 65.5 -61.5t51.5 -18.5h10h94v-180h-872v180h84l82 2l30 6q18 6 19 29q0 18 -10 37l-23 33l-338 393l-239 -207v-186q0 -70 12 -88.5t61 -18.5h25h125v-180h-871zM786 -367l29 80l25 -4h12t12 -2q14 0 53 8.5t55.5 28.5t16.5 37q0 35 -26.5 47t-46 16t-46.5 4 h-47l35 72l98 25q12 4 39 4q47 0 99.5 -34t52.5 -114q0 -55 -40 -97t-91 -63.5t-121 -21.5q-37 0 -59.5 2t-49.5 12z" />
<glyph unicode="&#x137;" horiz-adv-x="1423" d="M16 1309v166h533v-940l282 215q39 29 51.5 42t12.5 25q0 25 -35 31h-41h-65v172h655v-170h-109q-51 0 -110 -35l-25 -16l-18 -15l-45 -34l-115 -91l297 -395l27 -33l12 -16l14 -14q35 -35 66 -35h108v-166h-702v164h25q39 0 57 4t18 27q0 10 -6 20l-31 49l-143 195 l-184 -137v-66l2 -41q0 -41 43 -47l24 -2l13 -2h71v-164h-680v164h101q53 0 69.5 15.5t20.5 31.5t4 53v86v860v41v9q-4 18 -19.5 33.5t-68.5 15.5h-109zM602 -387l29 80l24 -4h12.5t12.5 -2q14 0 53 8t55.5 28.5t16.5 36.5q0 35 -26.5 47.5t-46 16.5t-46.5 4h-47l35 72 l98 24q12 4 39 4q47 0 99.5 -33.5t52.5 -113.5q0 -55 -40 -97t-91.5 -63.5t-120.5 -21.5q-37 0 -59.5 2t-49.5 12z" />
<glyph unicode="&#x138;" horiz-adv-x="1482" d="M16 1309v166h533v-940l282 215q39 29 51.5 42t12.5 25q0 25 -35 31h-41h-65v172h655v-170h-109q-51 0 -110 -35l-25 -16l-18 -15l-45 -34l-115 -91l297 -395l27 -33l12 -16l14 -14q35 -35 66 -35h108v-166h-702v164h25q39 0 57 4t18 27q0 10 -6 20l-31 49l-143 195 l-184 -137v-66l2 -41q0 -41 43 -47l24 -2l13 -2h71v-164h-680v164h101q53 0 69.5 15.5t20.5 31.5t4 53v86v860v41v9q-4 18 -19.5 33.5t-68.5 15.5h-109z" />
<glyph unicode="&#x139;" horiz-adv-x="1570" d="M16 0v180h156q63 0 80.5 19.5t17.5 87.5v94v807q0 68 -12 85t-65 21h-21h-156v181h899v-181h-151h-23q-53 0 -70.5 -21.5t-17.5 -84.5v-1002h221q266 0 364.5 72t98.5 264l2 88h203v-610h-1526zM625 1700l346 297l118 -162l-387 -243z" />
<glyph unicode="&#x13a;" horiz-adv-x="751" d="M16 0v164h101q59 0 77.5 18.5t18.5 81.5v76v870q0 61 -17.5 81t-74.5 20h-105v164h531v-1211q0 -59 16.5 -79.5t67.5 -20.5h102v-164h-717zM144 1661l346 297l118 -162l-387 -243z" />
<glyph unicode="&#x13b;" horiz-adv-x="1542" d="M16 0v180h156q63 0 80.5 19.5t17.5 87.5v94v807q0 68 -12 85t-65 21h-21h-156v181h899v-181h-151h-23q-53 0 -70.5 -21.5t-17.5 -84.5v-1002h221q266 0 364.5 72t98.5 264l2 88h203v-610h-1526zM578 -383l28 80l25 -4h12t12 -2q14 0 53.5 8t55.5 28.5t16 36.5 q0 35 -26.5 47.5t-46 16.5t-45.5 4h-48l35 72l99 24q12 4 38 4q47 0 99.5 -33.5t52.5 -113.5q0 -55 -40 -97t-91 -63.5t-121 -21.5q-37 0 -59 2t-49 12z" />
<glyph unicode="&#x13c;" horiz-adv-x="731" d="M16 0v164h101q59 0 77.5 18.5t18.5 81.5v76v870q0 61 -17.5 81t-74.5 20h-105v164h531v-1211q0 -59 16.5 -79.5t67.5 -20.5h102v-164h-717zM199 -391l28 80l25 -4h12t12 -2q14 0 53.5 8t55.5 28.5t16 36.5q0 35 -26.5 47.5t-46 16.5t-45.5 4h-47l34 72l99 24q12 4 39 4 q47 0 99 -33.5t52 -113.5q0 -55 -40 -97t-91 -64t-121 -22q-37 0 -59 2.5t-49 12.5z" />
<glyph unicode="&#x13d;" horiz-adv-x="1533" d="M16 0v180h156q63 0 80.5 19.5t17.5 87.5v94v807q0 68 -12 85t-65 21h-21h-156v181h899v-181h-151h-23q-53 0 -70.5 -21.5t-17.5 -84.5v-1002h221q266 0 364.5 72t98.5 264l2 88h203v-610h-1526zM1065 1008l14 8l35 22q61 37 95 71t48 71l-32 -4q-72 -6 -115 43t-43 106 q0 72 53.5 121t124.5 49q80 0 142.5 -59.5t62.5 -149.5q0 -88 -70.5 -185t-212.5 -181l-37 -21z" />
<glyph unicode="&#x13e;" horiz-adv-x="1058" d="M16 0v164h101q59 0 77.5 18.5t18.5 81.5v76v870q0 61 -17.5 81t-74.5 20h-105v164h531v-1211q0 -59 16.5 -79.5t67.5 -20.5h102v-164h-717zM676 1008l14 8l35 22q61 37 95 71t48 71l-32 -4q-72 -6 -115 43t-43 106q0 72 53 121t125 49q80 0 142.5 -59.5t62.5 -149.5 q0 -88 -70.5 -185t-212.5 -181l-37 -21z" />
<glyph unicode="&#x13f;" horiz-adv-x="1570" d="M16 0v180h156q63 0 80.5 19.5t17.5 87.5v94v807q0 68 -12 85t-65 21h-21h-156v181h899v-181h-151h-23q-53 0 -70.5 -21.5t-17.5 -84.5v-1002h221q266 0 364.5 72t98.5 264l2 88h203v-610h-1526zM838 770q0 74 53 127t135 53t136 -51t54 -121q0 -72 -57 -121t-135 -49 q-80 0 -133 47t-53 115z" />
<glyph unicode="&#x140;" horiz-adv-x="1130" d="M16 0v164h101q59 0 77.5 18.5t18.5 81.5v76v870q0 61 -17.5 81t-74.5 20h-105v164h531v-1211q0 -59 16.5 -79.5t67.5 -20.5h102v-164h-717zM734 729q0 74 53 127t135 53t136 -51t54 -121q0 -72 -57 -121t-135 -49q-80 0 -133 47t-53 115z" />
<glyph unicode="&#x141;" horiz-adv-x="1570" d="M16 0v180h156q63 0 80.5 19.5t17.5 87.5v94v807q0 68 -12 85t-65 21h-21h-156v181h899v-181h-151h-23q-53 0 -70.5 -21.5t-17.5 -84.5v-1002h221q266 0 364.5 72t98.5 264l2 88h203v-610h-1526zM17 696v82h737v-82h-737z" />
<glyph unicode="&#x142;" horiz-adv-x="751" d="M7 696v82h737v-82h-737zM16 0v164h101q59 0 77.5 18.5t18.5 81.5v76v870q0 61 -17.5 81t-74.5 20h-105v164h531v-1211q0 -59 16.5 -79.5t67.5 -20.5h102v-164h-717z" />
<glyph unicode="&#x143;" horiz-adv-x="1896" d="M16 0v180h179q53 0 68.5 19.5t15.5 87.5v899q0 66 -13.5 85t-62.5 23h-17h-170v181h676l731 -1053v766l-2 29q0 41 -12 56t-43 19l-16 2h-162v181h692v-181h-160q-51 0 -65.5 -14t-14.5 -68l-2 -24v-1188h-360l-778 1122l2 -835q0 -70 14 -88.5t64 -18.5h161v-180h-725z M793 1700l346 297l118 -162l-387 -243z" />
<glyph unicode="&#x144;" horiz-adv-x="1497" d="M29 0v164h114q49 0 64.5 19.5t15.5 80.5v51v437v36l-2 11q0 51 -71 51h-121v170h520v-146q111 133 233.5 150.5t180.5 17.5q184 0 266 -103t82 -321v-354l2 -20v-29q0 -51 59 -51h109v-164h-647v164h71h15q29 0 41 16.5t16 65.5v18v346v37q0 18 -5 64.5t-54.5 89.5 t-118.5 43q-49 0 -145.5 -45t-96.5 -232v-303v-26l2 -23q0 -49 53 -49l19 -2h80v-164h-682zM600 1245l346 297l118 -162l-387 -243z" />
<glyph unicode="&#x145;" horiz-adv-x="1746" d="M16 0v180h179q53 0 68.5 19.5t15.5 87.5v899q0 66 -13.5 85t-62.5 23h-17h-170v181h676l731 -1053v766l-2 29q0 41 -12 56t-43 19l-16 2h-162v181h692v-181h-160q-51 0 -65.5 -14t-14.5 -68l-2 -24v-1188h-360l-778 1122l2 -835q0 -70 14 -88.5t64 -18.5h161v-180h-725z M725 -346l29 80l24 -4h12.5t12.5 -2q14 0 53 8t55.5 28.5t16.5 36.5q0 35 -27 47.5t-46 16.5t-46 4h-47l35 72l98 24q12 4 39 4q47 0 99 -33.5t52 -113.5q0 -55 -39.5 -97t-91 -63.5t-120.5 -21.5q-37 0 -59.5 2t-49.5 12z" />
<glyph unicode="&#x146;" horiz-adv-x="1419" d="M29 0v164h114q49 0 64.5 19.5t15.5 80.5v51v437v36l-2 11q0 51 -71 51h-121v170h520v-146q111 133 233.5 150.5t180.5 17.5q184 0 266 -103t82 -321v-354l2 -20v-29q0 -51 59 -51h109v-164h-647v164h71h15q29 0 41 16.5t16 65.5v18v346v37q0 18 -5 64.5t-54.5 89.5 t-118.5 43q-49 0 -145.5 -45t-96.5 -232v-303v-26l2 -23q0 -49 53 -49l19 -2h80v-164h-682zM582 -367l28 80l25 -4h12t12 -2q14 0 53.5 8.5t55.5 28.5t16 37q0 35 -26.5 47t-46 16t-45.5 4h-48l35 72l99 25q12 4 39 4q47 0 99 -34t52 -114q0 -55 -40 -97t-91 -63.5 t-121 -21.5q-37 0 -59 2t-49 12z" />
<glyph unicode="&#x147;" horiz-adv-x="1896" d="M16 0v180h179q53 0 68.5 19.5t15.5 87.5v899q0 66 -13.5 85t-62.5 23h-17h-170v181h676l731 -1053v766l-2 29q0 41 -12 56t-43 19l-16 2h-162v181h692v-181h-160q-51 0 -65.5 -14t-14.5 -68l-2 -24v-1188h-360l-778 1122l2 -835q0 -70 14 -88.5t64 -18.5h161v-180h-725z M602 1889l65 61l281 -192l281 192l65 -61l-256 -297h-182z" />
<glyph unicode="&#x148;" horiz-adv-x="1497" d="M29 0v164h114q49 0 64.5 19.5t15.5 80.5v51v437v36l-2 11q0 51 -71 51h-121v170h520v-146q111 133 233.5 150.5t180.5 17.5q184 0 266 -103t82 -321v-354l2 -20v-29q0 -51 59 -51h109v-164h-647v164h71h15q29 0 41 16.5t16 65.5v18v346v37q0 18 -5 64.5t-54.5 89.5 t-118.5 43q-49 0 -145.5 -45t-96.5 -232v-303v-26l2 -23q0 -49 53 -49l19 -2h80v-164h-682zM410 1434l65 61l281 -192l281 192l65 -61l-256 -297h-182z" />
<glyph unicode="&#x149;" horiz-adv-x="1824" d="M-2 999l14 9l35 22q61 37 95 71t48 70l-32 -4q-72 -6 -115 43.5t-43 106.5q0 72 53 121t125 49q80 0 142.5 -59.5t62.5 -149.5q0 -88 -70.5 -185.5t-212.5 -181.5l-37 -20zM383 0v164h115q49 0 64.5 19.5t15.5 80.5v51v437v36l-3 11q0 51 -71 51h-121v170h520v-146 q111 133 234 150.5t180 17.5q184 0 266 -103t82 -321v-354l2 -20v-29q0 -51 59 -51h109v-164h-647v164h72h14q29 0 41 16.5t16 65.5v18v346v37q0 18 -5 64.5t-54 89.5t-119 43q-49 0 -145.5 -45t-96.5 -232v-303v-26l2 -23q0 -49 54 -49l18 -2h80v-164h-682z" />
<glyph unicode="&#x14c;" horiz-adv-x="1757" d="M51 750q0 348 221.5 561t606.5 213t606 -215t221 -566q0 -348 -221 -561t-606 -213t-606.5 213.5t-221.5 567.5zM455 750q0 -252 91 -406t189.5 -178.5t147.5 -24.5q180 0 300 160t120 449q0 283 -121 441.5t-301 158.5q-47 0 -144.5 -25t-189.5 -178t-92 -397zM510 1620 v201h737v-201h-737z" />
<glyph unicode="&#x14d;" horiz-adv-x="1316" d="M51 512q0 236 163 385.5t437 149.5q55 0 183.5 -15.5t258.5 -127t151.5 -226.5t21.5 -176q0 -211 -135.5 -355.5t-279.5 -161t-200 -16.5q-276 0 -438 151.5t-162 391.5zM291 1165v201h737v-201h-737zM399 512l4 -82q14 -152 81 -227.5t173 -75.5q117 0 190 93t73 276 q0 45 -11.5 143t-78 173t-173.5 75l-45 -4q-88 -16 -141 -88t-68 -205z" />
<glyph unicode="&#x14e;" horiz-adv-x="1757" d="M51 750q0 348 221.5 561t606.5 213t606 -215t221 -566q0 -348 -221 -561t-606 -213t-606.5 213.5t-221.5 567.5zM455 750q0 -252 91 -406t189.5 -178.5t147.5 -24.5q180 0 300 160t120 449q0 283 -121 441.5t-301 158.5q-47 0 -144.5 -25t-189.5 -178t-92 -397zM539 1864 l69 64q23 -35 95.5 -97.5t171.5 -62.5q102 0 174.5 61.5t99.5 98.5l70 -64q-6 -14 -16.5 -29.5t-94.5 -127t-233 -111.5q-145 0 -230.5 113.5t-105.5 154.5z" />
<glyph unicode="&#x14f;" horiz-adv-x="1316" d="M51 512q0 236 163 385.5t437 149.5q55 0 183.5 -15.5t258.5 -127t151.5 -226.5t21.5 -176q0 -211 -135.5 -355.5t-279.5 -161t-200 -16.5q-276 0 -438 151.5t-162 391.5zM320 1409l69 64q23 -35 95.5 -97.5t171.5 -62.5q102 0 174.5 61.5t99.5 98.5l70 -64 q-6 -14 -16.5 -29.5t-94.5 -127t-233 -111.5q-145 0 -230.5 113.5t-105.5 154.5zM399 512l4 -82q14 -152 81 -227.5t173 -75.5q117 0 190 93t73 276q0 45 -11.5 143t-78 173t-173.5 75l-45 -4q-88 -16 -141 -88t-68 -205z" />
<glyph unicode="&#x150;" horiz-adv-x="1757" d="M51 750q0 348 221.5 561t606.5 213t606 -215t221 -566q0 -348 -221 -561t-606 -213t-606.5 213.5t-221.5 567.5zM414 1700l346 297l118 -162l-387 -243zM455 750q0 -252 91 -406t189.5 -178.5t147.5 -24.5q180 0 300 160t120 449q0 283 -121 441.5t-301 158.5 q-47 0 -144.5 -25t-189.5 -178t-92 -397zM879 1700l346 297l118 -162l-387 -243z" />
<glyph unicode="&#x151;" horiz-adv-x="1316" d="M51 512q0 236 163 385.5t437 149.5q55 0 183.5 -15.5t258.5 -127t151.5 -226.5t21.5 -176q0 -211 -135.5 -355.5t-279.5 -161t-200 -16.5q-276 0 -438 151.5t-162 391.5zM195 1245l346 297l118 -162l-387 -243zM399 512l4 -82q14 -152 81 -227.5t173 -75.5q117 0 190 93 t73 276q0 45 -11.5 143t-78 173t-173.5 75l-45 -4q-88 -16 -141 -88t-68 -205zM660 1245l346 297l118 -162l-387 -243z" />
<glyph unicode="&#x152;" horiz-adv-x="2648" d="M47 696q0 121 53.5 323t290 332t668.5 130l166 -6h217h1155v-578h-197l-2 98q0 31 -24.5 161t-298.5 130h-435v-440h162q178 0 178 178l2 53h177v-649h-174v61l-5 39q-14 72 -57 104t-127 32h-154v-482h402q356 0 356 310l4 104h193v-596h-1131q-227 0 -362 -12.5 t-205 -12.5q-393 0 -622.5 199t-229.5 522zM469 689.5q0 -23.5 26.5 -290t415.5 -266.5h47q23 4 58 7t78 22q104 37 137 92t33 197v604q0 141 -80 206.5t-262 65.5q-205 0 -329 -149.5t-124 -429.5v-58.5z" />
<glyph unicode="&#x153;" horiz-adv-x="2058" d="M51 500q0 240 160 387t438 147q274 0 426 -141q23 20 39 32.5t49 35.5q106 63 190.5 73t129.5 10q223 0 370.5 -133t165.5 -346v-86l-768 -2l-2 -53q0 -127 80 -209t195 -82q33 0 116.5 15.5t145.5 181.5l10 28h213q-25 -170 -165 -279.5t-351 -109.5h-33q-12 0 -28.5 2 t-119 12.5t-231.5 133.5q-133 -115 -261 -132.5t-193 -17.5q-260 0 -418 151.5t-158 381.5zM399 512l2 -70q0 -127 52.5 -204.5t112 -94t89.5 -16.5q109 0 178.5 102.5t69.5 292.5l-6 70q-8 84 -33.5 142.5t-79 103.5t-135.5 45q-55 0 -103 -26t-76 -69t-43 -90t-24 -116z M1251 625l447 -4v30q0 39 -9.5 70t-49.5 96.5t-156 65.5q-104 0 -170 -84q-43 -61 -56 -135z" />
<glyph unicode="&#x154;" horiz-adv-x="1798" d="M16 0v180h164h23q49 0 63.5 20.5t14.5 86.5v69v830q0 68 -18.5 88t-82.5 20h-164v181h938q301 0 442.5 -63.5t166 -145.5t28.5 -105.5t4 -50.5q0 -111 -72.5 -199t-207.5 -133l-55 -14l34 -10q123 -51 173.5 -133t50.5 -244q0 -59 2 -89t6 -49.5t18.5 -44t48.5 -24.5 q25 0 42.5 16.5t25.5 45t8 87.5v101h162v-131q0 -303 -334 -303q-186 0 -270 103.5t-84 356.5q0 125 -66.5 177.5t-218.5 52.5h-194l2 -389q0 -72 15 -89.5t81 -17.5h151v-180h-897zM664 848h323q113 0 166 59.5t58.5 100.5t5.5 52v15q0 219 -265 219h-288v-446zM768 1700 l346 297l118 -162l-387 -243z" />
<glyph unicode="&#x155;" horiz-adv-x="1011" d="M16 848v172h529v-150l26 41q104 143 256 144q16 0 95 -14.5t108 -87t29 -115.5q0 -63 -35 -110.5t-74 -56.5t-61 -9q-57 0 -101.5 32.5t-50.5 70.5t-6 48q0 55 41 96q-119 0 -172 -108.5t-53 -206.5v-330q0 -61 21.5 -80.5t90.5 -19.5h109v-164h-750v164h103 q53 0 72.5 21.5t19.5 78.5v74v412q0 59 -19.5 78.5t-74.5 19.5h-103zM383 1245l346 297l118 -162l-387 -243z" />
<glyph unicode="&#x156;" horiz-adv-x="1648" d="M16 0v180h164h23q49 0 63.5 20.5t14.5 86.5v69v830q0 68 -18.5 88t-82.5 20h-164v181h938q301 0 442.5 -63.5t166 -145.5t28.5 -105.5t4 -50.5q0 -111 -72.5 -199t-207.5 -133l-55 -14l34 -10q123 -51 173.5 -133t50.5 -244q0 -59 2 -89t6 -49.5t18.5 -44t48.5 -24.5 q25 0 42.5 16.5t25.5 45t8 87.5v101h162v-131q0 -303 -334 -303q-186 0 -270 103.5t-84 356.5q0 125 -66.5 177.5t-218.5 52.5h-194l2 -389q0 -72 15 -89.5t81 -17.5h151v-180h-897zM664 848h323q113 0 166 59.5t58.5 100.5t5.5 52v15q0 219 -265 219h-288v-446zM745 -387 l29 80l25 -4h12t12 -2q14 0 53 8t55.5 28.5t16.5 36.5q0 35 -26.5 47.5t-46 16.5t-46.5 4h-47l35 72l98 24q12 4 39 4q47 0 99.5 -33.5t52.5 -113.5q0 -55 -40 -97t-91 -63.5t-121 -21.5q-37 0 -59.5 2t-49.5 12z" />
<glyph unicode="&#x157;" horiz-adv-x="1122" d="M16 848v172h529v-150l26 41q104 143 256 144q16 0 95 -14.5t108 -87t29 -115.5q0 -63 -35 -110.5t-74 -56.5t-61 -9q-57 0 -101.5 32.5t-50.5 70.5t-6 48q0 55 41 96q-119 0 -172 -108.5t-53 -206.5v-330q0 -61 21.5 -80.5t90.5 -19.5h109v-164h-750v164h103 q53 0 72.5 21.5t19.5 78.5v74v412q0 59 -19.5 78.5t-74.5 19.5h-103zM295 -387l29 80l24 -4h12.5t12.5 -2q14 0 53 8t55.5 28.5t16.5 36.5q0 35 -27 47.5t-46 16.5t-46 4h-47l35 72l98 24q12 4 39 4q47 0 99 -33.5t52 -113.5q0 -55 -40 -97t-91 -63.5t-121 -21.5 q-37 0 -59 2t-49 12z" />
<glyph unicode="&#x158;" horiz-adv-x="1798" d="M16 0v180h164h23q49 0 63.5 20.5t14.5 86.5v69v830q0 68 -18.5 88t-82.5 20h-164v181h938q301 0 442.5 -63.5t166 -145.5t28.5 -105.5t4 -50.5q0 -111 -72.5 -199t-207.5 -133l-55 -14l34 -10q123 -51 173.5 -133t50.5 -244q0 -59 2 -89t6 -49.5t18.5 -44t48.5 -24.5 q25 0 42.5 16.5t25.5 45t8 87.5v101h162v-131q0 -303 -334 -303q-186 0 -270 103.5t-84 356.5q0 125 -66.5 177.5t-218.5 52.5h-194l2 -389q0 -72 15 -89.5t81 -17.5h151v-180h-897zM578 1889l65 61l281 -192l281 192l65 -61l-256 -297h-182zM664 848h323q113 0 166 59.5 t58.5 100.5t5.5 52v15q0 219 -265 219h-288v-446z" />
<glyph unicode="&#x159;" horiz-adv-x="1011" d="M16 848v172h529v-150l26 41q104 143 256 144q16 0 95 -14.5t108 -87t29 -115.5q0 -63 -35 -110.5t-74 -56.5t-61 -9q-57 0 -101.5 32.5t-50.5 70.5t-6 48q0 55 41 96q-119 0 -172 -108.5t-53 -206.5v-330q0 -61 21.5 -80.5t90.5 -19.5h109v-164h-750v164h103 q53 0 72.5 21.5t19.5 78.5v74v412q0 59 -19.5 78.5t-74.5 19.5h-103zM193 1434l65 61l281 -192l281 192l65 -61l-256 -297h-182z" />
<glyph unicode="&#x15a;" horiz-adv-x="1486" d="M49 1063q0 59 31 161.5t179.5 194.5t373.5 92q94 0 195.5 -17t170 -46t142.5 -84l24 -18l54 129h176v-529h-185l-14 55q-53 152 -164.5 238t-271.5 86q-49 0 -93 -1t-96.5 -14.5t-89.5 -34t-64.5 -56t-27.5 -84.5q0 -86 51.5 -115t77 -38t92.5 -26l56 -14l102 -22l63 -13 q123 -25 189.5 -39t170 -51t183.5 -141.5t80 -253.5q0 -195 -143.5 -316.5t-405.5 -121.5h-45q-78 0 -184.5 15t-205.5 52t-187 103l-52 -150h-176v569h193l12 -55q31 -96 93.5 -169t143.5 -117t171 -62t157 -18q139 0 217 59t78 147q-2 14 -2 21q-8 74 -67.5 115t-227.5 84 l-45 10l-45 8l-151 29q-266 47 -399.5 161.5t-133.5 276.5zM596 1700l346 297l118 -162l-387 -243z" />
<glyph unicode="&#x15b;" horiz-adv-x="1175" d="M55 719q0 74 36 140.5t133.5 129t285.5 62.5q68 0 174.5 -18.5t210.5 -92.5l37 86h141v-352h-151l-19 37q-37 66 -82 103.5t-95 54t-94 20.5t-83 4q-88 0 -132 -33t-44 -78q0 -39 35.5 -62.5t134.5 -45.5l37 -8l112 -21q145 -25 220 -53.5t144.5 -90t69.5 -188.5 q0 -139 -85 -209.5t-179 -100.5t-203 -30q-63 0 -138 12.5t-139.5 38t-127.5 70.5l-39 -94h-147v379h151l14 -31q92 -168 205 -189.5t137.5 -23.5t45.5 -2q47 0 89 14.5t71.5 37t29.5 67.5q0 41 -26.5 62.5t-65.5 34.5t-119 30l-51 10q-86 14 -131 24.5t-98.5 26t-95.5 35 t-105.5 69.5t-63.5 175zM437 1245l346 297l118 -162l-387 -243z" />
<glyph unicode="&#x15c;" horiz-adv-x="1486" d="M49 1063q0 59 31 161.5t179.5 194.5t373.5 92q94 0 195.5 -17t170 -46t142.5 -84l24 -18l54 129h176v-529h-185l-14 55q-53 152 -164.5 238t-271.5 86q-49 0 -93 -1t-96.5 -14.5t-89.5 -34t-64.5 -56t-27.5 -84.5q0 -86 51.5 -115t77 -38t92.5 -26l56 -14l102 -22l63 -13 q123 -25 189.5 -39t170 -51t183.5 -141.5t80 -253.5q0 -195 -143.5 -316.5t-405.5 -121.5h-45q-78 0 -184.5 15t-205.5 52t-187 103l-52 -150h-176v569h193l12 -55q31 -96 93.5 -169t143.5 -117t171 -62t157 -18q139 0 217 59t78 147q-2 14 -2 21q-8 74 -67.5 115t-227.5 84 l-45 10l-45 8l-151 29q-266 47 -399.5 161.5t-133.5 276.5zM406 1651l254 299h184l254 -299l-65 -61l-281 192l-281 -192z" />
<glyph unicode="&#x15d;" horiz-adv-x="1175" d="M55 719q0 74 36 140.5t133.5 129t285.5 62.5q68 0 174.5 -18.5t210.5 -92.5l37 86h141v-352h-151l-19 37q-37 66 -82 103.5t-95 54t-94 20.5t-83 4q-88 0 -132 -33t-44 -78q0 -39 35.5 -62.5t134.5 -45.5l37 -8l112 -21q145 -25 220 -53.5t144.5 -90t69.5 -188.5 q0 -139 -85 -209.5t-179 -100.5t-203 -30q-63 0 -138 12.5t-139.5 38t-127.5 70.5l-39 -94h-147v379h151l14 -31q92 -168 205 -189.5t137.5 -23.5t45.5 -2q47 0 89 14.5t71.5 37t29.5 67.5q0 41 -26.5 62.5t-65.5 34.5t-119 30l-51 10q-86 14 -131 24.5t-98.5 26t-95.5 35 t-105.5 69.5t-63.5 175zM246 1196l254 299h184l254 -299l-65 -61l-281 192l-281 -192z" />
<glyph unicode="&#x15e;" horiz-adv-x="1486" d="M49 1063q0 59 31 161.5t179.5 194.5t373.5 92q94 0 195.5 -17t170 -46t142.5 -84l24 -18l54 129h176v-529h-185l-14 55q-53 152 -164.5 238t-271.5 86q-49 0 -93 -1t-96.5 -14.5t-89.5 -34t-64.5 -56t-27.5 -84.5q0 -86 51.5 -115t77 -38t92.5 -26l56 -14l102 -22l63 -13 q123 -25 189.5 -39t170 -51t183.5 -141.5t80 -253.5q0 -195 -143.5 -316.5t-405.5 -121.5h-45q-78 0 -184.5 15t-205.5 52t-187 103l-52 -150h-176v569h193l12 -55q31 -96 93.5 -169t143.5 -117t171 -62t157 -18q139 0 217 59t78 147q-2 14 -2 21q-8 74 -67.5 115t-227.5 84 l-45 10l-45 8l-151 29q-266 47 -399.5 161.5t-133.5 276.5zM571 -406l29 80l24 -4h12.5t12.5 -2q14 0 53 8.5t55.5 29t16.5 36.5q0 35 -27 47t-46.5 16.5t-45.5 4.5h-47l71 237h93l-31 -141q12 4 39 4q47 0 99 -34t52 -114q0 -55 -40 -97t-91 -63.5t-121 -21.5q-37 0 -59 2 t-49 12z" />
<glyph unicode="&#x15f;" horiz-adv-x="1175" d="M55 719q0 74 36 140.5t133.5 129t285.5 62.5q68 0 174.5 -18.5t210.5 -92.5l37 86h141v-352h-151l-19 37q-37 66 -82 103.5t-95 54t-94 20.5t-83 4q-88 0 -132 -33t-44 -78q0 -39 35.5 -62.5t134.5 -45.5l37 -8l112 -21q145 -25 220 -53.5t144.5 -90t69.5 -188.5 q0 -139 -85 -209.5t-179 -100.5t-203 -30q-63 0 -138 12.5t-139.5 38t-127.5 70.5l-39 -94h-147v379h151l14 -31q92 -168 205 -189.5t137.5 -23.5t45.5 -2q47 0 89 14.5t71.5 37t29.5 67.5q0 41 -26.5 62.5t-65.5 34.5t-119 30l-51 10q-86 14 -131 24.5t-98.5 26t-95.5 35 t-105.5 69.5t-63.5 175zM412 -406l29 80l24 -4h12.5t12.5 -2q14 0 53 8.5t55.5 29t16.5 36.5q0 35 -27 47t-46.5 16.5t-45.5 4.5h-47l71 237h93l-31 -141q12 4 39 4q47 0 99 -34t52 -114q0 -55 -40 -97t-91 -63.5t-121 -21.5q-37 0 -59 2t-49 12z" />
<glyph unicode="&#x160;" horiz-adv-x="1486" d="M49 1063q0 59 31 161.5t179.5 194.5t373.5 92q94 0 195.5 -17t170 -46t142.5 -84l24 -18l54 129h176v-529h-185l-14 55q-53 152 -164.5 238t-271.5 86q-49 0 -93 -1t-96.5 -14.5t-89.5 -34t-64.5 -56t-27.5 -84.5q0 -86 51.5 -115t77 -38t92.5 -26l56 -14l102 -22l63 -13 q123 -25 189.5 -39t170 -51t183.5 -141.5t80 -253.5q0 -195 -143.5 -316.5t-405.5 -121.5h-45q-78 0 -184.5 15t-205.5 52t-187 103l-52 -150h-176v569h193l12 -55q31 -96 93.5 -169t143.5 -117t171 -62t157 -18q139 0 217 59t78 147q-2 14 -2 21q-8 74 -67.5 115t-227.5 84 l-45 10l-45 8l-151 29q-266 47 -399.5 161.5t-133.5 276.5zM406 1889l65 61l281 -192l281 192l65 -61l-256 -297h-182z" />
<glyph unicode="&#x161;" horiz-adv-x="1175" d="M55 719q0 74 36 140.5t133.5 129t285.5 62.5q68 0 174.5 -18.5t210.5 -92.5l37 86h141v-352h-151l-19 37q-37 66 -82 103.5t-95 54t-94 20.5t-83 4q-88 0 -132 -33t-44 -78q0 -39 35.5 -62.5t134.5 -45.5l37 -8l112 -21q145 -25 220 -53.5t144.5 -90t69.5 -188.5 q0 -139 -85 -209.5t-179 -100.5t-203 -30q-63 0 -138 12.5t-139.5 38t-127.5 70.5l-39 -94h-147v379h151l14 -31q92 -168 205 -189.5t137.5 -23.5t45.5 -2q47 0 89 14.5t71.5 37t29.5 67.5q0 41 -26.5 62.5t-65.5 34.5t-119 30l-51 10q-86 14 -131 24.5t-98.5 26t-95.5 35 t-105.5 69.5t-63.5 175zM246 1434l65 61l281 -192l281 192l65 -61l-256 -297h-182z" />
<glyph unicode="&#x162;" horiz-adv-x="1632" d="M16 897v578h1598v-576h-189l-2 76q0 31 -22.5 120t-93 142t-199.5 53l-98 -2v-1001q0 -61 12 -83t49 -22l33 -2h22h152v-180h-938v180h152h26q63 0 84 20.5t21 86.5l4 67v936l-109 -2q-268 0 -288.5 -143.5t-20.5 -179.5l-2 -68h-191zM635 -406l29 80l24 -4h12.5t12.5 -2 q14 0 53 8.5t55.5 29t16.5 36.5q0 35 -27 47t-46.5 16.5t-45.5 4.5h-47l71 237h93l-31 -141q12 4 39 4q47 0 99 -34t52 -114q0 -55 -40 -97t-91 -63.5t-121 -21.5q-37 0 -59 2t-49 12z" />
<glyph unicode="&#x163;" horiz-adv-x="907" d="M10 856v160q47 0 168 29.5t156 287.5l4 62h186v-375h334v-168h-334v-500v-33v-40q0 -61 24.5 -94t67.5 -33q53 0 85 37.5t32 125.5l2 29v92h158v-133q0 -326 -350 -326q-188 0 -270.5 95.5t-82.5 310.5v473h-180zM272 -406l29 80l24 -4h12.5t12.5 -2q14 0 53 8.5t55.5 29 t16.5 36.5q0 35 -27 47t-46.5 16.5t-45.5 4.5h-47l71 237h93l-31 -141q12 4 39 4q47 0 99 -34t52 -114q0 -55 -40 -97t-91 -63.5t-121 -21.5q-37 0 -59 2t-49 12z" />
<glyph unicode="&#x164;" horiz-adv-x="1632" d="M16 897v578h1598v-576h-189l-2 76q0 31 -22.5 120t-93 142t-199.5 53l-98 -2v-1001q0 -61 12 -83t49 -22l33 -2h22h152v-180h-938v180h152h26q63 0 84 20.5t21 86.5l4 67v936l-109 -2q-268 0 -288.5 -143.5t-20.5 -179.5l-2 -68h-191zM469 1889l65 61l281 -192l281 192 l65 -61l-256 -297h-182z" />
<glyph unicode="&#x165;" horiz-adv-x="1140" d="M10 856v160q47 0 168 29.5t156 287.5l4 62h186v-375h334v-168h-334v-500v-33v-40q0 -61 24.5 -94t67.5 -33q53 0 85 37.5t32 125.5l2 29v92h158v-133q0 -326 -350 -326q-188 0 -270.5 95.5t-82.5 310.5v473h-180zM932 1008l14 8l35 22q61 37 95 71t48 71l-32 -4 q-72 -6 -115 43t-43 106q0 72 53 121t125 49q80 0 142.5 -59.5t62.5 -149.5q0 -88 -70.5 -185t-212.5 -181l-37 -21z" />
<glyph unicode="&#x166;" horiz-adv-x="1632" d="M16 897v578h1598v-576h-189l-2 76q0 31 -22.5 120t-93 142t-199.5 53l-98 -2v-1001q0 -61 12 -83t49 -22l33 -2h22h152v-180h-938v180h152h26q63 0 84 20.5t21 86.5l4 67v936l-109 -2q-268 0 -288.5 -143.5t-20.5 -179.5l-2 -68h-191zM447 696v82h737v-82h-737z" />
<glyph unicode="&#x167;" horiz-adv-x="907" d="M10 856v160q47 0 168 29.5t156 287.5l4 62h186v-375h334v-168h-334v-500v-33v-40q0 -61 24.5 -94t67.5 -33q53 0 85 37.5t32 125.5l2 29v92h158v-133q0 -326 -350 -326q-188 0 -270.5 95.5t-82.5 310.5v473h-180zM84 504v82h737v-82h-737z" />
<glyph unicode="&#x168;" horiz-adv-x="1796" d="M12 1294v181h838v-181h-125l-20 -2q-49 0 -64.5 -21.5t-15.5 -82.5v-647l2 -39q0 -193 83 -274t269 -81q336 0 336 342l2 62v637q0 70 -12.5 88t-59.5 18h-151v181h690v-181h-146h-18q-39 -4 -52.5 -25.5t-13.5 -80.5v-631q0 -311 -162.5 -453.5t-517.5 -142.5 q-348 0 -490 138.5t-142 443.5v645l-2 31q-4 45 -16.5 58t-51.5 17h-14h-146zM524 1620l4 41q43 231 236 232q61 0 133 -27l75 -27l17 -8q74 -29 114 -28q68 0 93 71l4 19h71v-54q-8 -102 -64 -157.5t-144 -55.5q-53 0 -121 23l-80 27l-12 4q-96 37 -150 37q-76 0 -100 -82 l-2 -15h-74z" />
<glyph unicode="&#x169;" horiz-adv-x="1468" d="M16 854v166h508v-619q0 -55 7.5 -103t54.5 -87t112 -39q55 0 104.5 24.5t84.5 65.5t46 81t11 116v291q0 59 -16.5 79.5t-67.5 20.5h-106v170h524v-756q0 -61 15.5 -80.5t60.5 -19.5h98v-164h-500v141l-24 -26q-115 -121 -217.5 -129.5t-126 -10.5t-35.5 -2 q-190 0 -274.5 102.5t-84.5 325.5v353v43l-4 22q-10 35 -49 35h-121zM361 1165l4 41q43 231 236 232q61 0 133 -27l75 -27l17 -8q74 -29 114 -28q68 0 93 71l4 19h71v-54q-8 -102 -64 -157.5t-144 -55.5q-53 0 -121 23l-80 27l-12 4q-96 37 -150 37q-76 0 -100 -82l-2 -15 h-74z" />
<glyph unicode="&#x16a;" horiz-adv-x="1796" d="M12 1294v181h838v-181h-125l-20 -2q-49 0 -64.5 -21.5t-15.5 -82.5v-647l2 -39q0 -193 83 -274t269 -81q336 0 336 342l2 62v637q0 70 -12.5 88t-59.5 18h-151v181h690v-181h-146h-18q-39 -4 -52.5 -25.5t-13.5 -80.5v-631q0 -311 -162.5 -453.5t-517.5 -142.5 q-348 0 -490 138.5t-142 443.5v645l-2 31q-4 45 -16.5 58t-51.5 17h-14h-146zM530 1620v201h737v-201h-737z" />
<glyph unicode="&#x16b;" horiz-adv-x="1468" d="M16 854v166h508v-619q0 -55 7.5 -103t54.5 -87t112 -39q55 0 104.5 24.5t84.5 65.5t46 81t11 116v291q0 59 -16.5 79.5t-67.5 20.5h-106v170h524v-756q0 -61 15.5 -80.5t60.5 -19.5h98v-164h-500v141l-24 -26q-115 -121 -217.5 -129.5t-126 -10.5t-35.5 -2 q-190 0 -274.5 102.5t-84.5 325.5v353v43l-4 22q-10 35 -49 35h-121zM367 1165v201h737v-201h-737z" />
<glyph unicode="&#x16c;" horiz-adv-x="1796" d="M12 1294v181h838v-181h-125l-20 -2q-49 0 -64.5 -21.5t-15.5 -82.5v-647l2 -39q0 -193 83 -274t269 -81q336 0 336 342l2 62v637q0 70 -12.5 88t-59.5 18h-151v181h690v-181h-146h-18q-39 -4 -52.5 -25.5t-13.5 -80.5v-631q0 -311 -162.5 -453.5t-517.5 -142.5 q-348 0 -490 138.5t-142 443.5v645l-2 31q-4 45 -16.5 58t-51.5 17h-14h-146zM559 1864l69 64q23 -35 95.5 -97.5t171.5 -62.5q102 0 174.5 61.5t99.5 98.5l70 -64q-6 -14 -16.5 -29.5t-94.5 -127t-233 -111.5q-145 0 -230.5 113.5t-105.5 154.5z" />
<glyph unicode="&#x16d;" horiz-adv-x="1468" d="M16 854v166h508v-619q0 -55 7.5 -103t54.5 -87t112 -39q55 0 104.5 24.5t84.5 65.5t46 81t11 116v291q0 59 -16.5 79.5t-67.5 20.5h-106v170h524v-756q0 -61 15.5 -80.5t60.5 -19.5h98v-164h-500v141l-24 -26q-115 -121 -217.5 -129.5t-126 -10.5t-35.5 -2 q-190 0 -274.5 102.5t-84.5 325.5v353v43l-4 22q-10 35 -49 35h-121zM396 1409l69 64q23 -35 95.5 -97.5t171.5 -62.5q102 0 174.5 61.5t99.5 98.5l70 -64q-6 -14 -16.5 -29.5t-94.5 -127t-233 -111.5q-145 0 -230.5 113.5t-105.5 154.5z" />
<glyph unicode="&#x16e;" horiz-adv-x="1796" d="M12 1294v181h838v-181h-125l-20 -2q-49 0 -64.5 -21.5t-15.5 -82.5v-647l2 -39q0 -193 83 -274t269 -81q336 0 336 342l2 62v637q0 70 -12.5 88t-59.5 18h-151v181h690v-181h-146h-18q-39 -4 -52.5 -25.5t-13.5 -80.5v-631q0 -311 -162.5 -453.5t-517.5 -142.5 q-348 0 -490 138.5t-142 443.5v645l-2 31q-4 45 -16.5 58t-51.5 17h-14h-146zM699 1751q0 90 58 150.5t144 60.5q80 0 139.5 -58t59.5 -146q0 -78 -56.5 -139.5t-144.5 -61.5q-82 0 -141 59t-59 135zM799 1755q0 -41 29.5 -68.5t72.5 -27.5q41 0 69 30t28 71t-30 69.5 t-71 28.5t-69.5 -31t-28.5 -72z" />
<glyph unicode="&#x16f;" horiz-adv-x="1468" d="M16 854v166h508v-619q0 -55 7.5 -103t54.5 -87t112 -39q55 0 104.5 24.5t84.5 65.5t46 81t11 116v291q0 59 -16.5 79.5t-67.5 20.5h-106v170h524v-756q0 -61 15.5 -80.5t60.5 -19.5h98v-164h-500v141l-24 -26q-115 -121 -217.5 -129.5t-126 -10.5t-35.5 -2 q-190 0 -274.5 102.5t-84.5 325.5v353v43l-4 22q-10 35 -49 35h-121zM535 1296q0 90 58 150.5t144 60.5q80 0 139.5 -58t59.5 -146q0 -78 -56.5 -139.5t-144.5 -61.5q-82 0 -141 59t-59 135zM635 1300q0 -41 29.5 -68.5t72.5 -27.5q41 0 69 30t28 71t-30 69.5t-71 28.5 t-69.5 -31t-28.5 -72z" />
<glyph unicode="&#x170;" horiz-adv-x="1796" d="M12 1294v181h838v-181h-125l-20 -2q-49 0 -64.5 -21.5t-15.5 -82.5v-647l2 -39q0 -193 83 -274t269 -81q336 0 336 342l2 62v637q0 70 -12.5 88t-59.5 18h-151v181h690v-181h-146h-18q-39 -4 -52.5 -25.5t-13.5 -80.5v-631q0 -311 -162.5 -453.5t-517.5 -142.5 q-348 0 -490 138.5t-142 443.5v645l-2 31q-4 45 -16.5 58t-51.5 17h-14h-146zM434 1700l346 297l118 -162l-387 -243zM899 1700l346 297l118 -162l-387 -243z" />
<glyph unicode="&#x171;" horiz-adv-x="1468" d="M16 854v166h508v-619q0 -55 7.5 -103t54.5 -87t112 -39q55 0 104.5 24.5t84.5 65.5t46 81t11 116v291q0 59 -16.5 79.5t-67.5 20.5h-106v170h524v-756q0 -61 15.5 -80.5t60.5 -19.5h98v-164h-500v141l-24 -26q-115 -121 -217.5 -129.5t-126 -10.5t-35.5 -2 q-190 0 -274.5 102.5t-84.5 325.5v353v43l-4 22q-10 35 -49 35h-121zM270 1245l346 297l118 -162l-387 -243zM735 1245l346 297l118 -162l-387 -243z" />
<glyph unicode="&#x172;" horiz-adv-x="1796" d="M12 1294v181h838v-181h-125l-20 -2q-49 0 -64.5 -21.5t-15.5 -82.5v-647l2 -39q0 -193 83 -274t269 -81q336 0 336 342l2 62v637q0 70 -12.5 88t-59.5 18h-151v181h690v-181h-146h-18q-39 -4 -52.5 -25.5t-13.5 -80.5v-631q0 -311 -162.5 -453.5t-517.5 -142.5 q-348 0 -490 138.5t-142 443.5v645l-2 31q-4 45 -16.5 58t-51.5 17h-14h-146zM1200 -84q0 98 86 178h144q-68 -55 -68 -123q0 -66 66 -65q25 0 46 8t58 37l33 -62q-66 -129 -205 -129q-74 0 -117 41t-43 115z" />
<glyph unicode="&#x173;" horiz-adv-x="1468" d="M16 854v166h508v-619q0 -55 7.5 -103t54.5 -87t112 -39q55 0 104.5 24.5t84.5 65.5t46 81t11 116v291q0 59 -16.5 79.5t-67.5 20.5h-106v170h524v-756q0 -61 15.5 -80.5t60.5 -19.5h98v-164h-500v141l-24 -26q-115 -121 -217.5 -129.5t-126 -10.5t-35.5 -2 q-190 0 -274.5 102.5t-84.5 325.5v353v43l-4 22q-10 35 -49 35h-121zM1087 -178q0 98 86 178h144q-68 -55 -68 -123q0 -66 66 -65q25 0 46 8t58 37l33 -62q-66 -129 -205 -129q-74 0 -117 41t-43 115z" />
<glyph unicode="&#x174;" horiz-adv-x="2445" d="M-39 1294v181h750v-181h-111q-74 0 -74 -49q0 -23 13 -57l282 -830l285 828q14 41 14 65q0 43 -73 43h-136v181h762v-181h-123h-8l-14 -2q-37 -10 -37 -43q0 -20 12 -61l271 -821l278 821q18 55 19 76q0 31 -58 30h-135v181h606v-181h-51h-14l-17 -2q-37 -4 -56 -24.5 t-42 -79.5l-434 -1188h-357l-290 852l-287 -852h-373l-409 1188l-15 31q-35 66 -92 73l-10 2h-8h-68zM877 1651l254 299h184l254 -299l-65 -61l-281 192l-281 -192z" />
<glyph unicode="&#x175;" horiz-adv-x="1906" d="M-29 854v166h621v-166h-39l-27 -2q-49 -6 -49 -39q0 -10 5 -27.5t10 -31.5l161 -451l166 453q10 31 10 47q0 49 -61 49l-25 2h-26v166h637v-166l-29 -2h-31q-72 0 -71 -49q0 -16 10 -47l168 -449l176 447q14 35 14 57q0 33 -43 39l-16 2l-12 2h-41v166h456v-168h-32 l-25 -2q-66 0 -100 -74l-11 -22l-290 -754h-297l-226 575l-231 -575h-285l-297 754q-23 59 -45 79.5t-69 20.5h-13h-43zM608 1196l254 299h184l254 -299l-65 -61l-281 192l-281 -192z" />
<glyph unicode="&#x176;" horiz-adv-x="1519" d="M-51 1294v181h821v-181h-100l-54 -2q-29 -2 -28 -30q0 -16 10 -35l23 -39l231 -357l223 357l19 35q14 27 14 43q0 23 -35 28h-12h-113v181h623v-181h-53h-15h-14q-37 0 -58.5 -14t-60.5 -63l-20 -29l-398 -580v-321q0 -68 16.5 -87.5t78.5 -19.5h22h152v-180h-918v180 h154h20l35 2q37 0 51.5 22.5t14.5 82.5v65v246l-396 590q-43 63 -64.5 80.5t-66.5 23.5l-22 2h-80zM414 1651l254 299h184l254 -299l-65 -61l-281 192l-281 -192z" />
<glyph unicode="&#x177;" horiz-adv-x="1298" d="M-41 -221q0 78 46 136t89 65.5t66 7.5q70 0 118 -44t48 -108q0 -14 -7.5 -64.5t-105.5 -80.5l-27 -4q35 -33 88 -33q51 0 100.5 33.5t90.5 103.5l16 29l17 30l53 109l-397 795l-13 24l-12 23q-25 41 -68 47l-12 2h-16h-70v170h715v-164h-109l-26 -2q-37 0 -37 -33 q0 -12 10 -39l12 -26l213 -437l222 437l12 26l10 23q4 6 4 18q0 33 -61 33h-107v164h516v-164l-16 -2l-51 -2q-37 -6 -66 -51l-18 -29l-10 -20l-471 -893l-35 -64q-47 -78 -88 -127t-114 -103t-202 -54q-100 0 -181 49t-103.5 113.5t-22.5 105.5zM303 1196l254 299h184 l254 -299l-65 -61l-281 192l-281 -192z" />
<glyph unicode="&#x178;" horiz-adv-x="1519" d="M-51 1294v181h821v-181h-100l-54 -2q-29 -2 -28 -30q0 -16 10 -35l23 -39l231 -357l223 357l19 35q14 27 14 43q0 23 -35 28h-12h-113v181h623v-181h-53h-15h-14q-37 0 -58.5 -14t-60.5 -63l-20 -29l-398 -580v-321q0 -68 16.5 -87.5t78.5 -19.5h22h152v-180h-918v180 h154h20l35 2q37 0 51.5 22.5t14.5 82.5v65v246l-396 590q-43 63 -64.5 80.5t-66.5 23.5l-22 2h-80zM395 1737q0 66 47 110.5t115 44.5q70 0 118 -48t48 -115q0 -68 -48 -115t-118 -47q-72 0 -117 49t-45 121zM801 1731q0 68 47 114.5t117 46.5q63 0 112 -47t49 -116 q0 -63 -45 -112.5t-114 -49.5q-68 0 -117 47t-49 117z" />
<glyph unicode="&#x179;" horiz-adv-x="1476" d="M16 0v223l953 1067h-318l-59 -2q-174 0 -245 -64.5t-71 -219.5l-4 -95h-194v566h1349v-207l-976 -1088h454q332 0 332 314l2 75h197v-569h-1420zM572 1700l346 297l118 -162l-387 -243z" />
<glyph unicode="&#x17a;" horiz-adv-x="1122" d="M39 0v205l618 647h-200q-240 0 -240 -178v-66h-156v412h1016v-182l-647 -668h215q145 0 206.5 49t61.5 168v72h162v-459h-1036zM404 1245l346 297l118 -162l-387 -243z" />
<glyph unicode="&#x17b;" horiz-adv-x="1476" d="M16 0v223l953 1067h-318l-59 -2q-174 0 -245 -64.5t-71 -219.5l-4 -95h-194v566h1349v-207l-976 -1088h454q332 0 332 314l2 75h197v-569h-1420zM530 1778q0 72 52.5 128t134.5 56q86 0 146.5 -49t60.5 -127q0 -72 -57.5 -124t-139.5 -52q-86 0 -141.5 49t-55.5 119z" />
<glyph unicode="&#x17c;" horiz-adv-x="1122" d="M39 0v205l618 647h-200q-240 0 -240 -178v-66h-156v412h1016v-182l-647 -668h215q145 0 206.5 49t61.5 168v72h162v-459h-1036zM362 1323q0 72 52.5 128t134.5 56q86 0 146.5 -49t60.5 -127q0 -72 -57.5 -124t-139.5 -52q-86 0 -141.5 49t-55.5 119z" />
<glyph unicode="&#x17d;" horiz-adv-x="1476" d="M16 0v223l953 1067h-318l-59 -2q-174 0 -245 -64.5t-71 -219.5l-4 -95h-194v566h1349v-207l-976 -1088h454q332 0 332 314l2 75h197v-569h-1420zM381 1889l65 61l281 -192l281 192l65 -61l-256 -297h-182z" />
<glyph unicode="&#x17e;" horiz-adv-x="1122" d="M39 0v205l618 647h-200q-240 0 -240 -178v-66h-156v412h1016v-182l-647 -668h215q145 0 206.5 49t61.5 168v72h162v-459h-1036zM213 1434l65 61l281 -192l281 192l65 -61l-256 -297h-182z" />
<glyph unicode="&#x17f;" horiz-adv-x="747" d="M27 0v989q0 215 81.5 310.5t270.5 95.5q334 0 350 -295h-162q-6 55 -28 84q-33 37 -86 37q-43 0 -68 -33t-25 -94v-1094h-333z" />
<glyph unicode="&#x192;" horiz-adv-x="1026" d="M-283 -180q0 33 25 98.5t88.5 78.5t99.5 13q88 0 113 -47t25 -78q0 -74 -41.5 -98.5t-61.5 -28.5q39 -27 90 -26q139 0 164 147l4 27l4 39l95 901l-201 -2l16 168l203 2l14 125q16 160 103.5 241.5t202 99t167.5 17.5q39 0 129.5 -13.5t162 -68.5t71.5 -135 q0 -35 -30 -114t-159 -79q-55 0 -109 25t-54 100q0 47 34.5 84t75.5 45l-30 13q-37 12 -68 12q-33 0 -73 -16.5t-63.5 -52t-33.5 -111.5l-4 -29l-14 -145h288l-16 -170l-285 2l-98 -883q-18 -164 -103.5 -245t-193 -96t-131 -17t-51.5 -2q-133 0 -244 57t-111 162z" />
<glyph unicode="&#x1fc;" horiz-adv-x="2650" d="M-39 0v180h31h43q78 8 155 107l699 889l35 53q4 8 4 22q0 39 -43 39l-78 2h-66v183h1858v-576h-197v78l-6 67q-51 246 -330 246h-424v-440h173q84 0 125.5 42t41.5 134v55h179v-653h-176v53l-3 33q-20 152 -163 152h-177v-484h404q164 0 248 64.5t106 204.5l4 63v80h193 v-594h-1587v180h151h21q57 0 71.5 18.5t14.5 88.5v235h-590l-178 -235l-21 -27l-24 -35q-10 -16 -11 -24q0 -14 17 -19l33 -2h151v-180h-684zM803 696h467v602zM1125 1700l346 297l118 -162l-387 -243z" />
<glyph unicode="&#x1fd;" horiz-adv-x="1918" d="M43 248q0 20 10 116.5t252 163.5l70 15l26 6l103 16l24 4q86 18 115 27.5t79 37.5t50 111q0 53 -38 95.5t-95 54.5t-78.5 12h-34.5q-66 0 -107.5 -10t-80.5 -33q86 -23 86 -116q0 -109 -71.5 -121.5t-94.5 -12.5q-29 0 -66.5 11.5t-68.5 53.5t-31 97q0 53 35 106.5 t123 94.5t180 52t123 11h47h62q113 0 185.5 -24.5t145.5 -77.5q123 82 208 90t102.5 9t37.5 1q233 0 377 -129t162 -348v-84h-774v-45q0 -135 78 -217t194 -82q18 0 116.5 16.5t147.5 176.5l9 32h217q-4 -35 -15.5 -67.5t-51.5 -110.5t-157.5 -144.5t-279.5 -66.5 q-131 0 -230.5 31t-150.5 75t-73.5 68.5t-45.5 53.5l-35 -37q-82 -82 -159.5 -123t-153.5 -53.5t-129 -12.5q-160 0 -252 78t-92 199zM387 279q0 -43 27.5 -76t62.5 -39t51 -6q45 0 103 20q35 18 84 62.5t49 132.5v135q-27 -14 -58.5 -27.5t-68.5 -23.5l-70 -21l-10 -4 l-27 -10l-41 -14q-70 -31 -86 -69t-16 -60zM807 1245l346 297l118 -162l-387 -243zM1110 625h444v32q-10 111 -65 168.5t-146 57.5q-33 0 -72.5 -8.5t-87.5 -60.5t-67 -138z" />
<glyph unicode="&#x1fe;" horiz-adv-x="1757" d="M51 750q0 309 176 512.5t382 232.5t288 29q129 0 238.5 -31t201.5 -90l142 162l94 -64l-135 -158q129 -82 198.5 -231t69.5 -362q0 -344 -220 -560.5t-589 -216.5q-84 0 -205 17.5t-262 81.5l-133 -164l-90 63l131 166q-141 96 -214 247t-73 366zM465 754 q0 -119 16.5 -198t57.5 -157l630 801q-92 143 -276 143q-47 0 -146.5 -24.5t-190.5 -171t-91 -393.5zM604 276q102 -129 277 -129q45 0 142 25t188.5 177.5t91.5 400.5q0 199 -70 327zM723 1700l346 297l118 -162l-387 -243z" />
<glyph unicode="&#x1ff;" horiz-adv-x="1316" d="M49 496q0 25 4 56.5t24.5 142t179.5 227t398 116.5q27 0 43.5 -1t108.5 -11t211 -78l80 76h137l-133 -135q76 -66 120 -165t44 -222q0 -233 -164 -383t-443 -150q-203 0 -342 80l-84 -82l-143 2l137 140l-14 14l-20 20q-143 154 -144 353zM412 506q0 -59 12 -127l10 -51 l422 450l-27 27q-76 66 -151 65q-55 0 -107.5 -25.5t-83 -67.5t-47 -95t-22.5 -92t-6 -84zM475 221q35 -49 85 -69.5t95 -20.5q109 0 183.5 93t74.5 255l-4 88l-12 103zM502 1245l346 297l118 -162l-387 -243z" />
<glyph unicode="&#x218;" horiz-adv-x="1460" d="M49 1063q0 59 31 161.5t179.5 194.5t373.5 92q94 0 195.5 -17t170 -46t142.5 -84l24 -18l54 129h176v-529h-185l-14 55q-53 152 -164.5 238t-271.5 86q-49 0 -93 -1t-96.5 -14.5t-89.5 -34t-64.5 -56t-27.5 -84.5q0 -86 51.5 -115t77 -38t92.5 -26l56 -14l102 -22l63 -13 q123 -25 189.5 -39t170 -51t183.5 -141.5t80 -253.5q0 -195 -143.5 -316.5t-405.5 -121.5h-45q-78 0 -184.5 15t-205.5 52t-187 103l-52 -150h-176v569h193l12 -55q31 -96 93.5 -169t143.5 -117t171 -62t157 -18q139 0 217 59t78 147q-2 14 -2 21q-8 74 -67.5 115t-227.5 84 l-45 10l-45 8l-151 29q-266 47 -399.5 161.5t-133.5 276.5zM582 -387l28 80l25 -4h12t12 -2q14 0 53.5 8t55.5 28.5t16 36.5q0 35 -26.5 47.5t-46 16.5t-45.5 4h-48l35 72l99 24q12 4 39 4q47 0 99 -33.5t52 -113.5q0 -55 -40 -97t-91 -63.5t-121 -21.5q-37 0 -59 2t-49 12z " />
<glyph unicode="&#x219;" horiz-adv-x="1122" d="M55 719q0 74 36 140.5t133.5 129t285.5 62.5q68 0 174.5 -18.5t210.5 -92.5l37 86h141v-352h-151l-19 37q-37 66 -82 103.5t-95 54t-94 20.5t-83 4q-88 0 -132 -33t-44 -78q0 -39 35.5 -62.5t134.5 -45.5l37 -8l112 -21q145 -25 220 -53.5t144.5 -90t69.5 -188.5 q0 -139 -85 -209.5t-179 -100.5t-203 -30q-63 0 -138 12.5t-139.5 38t-127.5 70.5l-39 -94h-147v379h151l14 -31q92 -168 205 -189.5t137.5 -23.5t45.5 -2q47 0 89 14.5t71.5 37t29.5 67.5q0 41 -26.5 62.5t-65.5 34.5t-119 30l-51 10q-86 14 -131 24.5t-98.5 26t-95.5 35 t-105.5 69.5t-63.5 175zM418 -387l28 80l25 -4h12t13 -2q14 0 53 8t55.5 28.5t16.5 36.5q0 35 -27 47.5t-46.5 16.5t-45.5 4h-47l34 72l99 24q12 4 39 4q47 0 99 -33.5t52 -113.5q0 -55 -40 -97t-91 -63.5t-121 -21.5q-37 0 -59 2t-49 12z" />
<glyph unicode="&#x21a;" horiz-adv-x="1607" d="M16 897v578h1598v-576h-189l-2 76q0 31 -22.5 120t-93 142t-199.5 53l-98 -2v-1001q0 -61 12 -83t49 -22l33 -2h22h152v-180h-938v180h152h26q63 0 84 20.5t21 86.5l4 67v936l-109 -2q-268 0 -288.5 -143.5t-20.5 -179.5l-2 -68h-191zM598 -379l29 80l24 -4h12.5t12.5 -2 q14 0 53 8t55.5 28.5t16.5 37.5q0 35 -26.5 47t-46 16t-46.5 4h-47l35 72l98 24q12 4 39 5q47 0 99 -34t52 -114q0 -55 -39.5 -97t-91 -63.5t-120.5 -21.5q-37 0 -59.5 2t-49.5 12z" />
<glyph unicode="&#x21b;" horiz-adv-x="911" d="M10 856v160q47 0 168 29.5t156 287.5l4 62h186v-375h334v-168h-334v-500v-33v-40q0 -61 24.5 -94t67.5 -33q53 0 85 37.5t32 125.5l2 29v92h158v-133q0 -326 -350 -326q-188 0 -270.5 95.5t-82.5 310.5v473h-180zM334 -379l28 80l25 -4h12t13 -2q14 0 53 8t55.5 28.5 t16.5 37.5q0 35 -27 47t-46.5 16t-45.5 4h-47l35 72l98 24q12 4 39 5q47 0 99 -34t52 -114q0 -55 -40 -97t-91 -63.5t-121 -21.5q-37 0 -59 2t-49 12z" />
<glyph unicode="&#x2c6;" horiz-adv-x="684" d="M-4 1196l254 299h184l254 -299l-65 -61l-281 192l-281 -192z" />
<glyph unicode="&#x2c7;" horiz-adv-x="684" d="M-4 1434l65 61l281 -192l281 192l65 -61l-256 -297h-182z" />
<glyph unicode="&#x2d8;" horiz-adv-x="737" d="M29 1409l69 64q23 -35 95.5 -97.5t171.5 -62.5q102 0 174.5 61.5t99.5 98.5l70 -64q-6 -14 -16.5 -29.5t-94.5 -127t-233 -111.5q-145 0 -230.5 113.5t-105.5 154.5z" />
<glyph unicode="&#x2d9;" horiz-adv-x="753" d="M184 1323q0 72 52.5 128t134.5 56q86 0 146.5 -49t60.5 -127q0 -72 -57.5 -124t-139.5 -52q-86 0 -141.5 49t-55.5 119z" />
<glyph unicode="&#x2da;" horiz-adv-x="458" d="M29 1296q0 90 58 150.5t144 60.5q80 0 139.5 -58t59.5 -146q0 -78 -56.5 -139.5t-144.5 -61.5q-82 0 -141 59t-59 135zM129 1300q0 -41 29.5 -68.5t72.5 -27.5q41 0 69 30t28 71t-30 69.5t-71 28.5t-69.5 -31t-28.5 -72z" />
<glyph unicode="&#x2db;" horiz-adv-x="655" d="M139 -178q0 98 86 178h144q-68 -55 -68 -123q0 -66 66 -65q25 0 46 8t58 37l33 -62q-66 -129 -205 -129q-74 0 -117 41t-43 115z" />
<glyph unicode="&#x2dc;" horiz-adv-x="739" d="M-4 1165l4 41q43 231 236 232q61 0 133 -27l75 -27l17 -8q74 -29 114 -28q68 0 93 71l4 19h71v-54q-8 -102 -64 -157.5t-144 -55.5q-53 0 -121 23l-80 27l-12 4q-96 37 -150 37q-76 0 -100 -82l-2 -15h-74z" />
<glyph unicode="&#x2dd;" horiz-adv-x="1024" d="M0 1245l346 297l118 -162l-387 -243zM465 1245l346 297l118 -162l-387 -243z" />
<glyph unicode="&#x386;" horiz-adv-x="1689" d="M-35 0v180h55h15l14 2q39 4 62.5 25.5t48.5 79.5l491 1188h410l471 -1188q25 -63 47.5 -82t77.5 -25h12h55v-180h-757v180h145q51 0 51 29q0 10 -2 16l-24 62l-78 194h-565l-80 -194q-8 -20 -15.5 -42t-7.5 -34q0 -31 53 -31h154v-180h-633zM68 1245l346 297l118 -162 l-387 -243zM567 666h422l-209 536z" />
<glyph unicode="&#x388;" horiz-adv-x="2209" d="M84 1401l346 297l118 -162l-387 -243zM551 0v180h152h22q59 0 76 19.5t17 87.5v73v828q0 68 -15.5 87t-70.5 19h-23h-158v181h1608v-566h-197v90q0 160 -95 230.5t-316 70.5h-350v-444h157q96 0 138.5 42t42.5 144v48h180v-656h-176v58q0 182 -174 182h-168v-490h360 l66 2q176 0 255.5 80t79.5 252l3 84h194v-602h-1608z" />
<glyph unicode="&#x389;" horiz-adv-x="2512" d="M68 1245l346 297l118 -162l-387 -243zM551 0v180h160h21q49 0 65.5 20.5t16.5 86.5v901q0 68 -12.5 85t-67.5 21h-21h-160v181h873v-181h-152q-76 0 -75 -45l-2 -63v-342h655v342l-2 55v8q-2 23 -19.5 34t-54.5 11h-154v181h875v-181h-160h-22q-51 -4 -65.5 -22.5 t-14.5 -83.5v-901q0 -66 15.5 -86.5t64.5 -20.5h22h160v-180h-870v180h135q59 0 74.5 17.5t15.5 89.5v377h-655v-377l2 -49v-13q4 -29 25.5 -37t45.5 -8h152v-180h-871z" />
<glyph unicode="&#x38a;" horiz-adv-x="1476" d="M68 1245l346 297l118 -162l-387 -243zM571 1294v181h910v-181h-156h-18l-29 -4q-39 -4 -48 -32.5t-9 -71.5l-2 -899q0 -70 13 -88.5t66 -18.5h23h160v-180h-908v180h152h23q55 0 71.5 20.5t16.5 86.5v69l2 830q0 68 -15.5 87t-70.5 19l-21 2h-160z" />
<glyph unicode="&#x38c;" horiz-adv-x="2291" d="M68 1245l346 297l118 -162l-387 -243zM586 750q0 348 221.5 561t606.5 213t606 -215t221 -566q0 -348 -221 -561t-606 -213t-606.5 213.5t-221.5 567.5zM990 750q0 -252 91 -406t189.5 -178.5t147.5 -24.5q180 0 300 160t120 449q0 283 -121 441.5t-301 158.5 q-47 0 -144.5 -25t-189.5 -178t-92 -397z" />
<glyph unicode="&#x38e;" horiz-adv-x="2054" d="M-14 1245l346 297l118 -162l-387 -243zM484 1294v181h821v-181h-100l-54 -2q-29 -2 -28 -30q0 -16 10 -35l23 -39l231 -357l223 357l19 35q14 27 14 43q0 23 -35 28h-12h-113v181h623v-181h-53h-15h-14q-37 0 -58.5 -14t-60.5 -63l-20 -29l-398 -580v-321 q0 -68 16.5 -87.5t78.5 -19.5h22h152v-180h-918v180h154h20l35 2q37 0 51.5 22.5t14.5 82.5v65v246l-396 590q-43 63 -64.5 80.5t-66.5 23.5l-22 2h-80z" />
<glyph unicode="&#x38f;" horiz-adv-x="2240" d="M68 1245l346 297l118 -162l-387 -243zM528 -2v199h643v-199h-643zM540 733q0 334 216.5 538t592.5 202q373 0 589 -205t214 -545q0 -334 -215 -537q-154 -145 -389 -188v205q61 43 121 141q90 145 90 381q2 240 -87 388.5t-185.5 172t-143.5 23.5q-174 0 -291.5 -152.5 t-117.5 -431.5q-2 -270 116 -422q53 -72 121 -110v-199q-254 41 -418 196q-215 207 -213 543zM1550 -2v199h623v-199h-623z" />
<glyph unicode="&#x390;" horiz-adv-x="772" d="M-94 1305q0 66 47 110.5t115 44.5q70 0 118 -48t48 -116t-48.5 -114.5t-117.5 -46.5q-72 0 -117 49t-45 121zM154 0v164h106q53 0 71.5 20.5t18.5 79.5v74v414l-2 39v10l-6 16q-10 18 -25.5 26.5t-48.5 8.5h-108v168h524v-756v-37l2 -12q6 -51 70 -51h106v-164h-708z M285 1245l346 297l119 -162l-387 -243zM782 1298q0 68 47.5 115t116.5 47q63 0 112.5 -47t49.5 -117q0 -63 -45 -112t-115 -49q-68 0 -117 46.5t-49 116.5z" />
<glyph unicode="&#x391;" horiz-adv-x="1689" d="M47 0v180h55h15l14 2q39 4 62.5 25.5t48.5 79.5l491 1188h410l471 -1188q25 -63 47.5 -82t77.5 -25h12h55v-180h-757v180h145q51 0 51 29q0 10 -2 16l-24 62l-78 194h-565l-80 -194q-8 -20 -15.5 -42t-7.5 -34q0 -31 53 -31h154v-180h-633zM649 666h422l-209 536z" />
<glyph unicode="&#x392;" horiz-adv-x="1685" d="M36 0v180h148h22q59 0 76 19.5t17 87.5l2 84v817q0 70 -15.5 88t-77.5 18h-22h-150v181h969q291 0 437.5 -88.5t146.5 -245.5q0 -43 -13.5 -105.5t-77 -130t-175.5 -114.5l-29 -11l33 -8q170 -41 261 -136t91 -226q0 -37 -8.5 -74t-16.5 -61.5t-40.5 -85t-132 -116 t-279.5 -69.5l-101 -4h-1065zM684 188h288q131 0 205 51.5t85 115t11 91.5q0 106 -80.5 167t-232.5 61h-276v-486zM684 858h286l47 2q180 27 193.5 123t13.5 111q0 203 -266 202h-274v-438z" />
<glyph unicode="&#x393;" horiz-adv-x="1255" d="M27 0v178h180l16 2q51 0 51 94v926q0 88 -47 94h-10l-27 2h-163v179h637v-256l-7 18v-965q0 -61 12.5 -77.5t53.5 -16.5h131v-178h-827zM37 1300v175h1173v-175h-1173z" />
<glyph unicode="&#x394;" horiz-adv-x="1574" d="M31 0v180h71q45 0 64.5 15.5t46.5 72.5l8 19l492 1188h342l477 -1188q16 -39 24.5 -53.5t29 -34t67.5 -19.5h69v-180h-1132v180h502q57 0 57 33q0 20 -23 76l-323 827l-330 -829q-20 -49 -20 -74q0 -33 63 -33h152v-180h-637z" />
<glyph unicode="&#x395;" horiz-adv-x="1675" d="M16 0v180h152h22q59 0 76 19.5t17 87.5v73v828q0 68 -15.5 87t-70.5 19h-23h-158v181h1608v-566h-197v90q0 160 -95 230.5t-316 70.5h-350v-444h157q96 0 138.5 42t42.5 144v48h180v-656h-176v58q0 182 -174 182h-168v-490h360l66 2q176 0 255.5 80t79.5 252l3 84h194 v-602h-1608z" />
<glyph unicode="&#x396;" horiz-adv-x="1476" d="M16 0v223l953 1067h-318l-59 -2q-174 0 -245 -64.5t-71 -219.5l-4 -95h-194v566h1349v-207l-976 -1088h454q332 0 332 314l2 75h197v-569h-1420z" />
<glyph unicode="&#x397;" horiz-adv-x="1978" d="M16 0v180h160h21q49 0 65.5 20.5t16.5 86.5v901q0 68 -12.5 85t-67.5 21h-21h-160v181h873v-181h-152q-76 0 -75 -45l-2 -63v-342h655v342l-2 55v8q-2 23 -19.5 34t-54.5 11h-154v181h875v-181h-160h-22q-51 -4 -65.5 -22.5t-14.5 -83.5v-901q0 -66 15.5 -86.5 t64.5 -20.5h22h160v-180h-870v180h135q59 0 74.5 17.5t15.5 89.5v377h-655v-377l2 -49v-13q4 -29 25.5 -37t45.5 -8h152v-180h-871z" />
<glyph unicode="&#x398;" horiz-adv-x="1587" d="M-16 762q2 348 223 560t606 212t606 -214t219 -568q0 -348 -221 -560t-606 -212t-606 216t-221 566zM387 754q0 -283 121 -441.5t301 -158.5q47 0 144.5 24.5t189.5 178t92 397.5q2 252 -89 405.5t-189.5 178t-147.5 24.5q-180 0 -300 -160t-122 -448zM573 647v191h478 v-191h-478z" />
<glyph unicode="&#x399;" d="M36 1294v181h910v-181h-156h-18l-29 -4q-39 -4 -48 -32.5t-9 -71.5l-2 -899q0 -70 13 -88.5t66 -18.5h23h160v-180h-908v180h152h23q55 0 71.5 20.5t16.5 86.5v69l2 830q0 68 -15.5 87t-70.5 19l-21 2h-160z" />
<glyph unicode="&#x39a;" horiz-adv-x="1908" d="M16 0v180h172h19q43 4 56 23.5t13 83.5l5 51v850q0 63 -13.5 82.5t-56.5 23.5h-21h-174v181h856v-181h-151q-37 0 -47 -18.5t-10 -89.5v-432l516 434q27 20 39 34.5t18 26.5q6 16 -2 29.5t-27 15.5h-94h-84v181h819v-181h-145q-51 0 -107 -45l-75 -63l-330 -273l496 -626 l22 -27q43 -45 65.5 -61.5t51.5 -18.5h10h94v-180h-872v180h84l82 2l30 6q18 6 19 29q0 18 -10 37l-23 33l-338 393l-239 -207v-186q0 -70 12 -88.5t61 -18.5h25h125v-180h-871z" />
<glyph unicode="&#x39b;" horiz-adv-x="1722" d="M10 0v180h70q47 0 67.5 19.5t28.5 34t25 53.5l477 1188h342l491 -1188l9 -19q27 -57 46 -72.5t64 -15.5h72v-180h-637v180h152q63 0 63 33q0 25 -20 74l-330 829l-324 -827q-23 -55 -22 -76q0 -33 57 -33h154v-180h-785z" />
<glyph unicode="&#x39c;" horiz-adv-x="2306" d="M16 0v178h148h22h35q47 0 58 68l2 26v930q0 47 -27 70.5t-86 23.5h-41h-111v179h797l358 -992l340 992h779v-179h-164l-27 -2h-10q-47 -6 -47 -94v-926q0 -94 51 -94l16 -2h23h158v-178h-828v178h131q41 0 53.5 16.5t12.5 77.5v965l-412 -1237h-291l-432 1217v-945v-45 l2 -10q0 -39 58 -39h147v-178h-715z" />
<glyph unicode="&#x39d;" horiz-adv-x="1896" d="M16 0v180h179q53 0 68.5 19.5t15.5 87.5v899q0 66 -13.5 85t-62.5 23h-17h-170v181h676l731 -1053v766l-2 29q0 41 -12 56t-43 19l-16 2h-162v181h692v-181h-160q-51 0 -65.5 -14t-14.5 -68l-2 -24v-1188h-360l-778 1122l2 -835q0 -70 14 -88.5t64 -18.5h161v-180h-725z " />
<glyph unicode="&#x39e;" horiz-adv-x="1122" d="M16 10v193h1096v-193h-1096zM20 1034v193h1096v-193h-1096zM104 535v192h908v-192h-908z" />
<glyph unicode="&#x39f;" horiz-adv-x="1757" d="M51 750q0 348 221.5 561t606.5 213t606 -215t221 -566q0 -348 -221 -561t-606 -213t-606.5 213.5t-221.5 567.5zM455 750q0 -252 91 -406t189.5 -178.5t147.5 -24.5q180 0 300 160t120 449q0 283 -121 441.5t-301 158.5q-47 0 -144.5 -25t-189.5 -178t-92 -397z" />
<glyph unicode="&#x3a0;" horiz-adv-x="1882" d="M12 1300v175h1796v-175h-1796zM16 0v178h205q47 0 58 68l2 26v930q0 47 -27 70.5t-86 23.5h-152v179h510l4 -277l-6 19v-990l2 -10q0 -39 58 -39h147v-178h-715zM979 0v178h131q41 0 53.5 16.5t12.5 77.5v965l-7 -18v256h637v-179h-164l-26 -2h-10q-47 -6 -47 -94v-926 q0 -94 51 -94l16 -2h180v-178h-827z" />
<glyph unicode="&#x3a1;" horiz-adv-x="1626" d="M16 0v180h136h24q63 0 84 20.5t21 86.5v57v844q0 57 -13.5 77.5t-50.5 24.5l-33 4h-20h-146v181h1076q252 0 389 -104.5t137 -283.5q0 -166 -109.5 -279.5t-318.5 -139.5l-94 -6h-434v-375q0 -59 16 -82t65 -23l60 -2h14h152v-180h-955zM664 838h262q111 0 171 22.5 t102 79.5t42 135q0 76 -48 136.5t-102.5 72.5t-91 16.5t-90.5 4.5h-245v-467z" />
<glyph unicode="&#x3a3;" horiz-adv-x="1533" d="M49 0v180h96q59 0 88 15.5t99 89.5l397 430v41l-397 432q-70 74 -98.5 90t-88.5 16h-96v181h1430v-181h-809l-49 -2q-43 -6 -35 -43q4 -23 37 -61l426 -449l4 -90l-369 -364q-33 -39 -37 -62q-8 -35 35 -41l49 -2h756v-180h-1438z" />
<glyph unicode="&#x3a4;" horiz-adv-x="1632" d="M16 897v578h1598v-576h-189l-2 76q0 31 -22.5 120t-93 142t-199.5 53l-98 -2v-1001q0 -61 12 -83t49 -22l33 -2h22h152v-180h-938v180h152h26q63 0 84 20.5t21 86.5l4 67v936l-109 -2q-268 0 -288.5 -143.5t-20.5 -179.5l-2 -68h-191z" />
<glyph unicode="&#x3a5;" horiz-adv-x="1519" d="M-51 1294v181h821v-181h-100l-54 -2q-29 -2 -28 -30q0 -16 10 -35l23 -39l231 -357l223 357l19 35q14 27 14 43q0 23 -35 28h-12h-113v181h623v-181h-53h-15h-14q-37 0 -58.5 -14t-60.5 -63l-20 -29l-398 -580v-321q0 -68 16.5 -87.5t78.5 -19.5h22h152v-180h-918v180 h154h20l35 2q37 0 51.5 22.5t14.5 82.5v65v246l-396 590q-43 63 -64.5 80.5t-66.5 23.5l-22 2h-80z" />
<glyph unicode="&#x3a6;" horiz-adv-x="1615" d="M18 623q2 313 215.5 494t567.5 179q348 0 561 -181t211 -497q0 -315 -215 -495t-565 -178q-348 0 -561.5 181t-213.5 497zM190 618q0 -147 160 -245.5t449 -98.5q283 -2 441.5 97.5t158.5 246.5q0 37 -23.5 117t-177 156t-397.5 76q-252 0 -405.5 -74t-179.5 -155 t-26 -120zM709 -287v1809h190v-1809h-190z" />
<glyph unicode="&#x3a7;" horiz-adv-x="1794" d="M0 0v180h96q59 0 88 16.5t99 90.5l405 440l-385 461q-37 43 -64.5 65.5t-44 29.5t-29.5 9t-22 2h-112v181h858v-181h-90h-13l-22 -2q-43 -6 -33 -43q2 -8 8 -18t31 -43l174 -240l213 240q47 51 53.5 64.5t6.5 17.5q0 16 -21 22l-39 2h-96v181h663v-181h-92q-51 0 -88 -16 l-43 -29l-57 -61l-338 -371l444 -530l27 -31q45 -47 74.5 -61.5t79.5 -14.5h63v-180h-868v180h118q49 0 72 11.5t23 29.5q0 23 -37 66l-250 309l-279 -309q-33 -39 -36 -62q-8 -37 34 -43l50 -2h100v-180h-721z" />
<glyph unicode="&#x3a8;" horiz-adv-x="1820" d="M47 1298v152h703v-152h-105l-16 -2q-43 0 -55.5 -17t-12.5 -69v-401l2 -33q0 -160 70 -227q63 -66 203 -70v-153q-31 -2 -66 -2q-291 0 -410.5 115.5t-119.5 371.5v399l-2 25q-4 39 -14.5 49t-43.5 14h-133zM815 0v1141h191v-1141h-191zM989 326v153q139 4 203 70 q70 68 70 227l2 33v401q0 51 -12.5 68.5t-55.5 17.5l-16 2h-105v152h703v-152h-133q-33 -4 -43.5 -14t-14.5 -49l-2 -25v-399q0 -256 -119.5 -371.5t-410.5 -115.5q-35 0 -66 2z" />
<glyph unicode="&#x3a9;" horiz-adv-x="1755" d="M51 -2v199h643v-199h-643zM63 733q0 334 216.5 538t592.5 202q373 0 589 -205t214 -545q0 -334 -215 -537q-154 -145 -389 -188v205q61 43 121 141q90 145 90 381q2 240 -87 388.5t-185.5 172t-143.5 23.5q-174 0 -291.5 -152.5t-117.5 -431.5q-2 -270 116 -422 q53 -72 121 -110v-199q-254 41 -418 196q-215 207 -213 543zM1073 -2v199h623v-199h-623z" />
<glyph unicode="&#x3aa;" d="M16 1294v181h910v-181h-156h-18l-29 -4q-39 -4 -48 -32.5t-9 -71.5l-2 -899q0 -70 13 -88.5t66 -18.5h23h160v-180h-908v180h152h23q55 0 71.5 20.5t16.5 86.5v69l2 830q0 68 -15.5 87t-70.5 19l-21 2h-160zM86 1760q0 66 47 110.5t115 44.5q70 0 118 -48t48 -116 t-48.5 -114.5t-117.5 -46.5q-72 0 -117 49t-45 121zM491 1753q0 68 47.5 115t116.5 47q63 0 112.5 -47t49.5 -117q0 -63 -45 -112t-115 -49q-68 0 -117 46.5t-49 116.5z" />
<glyph unicode="&#x3ab;" horiz-adv-x="1519" d="M39 1294v181h821v-181h-100l-54 -2q-29 -2 -28 -30q0 -16 10 -35l23 -39l231 -357l223 357l19 35q14 27 14 43q0 23 -35 28h-12h-113v181h623v-181h-53h-15h-14q-37 0 -58.5 -14t-60.5 -63l-20 -29l-398 -580v-321q0 -68 16.5 -87.5t78.5 -19.5h22h152v-180h-918v180h154 h20l35 2q37 0 51.5 22.5t14.5 82.5v65v246l-396 590q-43 63 -64.5 80.5t-66.5 23.5l-22 2h-80zM485 1760q0 66 47 110.5t115 44.5q70 0 118 -48t48 -116t-48.5 -114.5t-117.5 -46.5q-72 0 -117 49t-45 121zM890 1753q0 68 47.5 115t116.5 47q63 0 112.5 -47t49.5 -117 q0 -63 -45 -112t-115 -49q-68 0 -117 46.5t-49 116.5z" />
<glyph unicode="&#x3ac;" horiz-adv-x="1722" d="M10 512q0 236 163 385.5t437 149.5q55 0 183.5 -15.5t258.5 -127t151.5 -226.5t21.5 -176q0 -211 -135.5 -355.5t-279.5 -161t-200 -16.5q-276 0 -438 151.5t-162 391.5zM358 512l4 -82q14 -152 81 -227.5t173 -75.5q117 0 190 93t73 276q0 45 -11.5 143t-78 173 t-173.5 75l-45 -4q-88 -16 -141 -88t-68 -205zM691 1245l346 297l118 -162l-387 -243zM928 481l202 342l21 37q8 18 8 25q8 47 -61 47h-4l12 180h575l-12 -182h-59q-29 0 -41.5 -7.5t-35 -28t-54.5 -73.5l-320 -532zM944 496l242 178q36 -29 63 -62q66 -82 94 -243 q10 -59 18.5 -89t14.5 -49.5t25.5 -44t52.5 -24.5q27 0 40 16.5t16 45t-7 87.5l-18 101h160l24 -131q53 -303 -278 -304q-182 0 -283.5 103.5t-146.5 357.5q-6 31 -17 58z" />
<glyph unicode="&#x3ad;" horiz-adv-x="944" d="M29 309q0 123 59 165t96 60.5t64 28.5l22 6l-32 9q-27 6 -56.5 23t-75 55t-45.5 132q0 111 63.5 161t119 69.5t120 30t86 10.5h54.5q158 0 256 -56.5t129 -150.5l10 -41q10 -74 -38 -121t-120 -37q-43 8 -75.5 36t-32.5 77q0 51 43 82l26 14q29 14 64 10q-29 37 -78 55.5 t-119 18.5q-125 0 -185 -53t-48 -137q10 -70 63.5 -106t159.5 -36h29v-108h-25q-121 0 -187.5 -52.5t-66.5 -127.5q0 -23 13.5 -67t78 -84t156.5 -40q31 0 47 2l37 6q90 18 139 74l-20 4q-119 18 -103 129q8 47 45 77t86 30q27 0 65 -16.5t60.5 -55.5t22.5 -90 q0 -41 -11.5 -73t-50 -81t-137 -87t-239.5 -38q-57 0 -129 9l-86 14q-53 14 -87 30.5t-75 47t-66.5 84t-25.5 108.5zM328 1245l346 297l118 -162l-387 -243z" />
<glyph unicode="&#x3ae;" horiz-adv-x="1517" d="M29 0v164h114q49 0 64.5 19.5t15.5 80.5v51v437v36l-2 11q0 51 -71 51h-121v170h520v-146q111 133 233.5 150.5t180.5 17.5q184 0 266 -103t82 -321v-757l2 -21v-28q0 -51 59 -52h109v-163h-647v163h71h15q29 0 41 16.5t16 65.5v19v749v37q0 18 -5 64.5t-54.5 89.5 t-118.5 43q-49 0 -145.5 -45t-96.5 -232v-303v-26l2 -23q0 -49 53 -49l19 -2h80v-164h-682zM600 1245l346 297l118 -162l-387 -243z" />
<glyph unicode="&#x3af;" horiz-adv-x="772" d="M29 0v164h106q53 0 71.5 20.5t18.5 79.5v74v414l-2 39v10l-6 16q-10 18 -25.5 26.5t-48.5 8.5h-108v168h524v-756v-37l2 -12q6 -51 70 -51h106v-164h-708zM228 1245l346 297l118 -162l-387 -243z" />
<glyph unicode="&#x3b1;" horiz-adv-x="1722" d="M10 512q0 236 163 385.5t437 149.5q55 0 183.5 -15.5t258.5 -127t151.5 -226.5t21.5 -176q0 -211 -135.5 -355.5t-279.5 -161t-200 -16.5q-276 0 -438 151.5t-162 391.5zM358 512l4 -82q14 -152 81 -227.5t173 -75.5q117 0 190 93t73 276q0 45 -11.5 143t-78 173 t-173.5 75l-45 -4q-88 -16 -141 -88t-68 -205zM928 481l202 342l21 37q8 18 8 25q8 47 -61 47h-4l12 180h575l-12 -182h-59q-29 0 -41.5 -7.5t-35 -28t-54.5 -73.5l-320 -532zM944 496l242 178q36 -29 63 -62q66 -82 94 -243q10 -59 18.5 -89t14.5 -49.5t25.5 -44 t52.5 -24.5q27 0 40 16.5t16 45t-7 87.5l-18 101h160l24 -131q53 -303 -278 -304q-182 0 -283.5 103.5t-146.5 357.5q-6 31 -17 58z" />
<glyph unicode="&#x3b2;" horiz-adv-x="1288" d="M51 -434v1360q0 229 86 327q143 197 473 201h64.5t101.5 -14.5t142.5 -42t146.5 -98t90 -226.5q12 -131 -36 -184t-80.5 -77t-63.5 -32l-37 -12l25 -8q33 -16 77.5 -41t119.5 -84.5t84 -184t-14.5 -199.5t-67.5 -117t-82 -65.5t-99 -43.5l-98 -21q-82 -10 -148 -10 q-225 -10 -315 47q-6 4 -12 10v-485h-357zM408 240q47 -61 145 -70l43 -6q18 -4 55 -4q106 0 178 55t82.5 117.5t8.5 93.5q-8 106 -91.5 180t-230.5 74v151q121 0 179.5 50.5t64.5 146.5q4 119 -78 198t-193.5 67.5t-137 -46.5t-25.5 -100v-907z" />
<glyph unicode="&#x3b3;" horiz-adv-x="1378" d="M31 850v170h678v-168h-107q-70 0 -70 -43q0 -6 5 -23l14 -34l215 -484l197 486q16 43 16 59q0 31 -33 37l-10 2h-84v168h494v-168h-89l-10 -2q-20 -4 -33.5 -19.5t-33.5 -54.5l-11 -22l-321 -754h-305l-340 750q-25 49 -43.5 68.5t-29.5 25.5t-40 6h-59zM348 -328h101 q51 0 68.5 20.5t17.5 80.5v391h317v-428l2 -12q6 -51 68 -52h100v-164h-674v164z" />
<glyph unicode="&#x3b4;" horiz-adv-x="1304" d="M31 492q0 236 162.5 385t437.5 149q55 0 183 -15.5t258 -127t151.5 -226t21.5 -176.5q0 -211 -135 -355t-279.5 -160.5t-199.5 -16.5q-276 0 -438 151.5t-162 391.5zM145 1323v180h1123v-180h-502l-49 -2q-43 -6 -35 -43q4 -23 37 -61l336 -334l-234 -95l-393 429 q-70 74 -98.5 90t-87.5 16h-97zM379 492l4 -82q14 -152 80.5 -228t173.5 -76q117 0 189.5 93.5t72.5 275.5q0 45 -11 143.5t-78 173t-173 74.5l-45 -4q-88 -16 -141.5 -88t-67.5 -205z" />
<glyph unicode="&#x3b5;" horiz-adv-x="944" d="M29 309q0 123 59 165t96 60.5t64 28.5l22 6l-32 9q-27 6 -56.5 23t-75 55t-45.5 132q0 111 63.5 161t119 69.5t120 30t86 10.5h54.5q158 0 256 -56.5t129 -150.5l10 -41q10 -74 -38 -121t-120 -37q-43 8 -75.5 36t-32.5 77q0 51 43 82l26 14q29 14 64 10q-29 37 -78 55.5 t-119 18.5q-125 0 -185 -53t-48 -137q10 -70 63.5 -106t159.5 -36h29v-108h-25q-121 0 -187.5 -52.5t-66.5 -127.5q0 -23 13.5 -67t78 -84t156.5 -40q31 0 47 2l37 6q90 18 139 74l-20 4q-119 18 -103 129q8 47 45 77t86 30q27 0 65 -16.5t60.5 -55.5t22.5 -90 q0 -41 -11.5 -73t-50 -81t-137 -87t-239.5 -38q-57 0 -129 9l-86 14q-53 14 -87 30.5t-75 47t-66.5 84t-25.5 108.5z" />
<glyph unicode="&#x3b6;" horiz-adv-x="1165" d="M23 530q-25 261 497 658q33 39 37 61q8 37 -35 43l-49 2h-420v181h1041v-181h-97q-59 0 -87.5 -16t-98.5 -90q-494 -469 -453 -658q0 -156 86 -253t272.5 -120.5t277.5 -86t108.5 -132t17.5 -108.5q0 -129 -111.5 -216t-232.5 -97.5t-168 -10.5h-51l16 111 q139 -16 200 41t61 168q0 27 -20.5 97.5t-228.5 106.5t-378 154q-184 129 -184 346z" />
<glyph unicode="&#x3b7;" horiz-adv-x="1517" d="M29 0v164h114q49 0 64.5 19.5t15.5 80.5v51v437v36l-2 11q0 51 -71 51h-121v170h520v-146q111 133 233.5 150.5t180.5 17.5q184 0 266 -103t82 -321v-757l2 -21v-28q0 -51 59 -52h109v-163h-647v163h71h15q29 0 41 16.5t16 65.5v19v749v37q0 18 -5 64.5t-54.5 89.5 t-118.5 43q-49 0 -145.5 -45t-96.5 -232v-303v-26l2 -23q0 -49 53 -49l19 -2h80v-164h-682z" />
<glyph unicode="&#x3b8;" horiz-adv-x="1122" d="M-16 762q2 348 155.5 560t421.5 212t423 -214t153 -568q0 -348 -155 -560t-423 -212t-421.5 216t-153.5 566zM231 647v191h652v-191h-652zM266 754q-2 -283 82 -441.5t211 -158.5q33 0 100.5 24.5t132 178t64.5 397.5q0 252 -63.5 405.5t-131 178t-102.5 24.5 q-125 0 -209 -160t-84 -448z" />
<glyph unicode="&#x3b9;" horiz-adv-x="772" d="M29 0v164h106q53 0 71.5 20.5t18.5 79.5v74v414l-2 39v10l-6 16q-10 18 -25.5 26.5t-48.5 8.5h-108v168h524v-756v-37l2 -12q6 -51 70 -51h106v-164h-708z" />
<glyph unicode="&#x3ba;" horiz-adv-x="1325" d="M16 0v129h123h15q31 4 40 17.5t9 60.5l4 35v610q0 47 -10.5 60.5t-40.5 17.5h-15h-125v129h615v-129h-109q-27 0 -34 -13.5t-7 -64.5v-311l371 311q18 16 27.5 26.5t13.5 18.5q4 12 -2 21.5t-19 11.5h-67h-62v129h590v-129h-104q-37 0 -78 -33l-53 -45l-238 -197 l357 -448l16 -21q31 -33 47 -44t37 -13h6h68v-129h-627v129h61l60 2l20 4q14 4 15 21q0 14 -9 26l-16 25l-242 280l-172 -147v-133q0 -51 9.5 -64.5t44.5 -13.5h16h90v-129h-625z" />
<glyph unicode="&#x3bb;" horiz-adv-x="1394" d="M47 0v170h59q29 0 40.5 6t30 25.5t42.5 68.5l340 750h305l322 -754l10 -22q20 -39 33.5 -54.5t34.5 -19.5l10 -2h88v-168h-494v168h84l11 2q33 6 32 37q0 16 -16 59l-197 486l-215 -484l-14 -35q-4 -16 -4 -22q0 -43 69 -43h107v-168h-678zM397 1313v168h494v-168h-84 l-10 -2q-33 -6 -33 -37q0 -16 16 -60l187 -460l59 -293h-131l-322 753l-10 23q-20 39 -33.5 54.5t-33.5 19.5l-11 2h-88z" />
<glyph unicode="&#x3bc;" horiz-adv-x="1484" d="M16 -209h121q39 0 49 35l4 22v816h334v-1039h-508v166zM16 854v166h508v-619q0 -55 7.5 -103t54.5 -87t112 -39q55 0 104.5 24.5t84.5 65.5t46 81t11 116v291q0 59 -16.5 79.5t-67.5 20.5h-106v170h524v-756q0 -61 15.5 -80.5t60.5 -19.5h98v-164h-500v141l-24 -26 q-115 -121 -217.5 -129.5t-126 -10.5t-35.5 -2q-190 0 -274.5 102.5t-84.5 325.5v396l-4 22q-10 35 -49 35h-121z" />
<glyph unicode="&#x3bd;" horiz-adv-x="1212" d="M-51 850v170h678v-168h-107q-70 0 -69 -43q0 -6 4 -23l14 -34l215 -484l197 486q16 43 16 59q0 31 -33 37l-10 2h-8h-76v168h494v-168h-78h-10l-11 -2q-20 -4 -33.5 -19.5t-33.5 -54.5l-11 -22l-321 -754h-305l-340 750q-25 49 -43.5 68.5t-29.5 25.5t-40 6h-59z" />
<glyph unicode="&#x3be;" horiz-adv-x="1122" d="M10 481q0 211 185 342q84 57 196 90v2q12 4 27 7q41 10 86 16q131 33 147 90q18 70 19 96q0 111 -60.5 168.5t-208.5 42.5v111h45q45 0 166 -10.5t232.5 -97.5t107.5 -236.5t-252 -253.5q-10 0 -24 -2q-55 -25 -123 -51q-39 -5 -76 -13q-27 -25 -55 -59q-76 -94 -76 -242 q0 -156 86 -253t272.5 -120.5t277.5 -86t108.5 -132t17.5 -108.5q0 -129 -111.5 -216t-232.5 -97.5t-168 -10.5h-51l16 111q139 -16 199.5 41t60.5 168q0 27 -20.5 97.5t-228 106t-377.5 154.5q-184 129 -185 346z" />
<glyph unicode="&#x3bf;" horiz-adv-x="1316" d="M51 512q0 236 163 385.5t437 149.5q55 0 183.5 -15.5t258.5 -127t151.5 -226.5t21.5 -176q0 -211 -135.5 -355.5t-279.5 -161t-200 -16.5q-276 0 -438 151.5t-162 391.5zM399 512l4 -82q14 -152 81 -227.5t173 -75.5q117 0 190 93t73 276q0 45 -11.5 143t-78 173 t-173.5 75l-45 -4q-88 -16 -141 -88t-68 -205z" />
<glyph unicode="&#x3c0;" horiz-adv-x="1439" d="M-12 911v123h1464v-123h-1464zM166 0v125h143q33 0 41 47v18v654q0 33 -18.5 49t-59.5 16h-106v125h358l2 -194l-4 14v-694l2 -8q0 -27 39 -27h105v-125h-502zM727 0v125h90q29 0 38 11t9 54v678l-4 -14v180h447v-125h-115l-18 -2h-9q-33 -4 -32 -65v-649q0 -66 36 -66 l11 -2h127v-125h-580z" />
<glyph unicode="&#x3c1;" horiz-adv-x="1230" d="M10 512q0 236 163 385.5t437 149.5q55 0 183.5 -15.5t258.5 -127t151.5 -226.5t21.5 -176q0 -211 -135.5 -355.5t-279.5 -161t-200 -16.5q-276 0 -438 151.5t-162 391.5zM20 -205v746h324v-746h-324zM358 512l4 -82q14 -152 81 -227.5t173 -75.5q117 0 190 93t73 276 q0 45 -11.5 143t-78 173t-173.5 75l-45 -4q-88 -16 -141 -88t-68 -205z" />
<glyph unicode="&#x3c2;" horiz-adv-x="1171" d="M59 823q0 283 180.5 456t491.5 173q88 0 158 -14l-21 -127h-135q-39 0 -117.5 -20.5t-153.5 -144.5t-75 -323q0 -205 84 -337t266.5 -162.5t271.5 -114.5t106.5 -177t17.5 -143q0 -172 -110 -288.5t-227.5 -130t-162.5 -13.5h-39v148q139 -20 198.5 55.5t59.5 224.5 q0 35 -19.5 128t-223 141t-369.5 208q-180 172 -181 461z" />
<glyph unicode="&#x3c3;" horiz-adv-x="1296" d="M51 512q0 236 163 385.5t437 149.5q55 0 183.5 -15.5t258.5 -127t151.5 -226.5t21.5 -176q0 -211 -135.5 -355.5t-279.5 -161t-200 -16.5q-276 0 -438 151.5t-162 391.5zM399 512l4 -82q14 -152 81 -227.5t173 -75.5q117 0 190 93t73 276q0 45 -11.5 143t-78 173 t-173.5 75l-45 -4q-88 -16 -141 -88t-68 -205zM657 891v153h617v-153h-617z" />
<glyph unicode="&#x3c4;" horiz-adv-x="1169" d="M16 635v407h1129v-407h-133v55q0 20 -16.5 84t-66.5 100.5t-141 36.5h-69v-708q0 -43 8 -58.5t35 -15.5l22 -2h17h106v-127h-661v127h106h19q45 0 59 14.5t14 61.5l5 47v661h-78q-188 0 -203.5 -101t-15.5 -128v-47h-136z" />
<glyph unicode="&#x3c5;" horiz-adv-x="1255" d="M12 899v127h590v-127h-88l-14 -2q-35 0 -46.5 -14.5t-11.5 -59.5v-454l2 -27q0 -135 58.5 -192.5t189.5 -57.5q238 0 238 242v43v446q0 49 -8.5 62.5t-40.5 13.5h-107v127h486v-127h-103h-14q-27 -2 -36 -17.5t-9 -58.5v-442q0 -219 -115 -319.5t-365 -100.5 q-244 0 -344 97.5t-100 312.5v452l-2 23q-2 33 -11 42t-36 11h-10h-103z" />
<glyph unicode="&#x3c6;" horiz-adv-x="1402" d="M29 516q0 260 180 420q109 98 266 133l76 -139q-53 -29 -96 -82q-98 -121 -99 -334q0 -213 97 -332q57 -70 131 -98v631q0 190 59 275t201 85q24 0 47 -2q156 -10 301 -137q178 -162 178 -426q0 -260 -180 -420q-139 -123 -361 -149v-250h-245v248q-233 27 -379 157 q-178 160 -176 420zM784 80q72 25 140 127q74 115 73 297q14 250 -86 366.5t-127 -69.5v-721z" />
<glyph unicode="&#x3c7;" horiz-adv-x="1263" d="M0 -125h66q41 0 60 15.5t67 80.5l276 398l-262 415q-25 39 -44.5 59.5t-30.5 27t-20.5 8.5t-13.5 2h-78v161h586v-161h-61h-8l-17 -2q-29 -6 -22 -39q2 -8 6 -17.5t20 -38.5l119 -217l145 217q33 45 37 57.5t4 16.5q0 14 -14 21l-27 2h-65v161h453v-161h-64 q-35 0 -59 -17l-29 -24l-39 -56l-231 -333l303 -480l18 -26q31 -43 51.5 -56.5t53.5 -13.5h43v-162h-592v162h82q33 0 48 10.5t15 26.5q0 20 -24 59l-170 279l-191 -279q-23 -35 -24 -55q-6 -33 22 -39l35 -2h68v-162h-492v162z" />
<glyph unicode="&#x3c8;" horiz-adv-x="1665" d="M31 885v141h653v-141h-98l-15 -2q-41 0 -52 -16.5t-11 -63.5v-373l2 -31q0 -147 65 -211q59 -61 189 -65v-141q-29 -2 -62 -2q-270 0 -381.5 107.5t-111.5 344.5v371l-2 22q-2 37 -12.5 46.5t-40.5 13.5h-123zM745 -483v1116h177v-1116h-177zM907 -18v141q129 4 189 65 q63 63 63 211l2 31v373q0 47 -11 63.5t-52 16.5l-15 2h-96v141h651v-141h-122q-31 -4 -40.5 -13.5t-13.5 -46.5l-2 -22v-371q0 -238 -111.5 -345t-381.5 -107q-33 0 -60 2z" />
<glyph unicode="&#x3c9;" horiz-adv-x="1476" d="M25 897v143h362q8 0 14 2v-145h-4q-37 -27 -65 -76q-70 -106 -70 -301q0 -199 69.5 -316.5t191.5 -70.5t139 387v58h122v-56q2 -242 -78.5 -383t-246.5 -151q-174 -2 -300 143t-126 383q-2 238 121 383h-129zM66 897v143h362q8 0 14 2v-145h-4q-37 -27 -65 -76 q-70 -106 -70 -301q0 -199 69.5 -316.5t191.5 -70.5t138 387v58h103q23 -297 -58 -438.5t-247 -151.5q-174 -2 -300 143t-126 383q-2 238 121 383h-129zM647 578h103v-58q16 -340 138 -387t191.5 71t69.5 316q0 195 -70 301q-29 49 -65 76h-4v145q6 -2 14 -2h362v-143h-129 q123 -145 121 -383q0 -238 -126 -383t-300 -143q-166 10 -246.5 151.5t-58.5 438.5zM668 522v56h123v-58q16 -340 138 -387t191.5 71t69.5 316q0 195 -70 301q-29 49 -65 76h-4v145q6 -2 14 -2h362v-143h-129q123 -145 121 -383q0 -238 -126 -383t-300 -143 q-166 10 -246.5 151.5t-78.5 382.5z" />
<glyph unicode="&#x3ca;" horiz-adv-x="772" d="M19 1305q0 66 47 110.5t115 44.5q70 0 118 -48t48 -116t-48.5 -114.5t-117.5 -46.5q-72 0 -117 49t-45 121zM31 0v164h106q53 0 71.5 20.5t18.5 79.5v74v414l-2 39v10l-6 16q-10 18 -25.5 26.5t-48.5 8.5h-108v168h524v-756v-37l2 -12q6 -51 70 -51h106v-164h-708z M424 1298q0 68 47.5 115t116.5 47q63 0 112.5 -47t49.5 -117q0 -63 -45 -112t-115 -49q-68 0 -117 46.5t-49 116.5z" />
<glyph unicode="&#x3cb;" horiz-adv-x="1255" d="M51 899v127h590v-127h-88l-14 -2q-35 0 -46.5 -14.5t-11.5 -59.5v-454l2 -27q0 -135 58.5 -192.5t189.5 -57.5q238 0 238 242v43v446q0 49 -8.5 62.5t-40.5 13.5h-107v127h486v-127h-103h-14q-27 -2 -36 -17.5t-9 -58.5v-442q0 -219 -115 -319.5t-365 -100.5 q-244 0 -344 97.5t-100 312.5v452l-2 23q-2 33 -11 42t-36 11h-10h-103zM332 1305q0 66 47 110.5t115 44.5q70 0 118 -48t48 -116t-48.5 -114.5t-117.5 -46.5q-72 0 -117 49t-45 121zM737 1298q0 68 47.5 115t116.5 47q63 0 112.5 -47t49.5 -117q0 -63 -45 -112t-115 -49 q-68 0 -117 46.5t-49 116.5z" />
<glyph unicode="&#x3cc;" horiz-adv-x="1316" d="M51 512q0 236 163 385.5t437 149.5q55 0 183.5 -15.5t258.5 -127t151.5 -226.5t21.5 -176q0 -211 -135.5 -355.5t-279.5 -161t-200 -16.5q-276 0 -438 151.5t-162 391.5zM399 512l4 -82q14 -152 81 -227.5t173 -75.5q117 0 190 93t73 276q0 45 -11.5 143t-78 173 t-173.5 75l-45 -4q-88 -16 -141 -88t-68 -205zM504 1245l346 297l118 -162l-387 -243z" />
<glyph unicode="&#x3cd;" horiz-adv-x="1255" d="M51 899v127h590v-127h-88l-14 -2q-35 0 -46.5 -14.5t-11.5 -59.5v-454l2 -27q0 -135 58.5 -192.5t189.5 -57.5q238 0 238 242v43v446q0 49 -8.5 62.5t-40.5 13.5h-107v127h486v-127h-103h-14q-27 -2 -36 -17.5t-9 -58.5v-442q0 -219 -115 -319.5t-365 -100.5 q-244 0 -344 97.5t-100 312.5v452l-2 23q-2 33 -11 42t-36 11h-10h-103zM543 1245l346 297l118 -162l-387 -243z" />
<glyph unicode="&#x3ce;" horiz-adv-x="1476" d="M25 897v143h362q8 0 14 2v-145h-4q-37 -27 -65 -76q-70 -106 -70 -301q0 -199 69.5 -316.5t191.5 -70.5t139 387v58h122v-56q2 -242 -78.5 -383t-246.5 -151q-174 -2 -300 143t-126 383q-2 238 121 383h-129zM66 897v143h362q8 0 14 2v-145h-4q-37 -27 -65 -76 q-70 -106 -70 -301q0 -199 69.5 -316.5t191.5 -70.5t138 387v58h103q23 -297 -58 -438.5t-247 -151.5q-174 -2 -300 143t-126 383q-2 238 121 383h-129zM647 578h103v-58q16 -340 138 -387t191.5 71t69.5 316q0 195 -70 301q-29 49 -65 76h-4v145q6 -2 14 -2h362v-143h-129 q123 -145 121 -383q0 -238 -126 -383t-300 -143q-166 10 -246.5 151.5t-58.5 438.5zM668 522v56h123v-58q16 -340 138 -387t191.5 71t69.5 316q0 195 -70 301q-29 49 -65 76h-4v145q6 -2 14 -2h362v-143h-129q123 -145 121 -383q0 -238 -126 -383t-300 -143 q-166 10 -246.5 151.5t-78.5 382.5zM695 1245l346 297l118 -162l-387 -243z" />
<glyph unicode="&#x401;" horiz-adv-x="1675" d="M16 0v180h152h22q59 0 76 19.5t17 87.5v73v828q0 68 -15.5 87t-70.5 19h-23h-158v181h1608v-566h-197v90q0 160 -95 230.5t-316 70.5h-350v-444h157q96 0 138.5 42t42.5 144v48h180v-656h-176v58q0 182 -174 182h-168v-490h360l66 2q176 0 255.5 80t79.5 252l3 84h194 v-602h-1608zM455 1760q0 66 47 110.5t115 44.5q70 0 118 -48t48 -116t-48.5 -114.5t-117.5 -46.5q-72 0 -117 49t-45 121zM860 1753q0 68 47.5 115t116.5 47q63 0 112.5 -47t49.5 -117q0 -63 -45 -112t-115 -49q-68 0 -117 46.5t-49 116.5z" />
<glyph unicode="&#x402;" horiz-adv-x="1591" d="M12 1305v168h1145v-168h-283q-68 0 -89 -19.5t-21 -81.5v-284l35 26q117 82 241 94q8 0 23 2h37q217 0 354 -149q133 -147 135 -389v-29h-342v31q0 98 -41 228t-200 130q-37 0 -97.5 -13t-106.5 -96t-46 -237v-514h-518v166h110q74 0 80 49v12l2 39v934q0 61 -17.5 81 t-70.5 20h-330zM889 270h162q6 -55 28 -82q33 -39 86 -38q43 0 67.5 32.5t24.5 93.5v125h334v-20q0 -215 -82 -310.5t-270 -95.5q-334 0 -350 295zM1247 287v188h342v-188h-342z" />
<glyph unicode="&#x403;" horiz-adv-x="1222" d="M6 0v178h180l17 2q51 0 51 94v926q0 88 -47 94h-10l-27 2h-164v179h637v-256l-6 18v-965q0 -61 12.5 -77.5t52.5 -16.5h132v-178h-828zM16 1300v175h1174v-175h-1174zM443 1700l346 297l118 -162l-387 -243z" />
<glyph unicode="&#x404;" horiz-adv-x="1574" d="M31 743q0 350 221 565.5t606 215.5t606 -213q64 -61 111 -135l-338 -129q-20 53 -47 100q-92 154 -189.5 178.5t-144.5 24.5q-180 0 -301 -159t-121 -441q0 -289 120 -449t300 -160q49 0 147.5 24.5t188.5 178.5q12 18 20 37l330 -113q-35 -45 -76 -86 q-221 -213 -606 -213t-606 213t-221 561zM313 623v202h682v-202h-682z" />
<glyph unicode="&#x405;" horiz-adv-x="1486" d="M49 1063q0 59 31 161.5t179.5 194.5t373.5 92q94 0 195.5 -17t170 -46t142.5 -84l24 -18l54 129h176v-529h-185l-14 55q-53 152 -164.5 238t-271.5 86q-49 0 -93 -1t-96.5 -14.5t-89.5 -34t-64.5 -56t-27.5 -84.5q0 -86 51.5 -115t77 -38t92.5 -26l56 -14l102 -22l63 -13 q123 -25 189.5 -39t170 -51t183.5 -141.5t80 -253.5q0 -195 -143.5 -316.5t-405.5 -121.5h-45q-78 0 -184.5 15t-205.5 52t-187 103l-52 -150h-176v569h193l12 -55q31 -96 93.5 -169t143.5 -117t171 -62t157 -18q139 0 217 59t78 147q-2 14 -2 21q-8 74 -67.5 115t-227.5 84 l-45 10l-45 8l-151 29q-266 47 -399.5 161.5t-133.5 276.5z" />
<glyph unicode="&#x406;" d="M16 1294v181h910v-181h-156h-18l-29 -4q-39 -4 -48 -32.5t-9 -71.5l-2 -899q0 -70 13 -88.5t66 -18.5h23h160v-180h-908v180h152h23q55 0 71.5 20.5t16.5 86.5v69l2 830q0 68 -15.5 87t-70.5 19l-21 2h-160z" />
<glyph unicode="&#x407;" d="M16 1294v181h910v-181h-156h-18l-29 -4q-39 -4 -48 -32.5t-9 -71.5l-2 -899q0 -70 13 -88.5t66 -18.5h23h160v-180h-908v180h152h23q55 0 71.5 20.5t16.5 86.5v69l2 830q0 68 -15.5 87t-70.5 19l-21 2h-160zM107 1739q0 66 47 110.5t115 44.5q70 0 118 -48t48 -116 t-48.5 -114.5t-117.5 -46.5q-72 0 -117 49t-45 121zM512 1732q0 68 47.5 115t116.5 47q63 0 112.5 -47t49.5 -117q0 -63 -45 -112t-115 -49q-68 0 -117 46.5t-49 116.5z" />
<glyph unicode="&#x408;" horiz-adv-x="1273" d="M-29 319q0 100 37 139.5t45 46.5t32 21.5t58.5 22.5t67.5 8q78 0 126 -50t48 -122v-33q-6 -16 -16.5 -44.5t-52.5 -60.5t-99 -32h-31q35 -35 76 -53.5t94 -18.5q150 0 214.5 64.5t64.5 222.5v756q0 59 -15.5 81.5t-58.5 22.5l-39 4h-22h-152v181h903v-181h-151l-17 -2 q-35 0 -47 -14t-16 -66v-26v-731q0 -246 -136 -372t-417 -126q-186 0 -303 60.5t-155 148.5t-38 153z" />
<glyph unicode="&#x409;" horiz-adv-x="2758" d="M2 184q-2 33 15.5 98.5t79 79t98.5 13.5q88 0 117.5 -47t33.5 -78q8 -74 -31 -98.5t-57 -28.5q41 -27 92 -27q139 0 148 148l2 26v39l-2 1159h319l4 -1142q0 -164 -76.5 -245t-182 -96.5t-129 -17.5t-52.5 -2q-133 0 -250 57.5t-129 161.5zM481 1305v174h1045v-174h-1045 zM797 1294v181h1261v-181h-151h-15l-59 -2q-49 0 -65.5 -22.5t-16.5 -81.5v-375h434l94 -6q209 -27 318.5 -140.5t109.5 -279.5q0 -178 -137 -282.5t-389 -104.5h-1014v180h84h21l33 4q37 4 50 24.5t13 78.5v843v58q0 66 -20.5 86t-83.5 20h-25h-442zM1169 0v178h131 q41 0 53.5 16.5t12.5 77.5l-6 1203h637v-179h-164l-27 -2h-10q-47 -6 -47 -94v-926q0 -94 51 -94l17 -2h180v-178h-828zM1751 170h246q53 0 90 4t91 16.5t102.5 73t48.5 135.5q0 78 -42 135.5t-102.5 80t-171.5 22.5h-262v-467z" />
<glyph unicode="&#x40a;" horiz-adv-x="2646" d="M16 0v180h181q49 0 65.5 20.5t16.5 86.5v901q0 68 -12.5 85t-67.5 21h-181v181h873v-181h-152q-76 0 -75 -45l-2 -63v-342h655v342l-2 55v8q-2 23 -19.5 34t-54.5 11h-154v181h875v-181h-182q-51 -4 -65.5 -22.5t-14.5 -83.5v-901q0 -66 15.5 -86.5t64.5 -20.5h182v-180 h-870v180h135q59 0 74.5 17.5t15.5 89.5v377h-655v-377l2 -49v-13q4 -29 25.5 -37t45.5 -8h152v-180h-871zM1438 0v1475h557v-181h-166l-60 -2q-49 0 -65 -22.5t-16 -81.5v-375h434l94 -6q209 -27 318.5 -140.5t109.5 -279.5q0 -178 -137 -282.5t-389 -104.5h-680zM1688 170 h245q53 0 90 4t91.5 16.5t102.5 73t48 135.5q0 78 -42 135.5t-102.5 80t-170.5 22.5h-262v-467z" />
<glyph unicode="&#x40b;" horiz-adv-x="1632" d="M12 1305v168h1145v-168h-283q-68 0 -89 -19.5t-21 -81.5v-284l35 26q117 82 241 94q8 0 23 2h37q217 0 354 -149q133 -147 135 -389v-490h-342v492q0 98 -41 228t-200 130q-37 0 -97.5 -13t-106.5 -96t-46 -237v-514h-518v166h110q74 0 80 49v12l2 39v934q0 61 -17.5 81 t-70.5 20h-330z" />
<glyph unicode="&#x40c;" horiz-adv-x="1550" d="M0 1309v166h533v-709q20 -37 59 -51q41 -18 76 2q51 27 79 72t50 151l76 262l6 19q12 66 43 114q37 59 74 92t76 54q98 51 197.5 24.5t168.5 -125.5l51 -80l37 -69l-125 -66l-28 52l-13 20q-68 90 -149 47q-23 -12 -39 -34.5t-184 -450.5q-27 -61 -50 -103l330 -432 l27 -33l12 -16l14 -14q35 -35 66 -35h109v-166h-703v164h25q39 0 57 4t18 27q0 10 -6 20l-30 49l-158 215l-170 -76v-147l2 -41q0 -41 43 -47l24 -2l13 -2h71v-164h-679v164h100q53 0 69.5 15.5t20.5 31.5t4 53v996q-4 18 -19.5 33.5t-68.5 15.5h-109zM613 1700l346 297 l118 -162l-387 -243z" />
<glyph unicode="&#x40e;" horiz-adv-x="1370" d="M-41 240q0 78 46 136t89 65.5t66 7.5q70 0 118 -44.5t48 -107.5q0 -14 -7.5 -64.5t-105.5 -80.5l-27 -5q35 -33 88 -32q51 0 100.5 33.5t90.5 103.5l16 29l17 30l53 109l-397 794l-13 25l-12 23q-25 41 -68 47l-12 2h-16h-70v170h715v-164h-109l-26 -2q-37 0 -37 -33 q0 -12 10 -39l12 -26l213 -437l222 437l12 26l10 23q4 6 4 18q0 33 -61 33h-107v164h516v-164l-16 -2l-51 -2q-37 -6 -66 -51l-18 -29l-10 -21l-471 -893l-35 -63q-47 -78 -88 -127t-114 -103.5t-202 -54.5q-100 0 -181 49.5t-103.5 114t-22.5 105.5zM310 1864l69 64 q23 -35 95.5 -97.5t171.5 -62.5q102 0 174.5 61.5t99.5 98.5l70 -64q-6 -14 -16.5 -29.5t-94.5 -127t-233 -111.5q-145 0 -230.5 113.5t-105.5 154.5z" />
<glyph unicode="&#x40f;" horiz-adv-x="1816" d="M12 0v174h1162v-174h-1162zM16 0v178h152q59 0 86 23.5t27 70.5v930l-2 27q-10 68 -58 67h-205v179h715v-179h-147q-57 0 -58 -39l-2 -10v-989l6 18l-4 -276h-510zM748 174h262v-551h-262v551zM979 1296v179h827v-179h-180l-16 -2q-51 0 -51 -94v-926q0 -88 47 -94h10 l26 -2h164v-178h-637v256l7 -18v964q0 61 -12.5 77.5t-53.5 16.5h-131z" />
<glyph unicode="&#x410;" horiz-adv-x="1689" d="M-35 0v180h55h15l14 2q39 4 62.5 25.5t48.5 79.5l491 1188h410l471 -1188q25 -63 47.5 -82t77.5 -25h12h55v-180h-757v180h145q51 0 51 29q0 10 -2 16l-24 62l-78 194h-565l-80 -194q-8 -20 -15.5 -42t-7.5 -34q0 -31 53 -31h154v-180h-633zM567 666h422l-209 536z" />
<glyph unicode="&#x411;" horiz-adv-x="1591" d="M16 1294v181h1303v-181h-500h-14l-60 -2q-49 0 -65 -22.5t-16 -81.5v-375h434l94 -6q209 -27 318.5 -140.5t109.5 -279.5q0 -178 -137 -282.5t-389 -104.5h-1076v180h146h20l33 4q37 4 50.5 24.5t13.5 78.5v843v58q0 66 -20.5 86t-84.5 20h-24h-136zM664 170h245 q53 0 90 4t91.5 16.5t102.5 73t48 135.5q0 78 -42 135.5t-102.5 80t-170.5 22.5h-262v-467z" />
<glyph unicode="&#x412;" horiz-adv-x="1685" d="M16 0v180h148h22q59 0 76 19.5t17 87.5l2 84v817q0 70 -15.5 88t-77.5 18h-22h-150v181h969q291 0 437.5 -88.5t146.5 -245.5q0 -43 -13.5 -105.5t-77 -130t-175.5 -114.5l-29 -11l33 -8q170 -41 261 -136t91 -226q0 -37 -8.5 -74t-16.5 -61.5t-40.5 -85t-132 -116 t-279.5 -69.5l-101 -4h-1065zM664 188h288q131 0 205 51.5t85 115t11 91.5q0 106 -80.5 167t-232.5 61h-276v-486zM664 858h286l47 2q180 27 193.5 123t13.5 111q0 203 -266 202h-274v-438z" />
<glyph unicode="&#x413;" horiz-adv-x="1222" d="M6 0v178h180l17 2q51 0 51 94v926q0 88 -47 94h-10l-27 2h-164v179h637v-256l-6 18v-965q0 -61 12.5 -77.5t52.5 -16.5h132v-178h-828zM16 1300v175h1174v-175h-1174z" />
<glyph unicode="&#x414;" horiz-adv-x="1832" d="M4 8v174h1794v-178h-164l-26 -2h-11q-47 -6 -47 -94v-127q0 -94 52 -94l16 -2h180v-179h-827v179h131q41 0 53 16t12 78v166l-6 -19v82h-641l-4 -274l2 -10q0 -39 57 -39h148v-179h-715v179h205q47 0 57 67l2 27v131q0 47 -26.5 70.5t-85.5 23.5h-152v4h-4zM51 51l21 131 q18 -4 37 -4q139 0 170 148l6 26l6 39l166 1077h319l-162 -1060q-25 -164 -113.5 -245t-197 -96.5t-132.5 -17.5t-52 -2q-35 0 -68 4zM463 1305v174h1345v-174h-1345zM981 0v178h131q41 0 53.5 16.5t12.5 77.5l-7 1203h637v-179h-163l-27 -2h-10q-47 -6 -47 -94v-926 q0 -94 51 -94l16 -2h180v-178h-827z" />
<glyph unicode="&#x415;" horiz-adv-x="1675" d="M16 0v180h152h22q59 0 76 19.5t17 87.5v73v828q0 68 -15.5 87t-70.5 19h-23h-158v181h1608v-566h-197v90q0 160 -95 230.5t-316 70.5h-350v-444h157q96 0 138.5 42t42.5 144v48h180v-656h-176v58q0 182 -174 182h-168v-490h360l66 2q176 0 255.5 80t79.5 252l3 84h194 v-602h-1608z" />
<glyph unicode="&#x416;" horiz-adv-x="2363" d="M29 1231l37 69l51 80q70 98 169 125t197 -24q39 -20 76 -53t74 -93q31 -49 43 -114l6 -19l76 -262q23 -106 50.5 -151.5t78.5 -71.5q35 -20 78 -2q37 14 57 51v709h532v-166h-108q-53 0 -68.5 -15.5t-19.5 -33.5v-996q0 -37 4 -53t20.5 -31.5t69.5 -15.5h100v-164h-680 v164h72l12 2l25 2q43 6 43 47l2 41v147l-170 76l-158 -215l-30 -49q-6 -10 -6 -20q0 -23 18 -27t57 -4h25v-164h-703v166h109q31 0 65 35l15 14l12 16l27 33l329 432q-23 41 -49 103q-168 428 -184 450.5t-39 34.5q-82 43 -149 -47l-13 -20l-28 -52zM827 1309v166h533v-709 q20 -37 59 -51q41 -18 76 2q51 27 79 72t50 151l76 262l6 19q12 66 43 114q37 59 74 92t75 54q98 51 197.5 24.5t169.5 -125.5l51 -80l37 -69l-125 -66l-28 52l-13 20q-68 90 -149 47q-23 -12 -39.5 -34.5t-183.5 -450.5q-27 -61 -50 -103l330 -432l27 -33l12 -16l14 -14 q35 -35 66 -35h108v-166h-702v164h25q39 0 57 4t18 27q0 10 -6 20l-31 49l-157 215l-170 -76v-147l2 -41q0 -41 43 -47l24 -2l13 -2h71v-164h-680v164h101q53 0 69.5 15.5t20.5 31.5t4 53v996q-4 18 -19.5 33.5t-68.5 15.5h-109z" />
<glyph unicode="&#x417;" horiz-adv-x="1378" d="M74 369q0 70 33.5 126t85 76.5t88.5 20.5q70 0 120 -40t56 -76t6 -43v-13q0 -127 -141 -154l-33 -2q33 -39 82 -65.5t112 -38.5l54 -10q16 -2 31.5 -3.5t35.5 -1.5q131 0 218 55.5t104.5 119t17.5 94.5q0 109 -92 179.5t-258 70.5h-33v149l37 -2q150 0 223.5 50 t81.5 105.5t8 77.5q0 102 -86 166t-241 64q-96 0 -164 -27.5t-109 -77.5q43 6 88 -12l39 -20q57 -41 58 -111q0 -68 -46.5 -107.5t-81 -46t-57.5 -6.5q-82 0 -134 54.5t-52 138.5q0 16 3 38.5t29.5 99.5t162 156t356.5 79q94 0 190.5 -13.5t169 -41t132 -72.5t92 -112 t32.5 -138q0 -129 -81 -198t-167 -97l-45 -10l31 -11q98 -33 168 -82t103.5 -116.5t33.5 -147.5q0 -84 -33.5 -154.5t-91 -114.5t-105.5 -66.5t-116.5 -41t-119 -24.5t-115 -8t-66.5 -2q-195 0 -333 53t-209.5 143t-71.5 191z" />
<glyph unicode="&#x418;" horiz-adv-x="1945" d="M37 1294v181h692v-181h-162l-16 -2q-31 -4 -43 -19.5t-12 -55.5l-2 -29v-766l731 1053h676v-181h-170h-17q-49 -4 -62.5 -23.5t-13.5 -84.5v-899q0 -68 15.5 -87.5t68.5 -19.5h179v-180h-725v180h161q49 0 63.5 18.5t14.5 88.5l2 835l-778 -1122h-360v1188l-3 24 q0 53 -14 67.5t-65 14.5h-160z" />
<glyph unicode="&#x419;" horiz-adv-x="1945" d="M17 1294v181h692v-181h-162l-16 -2q-31 -4 -43 -19.5t-12 -55.5l-2 -29v-766l731 1053h676v-181h-170h-17q-49 -4 -62.5 -23.5t-13.5 -84.5v-899q0 -68 15.5 -87.5t68.5 -19.5h179v-180h-725v180h161q49 0 63.5 18.5t14.5 88.5l2 835l-778 -1122h-360v1188l-3 24 q0 53 -14 67.5t-65 14.5h-160zM588 1864l69 64q23 -35 95.5 -97.5t171.5 -62.5q102 0 174.5 61.5t99.5 98.5l70 -64q-6 -14 -16.5 -29.5t-94.5 -127t-233 -111.5q-145 0 -230.5 113.5t-105.5 154.5z" />
<glyph unicode="&#x41a;" horiz-adv-x="1550" d="M20 1309v166h533v-709q20 -37 59 -51q41 -18 76 2q51 27 79 72t50 151l76 262l6 19q12 66 43 114q37 59 74 92t76 54q98 51 197.5 24.5t168.5 -125.5l51 -80l37 -69l-125 -66l-28 52l-13 20q-68 90 -149 47q-23 -12 -39 -34.5t-184 -450.5q-27 -61 -50 -103l330 -432 l27 -33l12 -16l14 -14q35 -35 66 -35h109v-166h-703v164h25q39 0 57 4t18 27q0 10 -6 20l-30 49l-158 215l-170 -76v-147l2 -41q0 -41 43 -47l24 -2l13 -2h71v-164h-679v164h100q53 0 69.5 15.5t20.5 31.5t4 53v996q-4 18 -19.5 33.5t-68.5 15.5h-109z" />
<glyph unicode="&#x41b;" horiz-adv-x="2101" d="M23 184q-2 33 15 98.5t78.5 79t98.5 13.5q88 0 117.5 -47t34.5 -78q8 -74 -31 -98.5t-57 -28.5q41 -27 92 -27q139 0 147 148l2 26v39l-2 1159h320l4 -1142q0 -164 -77 -245t-182.5 -96.5t-129 -17.5t-52.5 -2q-133 0 -249.5 57.5t-128.5 161.5zM254 1303v178h510l4 -277 l-6 19v-271l-244 23v233q0 47 -26.5 71t-85.5 24h-152zM502 1305v174h1044v-174h-1044zM1190 0v178h131q41 0 53 16.5t12 77.5l-6 1203h637v-179h-164l-26 -2h-10q-47 -6 -48 -94v-926q0 -94 52 -94l16 -2h180v-178h-827z" />
<glyph unicode="&#x41c;" horiz-adv-x="2306" d="M16 0v178h148h22h35q47 0 58 68l2 26v930q0 47 -27 70.5t-86 23.5h-41h-111v179h797l358 -992l340 992h779v-179h-164l-27 -2h-10q-47 -6 -47 -94v-926q0 -94 51 -94l16 -2h23h158v-178h-828v178h131q41 0 53.5 16.5t12.5 77.5v965l-412 -1237h-291l-432 1217v-945v-45 l2 -10q0 -39 58 -39h147v-178h-715z" />
<glyph unicode="&#x41d;" horiz-adv-x="1978" d="M16 0v180h160h21q49 0 65.5 20.5t16.5 86.5v901q0 68 -12.5 85t-67.5 21h-21h-160v181h873v-181h-152q-76 0 -75 -45l-2 -63v-342h655v342l-2 55v8q-2 23 -19.5 34t-54.5 11h-154v181h875v-181h-160h-22q-51 -4 -65.5 -22.5t-14.5 -83.5v-901q0 -66 15.5 -86.5 t64.5 -20.5h22h160v-180h-870v180h135q59 0 74.5 17.5t15.5 89.5v377h-655v-377l2 -49v-13q4 -29 25.5 -37t45.5 -8h152v-180h-871z" />
<glyph unicode="&#x41e;" horiz-adv-x="1757" d="M51 750q0 348 221.5 561t606.5 213t606 -215t221 -566q0 -348 -221 -561t-606 -213t-606.5 213.5t-221.5 567.5zM455 750q0 -252 91 -406t189.5 -178.5t147.5 -24.5q180 0 300 160t120 449q0 283 -121 441.5t-301 158.5q-47 0 -144.5 -25t-189.5 -178t-92 -397z" />
<glyph unicode="&#x41f;" horiz-adv-x="1845" d="M12 1300v175h1162v-175h-1162zM16 0v178h205q47 0 58 68l2 26v930q0 47 -27 70.5t-86 23.5h-152v179h510l4 -277l-6 19v-990l2 -10q0 -39 58 -39h147v-178h-715zM979 0v178h131q41 0 53.5 16.5t12.5 77.5v965l-7 -18v256h637v-179h-164l-26 -2h-10q-47 -6 -47 -94v-926 q0 -94 51 -94l16 -2h180v-178h-827z" />
<glyph unicode="&#x420;" horiz-adv-x="1626" d="M16 0v180h136h24q63 0 84 20.5t21 86.5v57v844q0 57 -13.5 77.5t-50.5 24.5l-33 4h-20h-146v181h1076q252 0 389 -104.5t137 -283.5q0 -166 -109.5 -279.5t-318.5 -139.5l-94 -6h-434v-375q0 -59 16 -82t65 -23l60 -2h14h152v-180h-955zM664 838h262q111 0 171 22.5 t102 79.5t42 135q0 76 -48 136.5t-102.5 72.5t-91 16.5t-90.5 4.5h-245v-467z" />
<glyph unicode="&#x421;" horiz-adv-x="1554" d="M49 729q0 78 30 247t198.5 333t310 186.5t192.5 24.5t56 2q125 0 231.5 -34t189.5 -102l50 -45l55 129h176v-563h-205l-6 54q-31 182 -144.5 275t-297.5 93q-186 0 -300 -146.5t-114 -410.5q0 -59 13.5 -191t100.5 -252t186 -147.5t161 -27.5q145 0 252.5 95t134.5 251 l6 65h209l-4 -84q-29 -238 -205 -378t-467 -140q-53 0 -239.5 17.5t-378 225.5t-191.5 523z" />
<glyph unicode="&#x422;" horiz-adv-x="1632" d="M16 897v578h1598v-576h-189l-2 76q0 31 -22.5 120t-93 142t-199.5 53l-98 -2v-1001q0 -61 12 -83t49 -22l33 -2h22h152v-180h-938v180h152h26q63 0 84 20.5t21 86.5l4 67v936l-109 -2q-268 0 -288.5 -143.5t-20.5 -179.5l-2 -68h-191z" />
<glyph unicode="&#x423;" horiz-adv-x="1370" d="M-41 240q0 78 46 136t89 65.5t66 7.5q70 0 118 -44.5t48 -107.5q0 -14 -7.5 -64.5t-105.5 -80.5l-27 -5q35 -33 88 -32q51 0 100.5 33.5t90.5 103.5l16 29l17 30l53 109l-397 794l-13 25l-12 23q-25 41 -68 47l-12 2h-16h-70v170h715v-164h-109l-26 -2q-37 0 -37 -33 q0 -12 10 -39l12 -26l213 -437l222 437l12 26l10 23q4 6 4 18q0 33 -61 33h-107v164h516v-164l-16 -2l-51 -2q-37 -6 -66 -51l-18 -29l-10 -21l-471 -893l-35 -63q-47 -78 -88 -127t-114 -103.5t-202 -54.5q-100 0 -181 49.5t-103.5 114t-22.5 105.5z" />
<glyph unicode="&#x424;" horiz-adv-x="1591" d="M18 772q2 385 215.5 606t567.5 219q348 0 561 -221t211 -606q0 -385 -215 -606t-565 -219q-348 0 -561.5 221t-213.5 606zM190 768q0 -180 160 -300t449 -122q283 0 441.5 121t158.5 301q0 47 -23.5 144.5t-177 189.5t-397.5 92q-252 2 -405.5 -89t-179.5 -189.5 t-26 -147.5zM709 -147v1808h190v-1808h-190z" />
<glyph unicode="&#x425;" horiz-adv-x="1794" d="M0 0v180h96q59 0 88 16.5t99 90.5l405 440l-385 461q-37 43 -64.5 65.5t-44 29.5t-29.5 9t-22 2h-112v181h858v-181h-90h-13l-22 -2q-43 -6 -33 -43q2 -8 8 -18t31 -43l174 -240l213 240q47 51 53.5 64.5t6.5 17.5q0 16 -21 22l-39 2h-96v181h663v-181h-92q-51 0 -88 -16 l-43 -29l-57 -61l-338 -371l444 -530l27 -31q45 -47 74.5 -61.5t79.5 -14.5h63v-180h-868v180h118q49 0 72 11.5t23 29.5q0 23 -37 66l-250 309l-279 -309q-33 -39 -36 -62q-8 -37 34 -43l50 -2h100v-180h-721z" />
<glyph unicode="&#x426;" horiz-adv-x="1865" d="M12 0v174h1162v-174h-1162zM16 0v178h152q59 0 86 23.5t27 70.5v930l-2 27q-10 68 -58 67h-205v179h715v-179h-147q-57 0 -58 -39l-2 -10v-989l6 18l-4 -276h-510zM979 1296v179h827v-179h-180l-16 -2q-51 0 -51 -94v-926q0 -88 47 -94h10l26 -2h164v-178h-637v256l7 -18 v964q0 61 -12.5 77.5t-53.5 16.5h-131zM1550 174h262v-551h-262v551z" />
<glyph unicode="&#x427;" horiz-adv-x="1435" d="M29 965v489h342v-491q0 -98 41 -228.5t200 -130.5q37 0 97.5 13.5t106.5 96.5t46 236v514h518v-166h-110q-74 0 -80 -49v-12l-2 -39v-934q0 -61 17.5 -80.5t70.5 -19.5h104v-168h-735v168h98q68 0 89.5 19.5t21.5 80.5v285l-35 -27q-117 -82 -241 -94q-8 0 -23 -2h-37 q-217 0 -354 149q-133 147 -135 390z" />
<glyph unicode="&#x428;" horiz-adv-x="2244" d="M41 0v178h141q55 0 80 23.5t25 70.5v930l-2 27q-10 68 -54 67h-190v179h664v-179h-138q-53 0 -53 -39l-2 -10v-989l6 18l-4 -276h-473zM57 0v174h1669v-174h-1669zM731 0v178h129q49 0 71.5 23.5t22.5 70.5v930l-2 27q-8 68 -47 67h-133v179h563v-179h-125q-47 0 -47 -39 l-2 -10v-989l4 18l-2 -276h-432zM1432 1296v179h768v-179h-168l-15 -2q-47 0 -47 -94v-926q0 -88 43 -94h10l25 -2h152v-178h-592l6 238v964q0 61 -11.5 77.5t-50.5 16.5h-120z" />
<glyph unicode="&#x429;" horiz-adv-x="2310" d="M41 0v178h141q55 0 80 23.5t25 70.5v930l-2 27q-10 68 -54 67h-190v179h664v-179h-138q-53 0 -53 -39l-2 -10v-989l6 18l-4 -276h-473zM57 0v174h1669v-174h-1669zM731 0v178h129q49 0 71.5 23.5t22.5 70.5v930l-2 27q-8 68 -47 67h-133v179h563v-179h-125q-47 0 -47 -39 l-2 -10v-989l4 18l-2 -276h-432zM1432 1296v179h768v-179h-168l-15 -2q-47 0 -47 -94v-926q0 -88 43 -94h10l25 -2h152v-178h-592l6 238v964q0 61 -11.5 77.5t-50.5 16.5h-120zM1962 174h244v-551h-244v551z" />
<glyph unicode="&#x42a;" horiz-adv-x="1984" d="M25 1294v181h1261v-181h-151h-15l-59 -2q-49 0 -65.5 -22.5t-16.5 -81.5v-375h434l94 -6q209 -27 318.5 -140.5t109.5 -279.5q0 -178 -137 -282.5t-389 -104.5h-1014v180h84h21l32 4q37 4 50.5 24.5t13.5 78.5v843v58q0 66 -20.5 86t-83.5 20h-25h-442zM979 170h246 q53 0 90 4t91 16.5t102 73t48 135.5q0 78 -41.5 135.5t-102 80t-171.5 22.5h-262v-467z" />
<glyph unicode="&#x42b;" horiz-adv-x="2379" d="M16 1294v181h934v-181h-151h-15l-59 -2q-49 0 -65.5 -22.5t-16.5 -81.5v-375h434l94 -6q209 -27 318.5 -140.5t109.5 -279.5q0 -178 -137 -282.5t-389 -104.5h-1014v180h84h21l33 4q37 4 50 24.5t13 78.5v843v58q0 66 -20.5 86t-83.5 20h-25h-115zM643 170h246q53 0 90 4 t91 16.5t102.5 73t48.5 135.5q0 78 -42 135.5t-102.5 80t-171.5 22.5h-262v-467zM1614 0v164h100q59 0 77.5 18.5t18.5 81.5v76v870q0 61 -17 81t-75 20h-104v164h530v-1211q0 -59 16.5 -79.5t67.5 -20.5h103v-164h-717z" />
<glyph unicode="&#x42c;" horiz-adv-x="1632" d="M16 1294v181h934v-181h-151h-15l-59 -2q-49 0 -65.5 -22.5t-16.5 -81.5v-375h434l94 -6q209 -27 318.5 -140.5t109.5 -279.5q0 -178 -137 -282.5t-389 -104.5h-1014v180h84h21l33 4q37 4 50 24.5t13 78.5v843v58q0 66 -20.5 86t-83.5 20h-25h-115zM643 170h246q53 0 90 4 t91 16.5t102.5 73t48.5 135.5q0 78 -42 135.5t-102.5 80t-171.5 22.5h-262v-467z" />
<glyph unicode="&#x42d;" horiz-adv-x="1607" d="M31 1176q44 74 110 135q221 213 607 213q385 0 606 -215t221 -566q0 -348 -221 -561t-606 -213t-607 213q-41 41 -75 86l329 113q8 -18 21 -37q90 -154 188 -178.5t148 -24.5q180 0 299.5 160t119.5 449q0 283 -120.5 441.5t-300.5 158.5q-47 0 -144.5 -25t-189.5 -178 q-29 -47 -47 -100zM610 623v202h682v-202h-682z" />
<glyph unicode="&#x42e;" horiz-adv-x="2764" d="M16 0v180h181q49 0 65.5 20.5t16.5 86.5v901q0 68 -12.5 85t-67.5 21h-181v181h873v-181h-152q-76 0 -75 -45l-2 -63v-342h520v-180h-520v-377l2 -49v-13q4 -29 25.5 -37t45.5 -8h152v-180h-871zM1014 750q0 348 221 561t606 213t606.5 -215t221.5 -566 q0 -348 -221.5 -561t-606.5 -213t-606 213.5t-221 567.5zM1417 750q0 -252 91 -406t189.5 -178.5t147.5 -24.5q180 0 300 160t120 449q0 283 -121 441.5t-301 158.5q-47 0 -144 -25t-189.5 -178t-92.5 -397z" />
<glyph unicode="&#x42f;" horiz-adv-x="1853" d="M16 289v131h162v-101q0 -59 8.5 -87.5t25.5 -45t42 -16.5q35 0 49 24.5t18.5 44t6.5 49t2 89.5q0 162 50 243.5t173 133.5l35 10l-56 14q-135 45 -207.5 133t-72.5 199q0 27 4 50.5t28.5 105.5t166 145.5t442.5 63.5h938v-181h-164q-63 0 -81.5 -20.5t-18.5 -87.5v-830 v-69q0 -66 14 -86.5t64 -20.5h22h164v-180h-897v180h151q66 0 81.5 17.5t15.5 89.5l2 389h-195q-152 0 -218 -52.5t-66 -177.5q0 -254 -84 -357t-271 -103q-334 0 -334 303zM631 1060q0 -11 5 -52t58.5 -100.5t165.5 -59.5h324v446h-289q-264 0 -264 -219v-15z" />
<glyph unicode="&#x430;" horiz-adv-x="1363" d="M45 254q0 199 272 268l172 33l61 14q115 29 166.5 68t51.5 98q0 8 -1.5 21.5t-10.5 48.5t-54 64.5t-95 36.5t-79 7h-27q-110 0 -184 -45q84 -31 84 -118q0 -57 -43 -96.5t-109 -39.5q-14 2 -20 2q-63 6 -104.5 49.5t-41.5 102.5q0 23 23 90.5t168 125.5t414 58 q20 0 40.5 -3t115 -16t173 -93t78.5 -215v-412v-35v-32q0 -25 7.5 -41.5t20.5 -26.5t32 -10q25 0 36 20l13 41l8 88v37l2 33h131v-39q0 -199 -56.5 -282t-193.5 -83q-229 0 -297 138l-12 30q-45 -68 -122 -109.5t-162 -53t-128 -11.5q-141 0 -225 61.5t-93 122t-10 78 t-1 25.5zM380 285q0 -27 12.5 -59.5t49.5 -55.5t90 -23q23 0 48.5 4.5t72.5 29t76.5 81.5t29.5 154v90q-43 -23 -71.5 -34t-92.5 -30l-47 -16q-90 -29 -129 -61.5t-39 -79.5z" />
<glyph unicode="&#x431;" horiz-adv-x="1304" d="M45 526q2 506 192.5 719t444.5 213l106 6h119q35 2 68 13h276q-27 -171 -344 -179v-8h-116q-178 0 -271 -145q-27 -45 -47 -90q2 0 2 2q129 14 184 14q274 0 437.5 -149.5t163.5 -384.5q0 -240 -162 -391.5t-439 -151.5q-55 0 -199.5 16.5t-279.5 160.5t-135 355z M391 520q0 -182 73 -275t189 -93q106 0 173 75.5t81 227.5l4 82l-4 77q-14 133 -67.5 205t-141.5 88l-45 4q-106 0 -172.5 -74.5t-78 -173t-11.5 -143.5z" />
<glyph unicode="&#x432;" horiz-adv-x="1173" d="M16 0v127h105h14q43 0 54.5 13.5t11.5 60.5v59v574q0 49 -10.5 61t-53.5 12h-16h-105v127h680q203 0 306.5 -61.5t103.5 -171.5q0 -31 -9.5 -75t-54.5 -91t-124 -80l-19 -8l23 -6q119 -29 183 -95.5t64 -158.5q0 -25 -6 -51.5t-12 -43t-28.5 -59.5t-92 -82t-196.5 -49 l-70 -2h-748zM471 133h203q90 0 142 36t60.5 80t8.5 64q0 74 -57.5 117t-163.5 43h-193v-340zM471 602h201l33 2q127 18 136 86t9 78q0 141 -186 141h-193v-307z" />
<glyph unicode="&#x433;" horiz-adv-x="1122" d="M6 6v184h170l14 3q47 0 48 98v450q0 92 -43 99h-11l-24 2h-154v184h598v-266l-6 20v-491q0 -63 11.5 -81t49.5 -18h123v-184h-776zM16 846v180h1100v-180h-1100z" />
<glyph unicode="&#x434;" horiz-adv-x="1357" d="M4 375v131h1346v-133h-123l-21 -2h-6q-37 -4 -37 -70v-96q0 -70 39 -70l12 -2h136v-135h-621v135h98q31 0 40.5 12.5t9.5 57.5v125l-5 -15v62h-481l-2 -205v-8q0 -29 43 -29h111v-135h-535v135h154q35 0 43 51v19v98q0 37 -19.5 54.5t-64.5 17.5h-113v2h-4zM39 408l16 98 q12 -2 27 -2q104 0 129 110l4 19l4 31l125 806h240l-121 -794q-18 -123 -86 -184.5t-149 -72.5t-98 -12t-40 -1q-27 0 -51 2zM348 1348v131h1010v-131h-1010zM737 369v135h99q31 0 40 12t9 57l-4 902h477v-134h-123l-21 -2h-8q-35 -4 -35 -69v-695q0 -72 39 -71h13h135v-135 h-621z" />
<glyph unicode="&#x435;" horiz-adv-x="1202" d="M51 506q0 238 160 391.5t418 153.5q233 0 383.5 -136.5t150.5 -357.5v-82h-778v-47q0 -115 58.5 -188.5t125 -90t107.5 -16.5q90 0 158.5 52.5t97.5 148.5l6 28h213q-27 -174 -166 -282.5t-350 -108.5h-72q-33 6 -146.5 21.5t-239.5 159t-126 354.5zM391 625h451v30 q0 109 -60.5 173.5t-150.5 64.5q-31 0 -80 -13.5t-95 -71.5t-61 -142z" />
<glyph unicode="&#x436;" horiz-adv-x="1542" d="M18 803l25 45l33 51q45 63 108.5 80.5t126.5 -14.5q27 -14 50.5 -35t46.5 -60q20 -33 28 -73l4 -13l49 -170q14 -68 32 -97.5t50 -45.5q23 -14 52 -2q25 10 36 33v459h345v-109h-70q-35 0 -45 -9t-12 -22v-643q0 -23 2 -34t13 -20t46 -9h63v-107h-438v107h47h6l17 2 q29 4 29 30v27v94l-109 49l-102 -139l-21 -31q-4 -6 -4 -14q0 -14 12.5 -16t36.5 -2h17v-107h-453v107h70q20 0 43 22l8 10l8 11l16 20l213 281q-14 25 -30 65q-109 276 -119 290.5t-27 23.5q-51 27 -96 -31l-8 -14l-19 -33zM535 8v107h65q35 0 45 9t13.5 20.5t3.5 33.5v643 q-4 12 -13.5 21.5t-44.5 9.5h-69v109h344v-459q12 -23 36 -33q27 -12 50 2q33 16 51 46t33 97l49 170l4 13q8 41 26 73q25 39 48.5 59.5t48.5 35.5q63 33 127.5 15.5t109.5 -81.5l33 -51l25 -45l-82 -43l-19 33l-8 14q-43 57 -96 31q-14 -8 -24.5 -22.5t-119.5 -291.5 q-16 -41 -32 -65l213 -281l18 -20l8 -11l8 -10q23 -23 44 -22h69v-107h-452v107h14q27 0 38 2t11 16q0 8 -4 14l-19 31l-102 139l-111 -49v-94l3 -27q0 -27 26 -30l17 -2h8h47v-107h-440z" />
<glyph unicode="&#x437;" horiz-adv-x="968" d="M29 295q0 51 22.5 90t60.5 55.5t64 16.5q49 0 86 -30t45 -77q16 -111 -102 -129l-21 -4q49 -55 140 -74l36 -6q16 -2 48 -2q92 0 156.5 40t77.5 84t13 67q0 76 -66.5 128t-187.5 52h-24v108h29q106 0 159 36t64 106q12 84 -48.5 137t-185.5 53q-70 0 -119 -18.5 t-77 -55.5q35 4 63 -10l27 -14q43 -31 43 -82q0 -49 -33 -76.5t-76 -36.5q-72 -10 -120 37t-37 121l10 41q31 94 129 150.5t256 56.5h54.5t86 -10.5t119.5 -30t118.5 -69.5t63.5 -161q0 -94 -45 -132t-74.5 -55t-56.5 -23l-33 -9l23 -6q27 -10 63.5 -28.5t96 -60.5 t59.5 -165q0 -55 -25.5 -108.5t-66.5 -84t-75 -47t-87 -30.5l-86 -14q-72 -8 -129 -9q-141 0 -239.5 38t-137.5 87t-50 81t-11 73z" />
<glyph unicode="&#x438;" horiz-adv-x="1361" d="M16 895v152h492v-152h-115l-12 -2q-23 -2 -31 -15.5t-8 -48.5l-2 -22v-453l518 693h479v-152h-120h-11q-35 -2 -45 -18.5t-10 -71.5v-565q0 -55 11.5 -71.5t49.5 -16.5h125v-152h-514v152h115q35 0 45 15t10 73l2 512l-553 -752h-254v807l-2 20q0 45 -10 56.5t-47 11.5 h-113z" />
<glyph unicode="&#x439;" horiz-adv-x="1361" d="M16 895v152h492v-152h-115l-12 -2q-23 -2 -31 -15.5t-8 -48.5l-2 -22v-453l518 693h479v-152h-120h-11q-35 -2 -45 -18.5t-10 -71.5v-565q0 -55 11.5 -71.5t49.5 -16.5h125v-152h-514v152h115q35 0 45 15t10 73l2 512l-553 -752h-254v807l-2 20q0 45 -10 56.5t-47 11.5 h-113zM338 1409l69 64q23 -35 95.5 -97.5t171.5 -62.5q102 0 174.5 61.5t99.5 98.5l70 -64q-6 -14 -16.5 -29.5t-94.5 -127t-233 -111.5q-145 0 -230.5 113.5t-105.5 154.5z" />
<glyph unicode="&#x43a;" horiz-adv-x="1058" d="M0 899v115h367v-488q14 -25 39 -34q29 -12 53 2q35 18 54 48.5t34 104.5l53 180l4 13q8 45 29 78q27 41 51.5 63.5t52.5 36.5q68 35 135.5 16.5t116.5 -86.5l35 -53l25 -49l-86 -45l-19 35l-10 14q-45 61 -103 33q-14 -8 -25 -23.5t-128 -310.5q-16 -43 -33 -70l227 -297 l17 -22l10 -13l8 -10q25 -23 45 -22h76v-115h-483v113h16q27 0 40 3t13 17q0 8 -4 14l-22 35l-109 148l-117 -54v-100l3 -29q0 -29 28 -32h19l8 -2h49v-113h-467v113h68q37 0 48 10t14 21.5t3 37.5v684q-2 12 -13 22.5t-48 10.5h-74z" />
<glyph unicode="&#x43b;" horiz-adv-x="1468" d="M2 119q-2 25 10.5 71t55.5 55t69 9q61 0 83 -33t24 -55q6 -51 -21.5 -68.5t-40.5 -21.5q29 -18 66 -19q98 0 102 105l2 18v29l-2 817h225l5 -807q0 -115 -54.5 -172t-129 -68.5t-91 -12.5t-37.5 -1q-94 0 -176 41t-90 113zM164 907v127h360l2 -194l-4 12v-190l-172 16 v164q0 33 -18.5 49t-59.5 16h-108zM340 909v123h737v-123h-737zM825 -10v125h93q29 0 38 12t9 55l-7 848h451v-125h-117l-18 -2h-6q-35 -4 -35 -67v-652q0 -68 37 -67l12 -2h127v-125h-584z" />
<glyph unicode="&#x43c;" horiz-adv-x="1648" d="M37 0v125h102h17h24q33 0 39 47l2 18v646q0 33 -18.5 49t-61.5 16h-26h-78v125h555l248 -690l237 690h541v-125h-113h-18h-8q-33 -4 -33 -65v-646q0 -66 37 -65h10h16h109v-125h-576v125h93q29 0 37 11t8 54v670l-287 -860h-203l-299 846v-656v-32v-6q0 -27 41 -27h103 v-125h-498z" />
<glyph unicode="&#x43d;" horiz-adv-x="1370" d="M14 0v125h111h14q35 0 46.5 14.5t11.5 61.5v626q0 47 -8.5 59.5t-47.5 14.5h-14h-111v127h609v-127h-107q-53 0 -53 -31v-45v-237h455v237v39v6q-2 16 -14.5 23.5t-37.5 7.5h-108v127h610v-127h-110h-17q-35 -2 -45 -15.5t-10 -58.5v-626q0 -47 10 -61.5t45 -14.5h17h110 v-125h-606v125h94q41 0 51.5 12.5t10.5 63.5v262h-455v-262v-35v-8q4 -20 18.5 -26.5t32.5 -6.5h105v-125h-607z" />
<glyph unicode="&#x43e;" horiz-adv-x="1316" d="M51 512q0 236 163 385.5t437 149.5q55 0 183.5 -15.5t258.5 -127t151.5 -226.5t21.5 -176q0 -211 -135.5 -355.5t-279.5 -161t-200 -16.5q-276 0 -438 151.5t-162 391.5zM399 512l4 -82q14 -152 81 -227.5t173 -75.5q117 0 190 93t73 276q0 45 -11.5 143t-78 173 t-173.5 75l-45 -4q-88 -16 -141 -88t-68 -205z" />
<glyph unicode="&#x43f;" horiz-adv-x="1538" d="M-12 846v180h1210v-180h-1210zM27 6v184h170l10 3q31 0 31 98v450q0 92 -29 99h-6l-17 2h-98v184h383v-266l-2 20v-491q0 -63 7 -81t32 -18h78v-184h-559zM737 6v184h123q39 0 50.5 17.5t11.5 81.5v491l-4 -20v266h595v-184h-153l-25 -2h-10q-43 -6 -43 -99v-450 q0 -98 47 -98l17 -3h167v-184h-776z" />
<glyph unicode="&#x440;" horiz-adv-x="1419" d="M16 -281h105q53 0 70.5 19.5t17.5 81.5v934l-2 39v12q-6 49 -80 49h-111v166h519v-137q102 131 214.5 148.5t151.5 17.5q201 0 334 -143.5t133 -377.5q0 -248 -136 -397t-353 -149h-37q-14 2 -23 2q-125 12 -241 94l-35 26v-284q0 -61 21.5 -81t88.5 -20h99v-168h-736 v168zM535 506q0 -154 46 -237t106.5 -96t96.5 -13q160 0 201 130t41 228l-2 64q-12 139 -76.5 213.5t-161.5 74.5q-29 0 -93 -18t-111 -103t-47 -243z" />
<glyph unicode="&#x441;" horiz-adv-x="1148" d="M49 492q0 66 25.5 188.5t156.5 234t239 123t127 12.5t46 1q168 0 287 -66.5t153.5 -149.5t34.5 -130q0 -80 -50 -134.5t-130 -54.5q-86 0 -143.5 46t-57.5 110q0 59 49 102l35 25q27 16 64 22q-66 70 -183 70q-63 0 -138 -28.5t-119 -120t-44 -253.5q0 -152 60.5 -239.5 t129 -103t105.5 -15.5q193 0 242 225l4 35h178l-6 -61q-27 -172 -150.5 -269.5t-326.5 -97.5q-20 0 -44 2t-150 13.5t-260 152.5t-134 361z" />
<glyph unicode="&#x442;" horiz-adv-x="1144" d="M8 629v405h1120v-403h-131l-2 53q0 20 -16 82.5t-65.5 100.5t-139.5 38l-69 -2v-702q0 -43 9 -58.5t34 -15.5h22h16h107v-127h-657v127h106h18q45 0 59.5 14.5t14.5 59.5l2 47v657l-76 -2q-188 0 -202.5 -100.5t-14.5 -126.5l-2 -47h-133z" />
<glyph unicode="&#x443;" horiz-adv-x="1298" d="M16 -221q0 78 46 136t89 65.5t66 7.5q70 0 118 -44t48 -108q0 -14 -7.5 -64.5t-105.5 -80.5l-27 -4q35 -33 88 -33q51 0 100.5 33.5t90.5 103.5l16 29l17 30l53 109l-397 795l-13 24l-12 23q-25 41 -68 47l-12 2h-16h-70v170h715v-164h-109l-26 -2q-37 0 -37 -33 q0 -12 10 -39l12 -26l213 -437l222 437l12 26l10 23q4 6 4 18q0 33 -61 33h-107v164h516v-164l-16 -2l-51 -2q-37 -6 -66 -51l-18 -29l-10 -20l-471 -893l-35 -64q-47 -78 -88 -127t-114 -103t-202 -54q-100 0 -181 49t-103.5 113.5t-22.5 105.5z" />
</font>
</defs>
</svg>
