<?xml version="1.0" standalone="no"?>
<!DOCTYPE svg PUBLIC "-//W3C//DTD SVG 1.1//EN" "http://www.w3.org/Graphics/SVG/1.1/DTD/svg11.dtd" >
<svg xmlns="http://www.w3.org/2000/svg" xmlns:xlink="http://www.w3.org/1999/xlink" version="1.1">
<metadata></metadata>
<defs>
<font id="eurostile_rallyRgbldext" horiz-adv-x="1703" >
<font-face units-per-em="2048" ascent="1638" descent="-410" />
<missing-glyph horiz-adv-x="1173" />
<glyph horiz-adv-x="0" />
<glyph unicode="&#xd;" horiz-adv-x="666" />
<glyph unicode=" "  horiz-adv-x="1173" />
<glyph unicode="&#x09;" horiz-adv-x="1173" />
<glyph unicode="&#xa0;" horiz-adv-x="1173" />
<glyph unicode="!" horiz-adv-x="634" d="M96 0v419h451v-419h-451zM96 1504h443l-21 -888h-398z" />
<glyph unicode="&#x22;" horiz-adv-x="843" d="M47 1455q0 12 4 25q10 57 57.5 86t100.5 29q49 0 89.5 -25.5t50.5 -76.5q3 -10 3 -28q0 -14 -3 -38l-113 -558h-68l-115 533q-4 30 -4 47q-2 2 -2 6zM490 1455q0 12 4 25q10 57 57 86t101 29q36 0 61.5 -10.5t41.5 -26.5t24.5 -34t12.5 -31q5 -12 5 -28v-6q-2 -17 -5 -32 l-113 -558h-65l-118 533q-4 30 -4 47q-2 2 -2 6z" />
<glyph unicode="#" horiz-adv-x="1488" d="M132 396v264h238l28 202h-213v264h250l53 378h264l-53 -378h213l51 378h266l-51 -378h194v-264h-232l-26 -202h209v-264h-248l-55 -396h-268l57 396h-211l-55 -396h-264l53 396h-200zM634 660h212l30 202h-214z" />
<glyph unicode="$" horiz-adv-x="2233" d="M87 409q0 30 2.5 57.5t4.5 57.5h392q-2 -10 -2 -53q-2 -2 -2 -4q0 -41 20 -79q24 -47 72 -58t105 -15h888q75 6 103.5 21.5t48.5 45.5q4 10 12.5 31.5t8.5 55.5q0 30 -9.5 52t-13.5 30q-28 49 -70.5 58t-97.5 13q-133 4 -264 8t-263 4h-148q-75 0 -150 5 q-69 2 -136.5 7.5t-136.5 9.5q-16 4 -31 6.5t-30 6.5q-12 2 -36 8t-51.5 19t-57.5 33.5t-56 52.5q-30 39 -45.5 86.5t-23 92.5t-9 77.5t-1.5 41.5q0 28 2.5 53.5t7.5 51.5q10 95 36.5 145t60.5 84q35 37 75 58t82.5 31.5t88.5 15t95 8.5h448v174h206v-176h241q79 0 159 -5 l179 -12q61 -10 117 -27.5t104 -64.5q28 -26 45.5 -57.5t27 -73t11.5 -95.5t2 -127l-394 2q-5 30 -10 51.5t-28 44.5q-30 30 -70.5 34t-83.5 6h-815q-45 0 -83.5 -5t-68.5 -44q-26 -36 -25 -83q0 -8 3 -27.5t14 -39.5q24 -37 55.5 -46t74.5 -13l912 -12q85 -4 149.5 -7.5 t116 -12t92 -24t75.5 -44.5q33 -23 50 -45.5t25 -35.5q21 -36 33 -79.5t17 -85t6 -71.5t1 -36q0 -13 -1 -49t-7 -79q-16 -122 -54.5 -180t-83.5 -90q-64 -47 -137.5 -65.5t-147.5 -28.5q-73 -4 -144 -8.5t-146 -6.5h-106q-51 0 -105 2v-194h-208v192h-265q-68 2 -134 7.5 t-134 11.5q-73 10 -109 19t-70 24q-77 32 -118.5 83t-60.5 105t-22.5 102.5t-3.5 73.5z" />
<glyph unicode="%" horiz-adv-x="3087" d="M79 994v63q0 24 1 56.5t3 70t6 68.5q13 90 38.5 133.5t59.5 69.5q55 43 111 49q31 2 64 2q28 0 57 -2q75 6 147.5 11t146.5 5q73 0 143.5 -5t142.5 -11q56 -4 100.5 -17t87.5 -56q26 -26 41.5 -56.5t23.5 -71t12 -92.5t4 -122q0 -55 -2.5 -109.5t-7.5 -110.5q0 -8 -3 -36 t-13.5 -64t-29.5 -73.5t-53 -65.5q-43 -36 -100 -48.5t-120 -23.5q-77 -2 -151 -5h-154q-53 0 -106 2.5t-106 5.5q-65 8 -128.5 21.5t-118.5 58.5q-64 53 -81 143q-15 79 -15 210zM370 1014q0 -34 2 -70.5t20 -71.5q19 -39 55.5 -45.5t78.5 -11.5q37 -4 69.5 -6t69.5 -2 q30 0 60.5 1t62.5 3q37 0 64.5 1t56.5 25q24 19 36 41.5t17 44.5t5 40v68q-2 6 -2 13q0 13 2 27q0 2 2 26v9q0 18 -4 44q-6 28 -22 55.5t-51 40.5q-26 10 -77 16t-118 6q-81 0 -167 -8q-48 -2 -81.5 -10t-54.5 -51q-21 -45 -22.5 -93.5t-1.5 -91.5zM852 0l1054 1504h322 l-1057 -1504h-319zM1802 411q2 57 3 114.5t8 117.5q10 95 32.5 143.5t54.5 80.5q53 51 109.5 63.5t124.5 16.5q61 3 121 5.5t122 2.5q71 0 141 -2.5t140 -7.5q45 -6 85.5 -14.5t76.5 -22.5t67 -36t54 -59q30 -49 38.5 -93.5t12.5 -99.5q2 -47 5 -92v-32q0 -32 -3 -63 q-2 -39 -4 -77.5t-4 -78.5q-11 -62 -25 -113t-60 -95q-56 -53 -146.5 -68.5t-240.5 -15.5l-410 15q-13 2 -25 2q-13 0 -26 2t-39.5 6.5t-57.5 18.5t-60.5 38.5t-50.5 64.5q-30 61 -35.5 138t-7.5 141zM2104 441q5 -100 27.5 -135.5t67.5 -45.5q8 -2 30.5 -5t51 -5t61.5 -3.5 t62 -1.5q35 0 67.5 1.5t69.5 1.5q12 0 45.5 2t63.5 27q24 16 38.5 46.5t14.5 87.5q0 24 -2 47v46q0 7 2 24v37q-2 18 -7.5 39.5t-20.5 41.5q-17 24 -38 31.5t-47 13.5q-9 0 -33.5 2t-57 4t-70 3t-71.5 1q-26 0 -51.5 -1t-52.5 -3q-9 0 -39 -3t-51 -21q-34 -24 -49 -85 q-10 -49 -11 -111v-36z" />
<glyph unicode="&#x26;" horiz-adv-x="2342" d="M113 415v32q0 21 1 41.5t1 41.5q7 94 21.5 142t38.5 82q24 32 57.5 52.5t72 31t78 15.5t75.5 9q-58 37 -90.5 66t-51 60.5t-22.5 74.5t-4 110v39q0 26 5.5 57.5t18 67t38.5 69.5q30 39 63.5 61t72 33.5t81.5 14.5t91 5q186 7 375 7q113 0 223 -4.5t222 -10.5 q17 -2 34.5 -3t34.5 -5q10 0 43.5 -5.5t72.5 -21.5t77 -45.5t58 -76.5q24 -49 29 -128q2 -57 2 -134v-64h-396q0 48 -5 79.5t-20 48t-44 26.5t-75 18q-53 4 -105 6.5t-106 2.5q-111 0 -226 -7q-4 0 -29.5 -1t-49.5 -11q-11 -4 -34 -22.5t-23 -54.5q0 -17 4 -29t6 -16 q10 -19 27.5 -33t55.5 -32l772 -388v197l385 -2q2 -47 2 -93q0 -47 -2 -94q-2 -49 -6.5 -94.5t-10.5 -92.5l321 -175l-142 -274l-290 150q-24 -16 -48 -32.5t-48 -32.5q-30 -17 -55.5 -29t-59.5 -20.5t-77.5 -16t-106.5 -15.5q-98 -4 -195.5 -6.5t-194.5 -2.5 q-133 0 -263 6.5t-264 14.5q-24 4 -46 8.5t-45 8.5q-13 2 -48 9.5t-78 26t-84.5 50t-68.5 82.5q-17 35 -26.5 78.5t-14 82t-4.5 65.5zM526 496q0 -12 2 -35.5t12.5 -48t33 -48t60.5 -36.5q17 -5 31 -7t44 -4q108 -4 212.5 -8t214.5 -4q89 0 176.5 2t176.5 4l-87 49l-644 317 q-4 4 -35.5 16t-62.5 12q-18 -2 -31 -5t-22 -7q-34 -17 -47 -41t-21 -60q-9 -35 -11 -59t-2 -37z" />
<glyph unicode="'" horiz-adv-x="333" d="M15 1433v16q0 14 2 31q10 57 56.5 86t101.5 29q51 0 91.5 -26.5t50.5 -79.5q2 -10 2 -22v-10l-4 -30l-112 -558h-69l-115 533q-2 8 -4 31z" />
<glyph unicode="(" horiz-adv-x="858" d="M79 823v76q0 51 1 113.5t8.5 125.5t24.5 123t51 107q26 36 55 56.5t41 28.5q83 47 168 51q41 2 86 2q42 0 87 -2h187v-292q-89 -2 -153 -7.5t-98 -31.5q-24 -17 -36.5 -48.5t-18 -69t-5.5 -73.5v-375q-2 -34 -2 -64q0 -49 7 -81q6 -49 34 -90q24 -32 37 -37 q15 -8 34.5 -12t38.5 -6h160v-317h-223q-19 0 -39 1t-38 1q-13 0 -47 3t-77 15t-88.5 34.5t-84.5 60.5q-70 75 -87 171t-21 191v253z" />
<glyph unicode=")" horiz-adv-x="858" d="M77 0v303q75 2 131 5t86 13q37 13 55.5 39t26.5 52.5t9 50t1 29.5v520q-2 30 -4 47.5t-8 31.5q-10 34 -24.5 54t-31.5 32t-35.5 16t-30.5 6q-21 4 -54 4h-15q-45 -2 -102 -2v303h275q30 4 61 4h16q36 -2 71 -8q90 -17 154 -78t94 -146q17 -49 22.5 -98.5t7.5 -63.5 q6 -171 6 -339q0 -88 -2 -172.5t-6 -174.5q-6 -87 -22 -159.5t-77 -142.5q-12 -13 -39.5 -39t-72.5 -44q-79 -33 -195 -39q-74 -6 -173 -6q-57 0 -124 2z" />
<glyph unicode="*" d="M108 504l1498 8v221l-1498 11v-240zM226 984l1069 -884l183 156l-1054 898zM230 258l203 -169l1045 905l-187 156zM716 -8h283l-9 1264h-262z" />
<glyph unicode="+" horiz-adv-x="1384" d="M69 486v270h484v484h274v-484h483v-270h-483v-486h-274v486h-484z" />
<glyph unicode="," horiz-adv-x="642" d="M63 -160q53 0 98.5 7.5t72.5 50.5q15 26 18.5 49t5.5 53h-138v417h455v-525q-6 -71 -22 -123t-76 -99q-34 -26 -72.5 -41t-87.5 -21t-110 -6h-144v238z" />
<glyph unicode="-" horiz-adv-x="1075" d="M10 402v393h1059v-393h-1059z" />
<glyph unicode="." horiz-adv-x="666" d="M110 -2v417h446v-417h-446z" />
<glyph unicode="/" horiz-adv-x="962" d="M15 0l678 1504h262l-680 -1504h-260z" />
<glyph unicode="0" horiz-adv-x="2126" d="M130 735v80q4 124 13.5 216.5t28.5 163.5t52.5 123t86.5 92q79 60 160.5 76t178.5 24l270 10h241q14 0 55 3h91q51 -3 114 -6t125 -11q77 -10 150.5 -28.5t130.5 -61.5q24 -18 57 -55.5t61 -110.5q42 -106 48.5 -223.5t6.5 -223.5v-160q0 -37 -3 -89t-9.5 -111 t-19.5 -115q-2 -11 -7.5 -32t-15 -47.5t-24.5 -55.5t-33 -55q-58 -70 -156 -102q-56 -18 -118.5 -30t-127.5 -16.5t-127 -5.5t-115 -1h-181q-108 2 -213.5 4.5t-215.5 8.5q-83 4 -170.5 20t-158.5 65q-71 47 -107 130t-51 177t-16 186.5t-1 160.5zM556 603q2 -36 5.5 -62.5 t8.5 -46t13.5 -35.5t21.5 -31q30 -36 65 -53t80 -26q38 -6 115.5 -10t175.5 -9h124q4 0 24.5 1t48.5 3.5t58.5 5.5t58.5 7q90 17 127.5 44.5t59.5 66.5q21 38 27 81q2 24 2 59q0 28 -2 64v232q-2 56 -9 104t-44 93q-24 30 -46.5 42.5t-34.5 16.5q-47 19 -127.5 25.5 t-193.5 11.5h-79q-106 -2 -224 -14q-55 -4 -105 -15.5t-92 -54.5q-33 -32 -45.5 -69.5t-12.5 -119.5v-311z" />
<glyph unicode="1" horiz-adv-x="2126" d="M453 1086l638 418h559v-1504h-445l13 1159l-558 -386z" />
<glyph unicode="2" horiz-adv-x="2126" d="M160 0v413q2 69 10.5 128.5t51.5 120.5q28 41 64.5 67.5t80.5 42.5t94.5 24.5t101.5 16.5l772 59q58 4 102.5 13t72.5 58q17 30 20.5 53.5t3.5 38.5q0 32 -7 51.5t-13 29.5q-26 53 -68 65t-102 16q-71 4 -139.5 6t-137.5 2q-71 0 -141 -3t-138 -7q-36 -2 -73.5 -9.5 t-66.5 -31.5q-45 -34 -53.5 -87t-11.5 -112h-421v76q0 55 2 103q2 74 15.5 130.5t42 96t76.5 70.5q21 15 44.5 27t53.5 21.5t67 17t88 15.5q134 4 270 6t272 2q126 0 248 -2t248 -6q39 -8 80.5 -18t81.5 -25.5t76.5 -38t64.5 -54.5q26 -30 40.5 -69t24 -83t12.5 -87.5 t3 -81.5q0 -17 -2 -71.5t-13 -111.5q-2 -11 -5 -33t-11 -44q-7 -17 -20 -45t-41 -59q-34 -37 -72 -60.5t-80.5 -37.5t-89.5 -21l-94 -14l-784 -60q-36 -4 -80 -12.5t-68 -40.5q-24 -28 -26.5 -64t-2.5 -76h1385v-305h-1808z" />
<glyph unicode="3" horiz-adv-x="2126" d="M132 445q0 43 2 83h437q0 -10 -2 -44v-13q0 -28 6 -56q8 -41 31.5 -63t51 -31.5t52.5 -11.5t36 -2q95 -4 189 -7.5t189 -3.5q118 0 239 7q5 0 18.5 1t32.5 4t38.5 8t31.5 16q13 10 29 37t16 78q0 15 -2 38.5t-19 53.5q-30 49 -76 58.5t-105 9.5h-447v294h443 q51 2 90.5 10.5t62.5 51.5q14 24 18 48t4 35q0 30 -7 49t-11 27q-21 43 -56.5 55t-83.5 16q-82 6 -162.5 10t-161.5 4q-59 0 -117 -1t-119 -3q-8 -2 -44.5 -6t-73.5 -22q-40 -19 -56 -52.5t-20 -120.5h-428v93q0 13 2 48t11.5 81t32 94t64.5 84q35 30 80.5 49t94.5 32t98 19 t91 10l650 8h15l266 -16q24 -4 48.5 -6t47.5 -7q81 -16 138.5 -50.5t100.5 -111.5q17 -30 32 -79t15 -124q0 -6 -1 -23t-2 -41.5t-5.5 -52t-11.5 -52.5q-10 -45 -27.5 -75t-49 -52.5t-80.5 -41.5t-124 -38q30 -4 66 -9.5t71.5 -15t67 -26t55.5 -39.5q28 -30 42.5 -69.5 t21 -75.5t8 -64.5t1.5 -35.5q0 -49 -7 -100q-9 -69 -27 -122t-71 -99q-66 -58 -147 -75t-168 -27q-118 -4 -235 -6.5t-236 -2.5q-136 0 -271.5 4.5t-273.5 10.5q-71 6 -134.5 18t-125.5 55q-57 38 -88 92t-45 115t-14 127q-2 20 -2 40z" />
<glyph unicode="4" horiz-adv-x="2126" d="M122 290v543l1111 671h525v-892h240v-314h-245v-298h-432v290h-1199zM435 607h900v558z" />
<glyph unicode="5" horiz-adv-x="2126" d="M132 402q0 29 2 62h427q0 -17 1 -46.5t34 -59.5q32 -30 76 -36.5t90 -10.5h524q69 0 103 7.5t60 26.5q10 9 18.5 16t19.5 31q24 39 27.5 72.5t3.5 49.5q0 2 -1 19.5t-4 40t-10 47.5t-21 41q-24 29 -63 39t-82 15q-89 4 -176 6q-43 2 -88 2q-44 0 -89 -2q-55 -2 -111 -3 t-111 -3h-23q-14 0 -35 -3.5t-42 -9.5t-36 -20q-10 -10 -21 -26t-19 -31h-397l18 878h1683v-297h-1302v-300q16 14 35.5 29.5t38.5 28.5t36.5 21t40.5 15t54.5 11t75.5 8q118 2 234 4h77q77 0 155 -2q64 -2 127 -3t127 -5q43 -4 79 -11t76 -23q75 -30 112.5 -75t51.5 -70 q24 -43 42 -114t18 -184q0 -13 -1 -55.5t-10.5 -99t-31 -117t-59.5 -112.5q-51 -69 -113 -98q-23 -12 -48.5 -20.5t-59 -15.5t-76 -11t-99.5 -8q-111 -6 -220.5 -11.5t-220.5 -5.5q-114 0 -224 5.5t-224 11.5l-69 11.5t-69 14.5q-128 32 -186.5 78.5t-85.5 104.5 q-13 24 -21 48t-12 53t-4 66q-2 11 -2 26z" />
<glyph unicode="6" horiz-adv-x="2126" d="M193 422v336l14 328q8 81 24.5 142t71.5 124q44 51 98.5 81t104.5 46.5t90 21.5t60 7q106 4 209.5 8t207.5 4q134 0 266.5 -6t266.5 -16q49 -11 83 -18.5t51 -12.5q28 -10 59.5 -24t58 -42.5t48 -74.5t30.5 -116q5 -35 5 -68q0 -32 2 -67l-429 2q-4 17 -13.5 42t-45.5 44 q-41 21 -84.5 23.5t-124.5 6.5q-24 2 -48.5 3t-47.5 1l-319 -10q-43 -5 -82.5 -14.5t-75.5 -38.5q-26 -24 -37.5 -56t-11.5 -100v-190q15 28 28 47t29 33t36 24.5t49 21.5q60 19 145 24t225 7l429 -12q19 -2 40 -3t39 -3q11 -2 43 -7.5t71.5 -19.5t79.5 -39.5t66 -68.5 q28 -44 42.5 -119t14.5 -194q0 -93 -10 -159t-26 -103q-19 -44 -52 -81.5t-71 -62.5q-68 -43 -144.5 -58t-157.5 -23q-96 -4 -190 -6.5t-190 -2.5q-130 0 -257.5 5.5t-257.5 13.5q-16 4 -36 6t-37 7q-26 4 -66 16t-84.5 37.5t-87 70t-68.5 115.5q-17 42 -22.5 82t-10.5 86z M616 451q0 -38 30 -79q24 -34 61 -46.5t122 -16.5h504q62 4 109 17t76 66q5 10 13.5 32.5t8.5 54.5q0 31 -6.5 48.5t-10.5 28.5q-26 53 -70.5 66.5t-104.5 18.5h-525q-43 -5 -83.5 -10t-72.5 -33q-24 -17 -33.5 -39t-15.5 -50v-53q-2 -3 -2 -5z" />
<glyph unicode="7" horiz-adv-x="2132" d="M191 1165v339h1752v-341l-1002 -1163h-553l1007 1165h-1204z" />
<glyph unicode="8" horiz-adv-x="2126" d="M136 435q0 73 20.5 130t75.5 104q19 16 40.5 30t48 26t62.5 23.5t86 24.5q-57 6 -106.5 16t-98.5 46q-53 39 -74.5 91t-31.5 118q-2 17 -4.5 43.5t-2.5 64.5q0 49 6.5 81.5t13.5 50.5q23 66 72 114.5t113 73.5q46 16 111 26t133.5 14t133.5 6t112 2h392q81 0 162.5 -2 t162.5 -8q59 -6 103.5 -13.5t77 -18.5t58 -26t49.5 -33q43 -37 65.5 -77.5t32.5 -77.5t11 -69t1 -51q0 -138 -30.5 -204t-83.5 -103q-15 -10 -36.5 -20t-54.5 -20q-37 -11 -73.5 -14t-46.5 -5q65 -13 125 -31.5t115 -63.5q64 -51 80 -110t16 -140v-59q0 -28 -2 -55 q-4 -75 -26.5 -129t-83.5 -103q-41 -32 -75.5 -46.5t-50.5 -21.5q-35 -11 -68.5 -17t-75 -9t-93.5 -4t-123 -1q-37 -3 -75 -3h-76q-83 -2 -166 -2h-165q-91 0 -182.5 1t-183.5 12q-8 0 -41.5 4t-78 16t-92.5 32.5t-82 55.5q-13 12 -27 32t-30 57q-15 35 -22.5 73.5t-11 72 t-4.5 59.5t-1 37zM575 464q0 -49 23.5 -87t63.5 -56q35 -12 88 -15t132 -3h386q28 2 55 3t57 5q8 0 32.5 3t48.5 16q21 12 34 29t17 25t12 31.5t8 53.5q0 15 -6 41.5t-26 56.5q-39 55 -96 61q-28 2 -56 2q-37 0 -72 -4h-369q-30 0 -62 -1t-63 -1h-43q-34 0 -64 -10 q-43 -17 -71.5 -58.5t-28.5 -91.5zM588 1071q0 -10 3 -32.5t18 -46.5q31 -53 79.5 -62.5t106.5 -11.5h477q28 -2 53 -2q15 0 27 2q41 0 77 17q6 4 21 15t30.5 27.5t26.5 40t11 55.5q0 33 -10 54t-17 32q-36 51 -87 57q-32 4 -69 5q-20 0 -46 -3h-472q-23 0 -48 -2 q-7 0 -34.5 -2t-53.5 -13q-8 -4 -23 -12.5t-30.5 -24.5t-27.5 -39.5t-12 -53.5z" />
<glyph unicode="9" horiz-adv-x="2132" d="M142 337v82h444q2 -12 2 -23q0 -8 4 -20q10 -23 35 -35.5t48 -17.5q21 -4 68 -6t105 -4h410q47 0 96.5 6.5t91 23.5t60.5 49q21 36 22 86t4 95q2 39 3 73.5t3 71.5q-4 -9 -18 -29t-36 -39q-36 -32 -93.5 -54.5t-157.5 -26.5q-57 -4 -114.5 -5t-114.5 -3h-274 q-49 2 -105 5t-112.5 12.5t-110 27.5t-95.5 50q-53 41 -81 99t-40.5 115t-15 100.5t-2.5 53.5q0 2 1.5 37.5t6.5 83.5t17 100t35 90q21 39 62 73q17 17 49.5 38t88.5 38q64 17 162 24.5t249 11.5h520q77 0 154.5 -8t151 -27.5t133.5 -57.5q15 -11 34 -27t40.5 -40.5t39 -58 t31.5 -78.5q16 -59 21.5 -170.5t7.5 -264.5v-51q0 -44 -1 -107t-5.5 -132.5t-12.5 -127.5q-10 -65 -28.5 -113t-43 -83.5t-50 -58.5t-51.5 -38q-57 -36 -131.5 -55.5t-151 -28t-152 -9.5t-138.5 -1h-417q-79 2 -156.5 5.5t-158.5 13.5q-110 15 -165.5 44t-92.5 69 q-30 35 -45.5 71t-22.5 73t-7 78zM612 1048q0 -12 2 -39t16 -57q13 -28 30 -42t38.5 -20t44.5 -7t54 -3q20 -2 39.5 -3t39.5 -3h353q37 2 70 2q36 0 73 2q51 4 77.5 13.5t46.5 26.5q26 26 33 47q10 21 11.5 38t1.5 26q0 42 -8.5 69.5t-19.5 41.5q-18 26 -50.5 39.5 t-67.5 18.5t-70 6t-60 1q-21 0 -42 1t-39 1h-337q-39 0 -79 -2q-56 -6 -102 -40q-43 -30 -49 -63t-6 -54z" />
<glyph unicode=":" horiz-adv-x="702" d="M130 641v424h453v-424h-453zM132 0v417h451v-417h-451z" />
<glyph unicode=";" horiz-adv-x="593" d="M43 -158q53 0 87 5.5t54.5 22.5t33 48t22.5 82h-136v417h457v-527q-3 -9 -6.5 -45t-13.5 -71q-11 -30 -49.5 -78t-117.5 -70q-55 -17 -132.5 -20.5t-198.5 -3.5v240zM104 646v419h452v-419h-452z" />
<glyph unicode="&#x3c;" horiz-adv-x="1594" d="M85 616v264l1421 630v-296l-1044 -466l1044 -461v-293z" />
<glyph unicode="=" horiz-adv-x="1594" d="M85 262v273h1421v-273h-1421zM85 709v269h1421v-269h-1421z" />
<glyph unicode="&#x3e;" horiz-adv-x="1594" d="M85 -6v293l1041 461l-1041 466v296l1421 -630v-264z" />
<glyph unicode="?" horiz-adv-x="1807" d="M138 986q2 32 3 64t6 64q2 51 7.5 96.5t20 85t41 74t74.5 63.5q43 28 87.5 41t93.5 24q118 10 233.5 16t232.5 6q108 0 217 -6t220 -16l51 -14q12 -4 40 -12.5t61 -26.5t65 -46.5t53 -71.5t29 -103.5t8 -166.5v-43q0 -36 -9 -84t-29 -97t-60 -83q-34 -30 -83 -48.5 t-103.5 -30t-106.5 -18.5t-93 -14q-55 -9 -86 -15t-52 -21q-15 -10 -25 -25t-26 -50l-378 2q-2 39 -2 75q0 39 2 74q4 71 55 132q49 62 113 78t135 29q36 4 72 10.5t75 12.5l83 20q79 21 102.5 52t23.5 71q-3 28 -9 47t-10 25q-24 39 -63.5 49.5t-84.5 15.5q-55 4 -110 6 q-28 2 -55 2q-28 0 -56 -2q-43 0 -84.5 -1t-83.5 -3q-32 -4 -63 -8.5t-56 -15.5q-45 -21 -63 -71q-14 -42 -14 -122v-22zM598 0v394h452v-394h-452z" />
<glyph unicode="@" horiz-adv-x="1916" d="M136 506q0 205 74.5 389.5t206.5 323t312 219t389 80.5q26 0 72 -3t102 -15.5t119 -40.5t125 -77q32 -26 69 -67t70 -101t54 -139t21 -179q0 -53 -6 -104q-17 -142 -72.5 -282t-159.5 -242q-10 -10 -33.5 -31.5t-59 -41.5t-80 -36.5t-95.5 -16.5q-6 0 -26.5 2.5t-45 9 t-49 21t-43.5 40.5q-17 24 -21 43t-9 29q-12 -15 -34 -38t-59 -51q-43 -31 -83.5 -43.5t-89.5 -12.5q-51 0 -86.5 12t-51.5 21q-28 14 -56.5 40.5t-51 66t-36.5 94.5t-14 126q0 24 3 62.5t13 87.5t29.5 105t52.5 115q10 16 38 56.5t73 82t108.5 72.5t144.5 31q23 0 73 -8.5 t99 -55.5q21 -16 34 -37t17 -27l22 85h191l-69 -338q-5 -24 -15.5 -71.5t-20 -100t-17.5 -101.5t-8 -72q0 -66 43 -67q17 0 31 8t27 18q19 15 41.5 39.5t52.5 69.5q40 65 64.5 131.5t37 125t15.5 104t3 73.5q0 15 -1 44t-7 65t-21 76.5t-40 80.5q-45 69 -106 107 t-120.5 57.5t-109.5 23.5t-71 4q-45 0 -131 -12.5t-195 -67.5q-107 -55 -191 -136.5t-145 -181.5t-92.5 -214t-31.5 -232q0 -30 3 -79t20 -107t51 -123t99 -122q63 -59 136 -92.5t140 -50.5t120 -21.5t79 -4.5q42 0 102.5 6.5t135.5 27.5t157.5 60.5t170.5 105.5 q34 26 66 53.5t61 57.5l98 -132q-38 -36 -107.5 -95t-167 -114t-225.5 -96.5t-285 -41.5q-151 0 -306 48t-273 145q-39 33 -82.5 81.5t-80 119.5t-61 163.5t-24.5 212.5zM707 518q0 -71 19.5 -108.5t46.5 -55.5q8 -5 26 -13.5t44 -8.5q51 0 97 37.5t74 75.5q19 28 36 66 t29 77.5t18 80t6 77.5q0 40 -12 79q-24 63 -64.5 81.5t-65.5 18.5q-43 0 -70 -16.5t-37 -26.5q-37 -30 -64.5 -74t-45.5 -93.5t-27.5 -100.5t-9.5 -96z" />
<glyph unicode="A" horiz-adv-x="2342" d="M24 0l834 1504h599l848 -1504h-522l-141 268h-969l-143 -268h-506zM841 586h633l-311 585z" />
<glyph unicode="B" horiz-adv-x="2132" d="M98 0v1504h1389q51 0 104 -2t105 -12t100.5 -29.5t87.5 -54.5q43 -34 76.5 -101t33.5 -185q0 -61 -7.5 -107t-20.5 -79t-31 -56.5t-41 -42.5q-37 -30 -77.5 -43.5t-80.5 -25.5q55 -8 107.5 -19.5t99.5 -47.5q51 -37 79.5 -102t28.5 -199q0 -108 -27.5 -170t-62.5 -100 q-8 -10 -25 -27.5t-44 -37.5q-35 -23 -74.5 -37t-89 -20t-114.5 -6q-21 -2 -45 -2q-46 0 -99 2h-1372zM551 339h902q45 8 76.5 22.5t49.5 57.5q2 6 5 19t3 33q0 26 -8 45t-20 37q-36 47 -81 54q-34 5 -72 5h-855v-273zM553 912h813q36 0 65 4q43 4 73 47q6 8 17 28.5 t11 49.5q0 43 -28 77q-30 43 -68.5 49t-87.5 8h-795v-263z" />
<glyph unicode="C" horiz-adv-x="2126" d="M92 752q0 83 5 165t9 165q10 74 26.5 133t65.5 120q42 51 94.5 82.5t102.5 49t89.5 24.5t58.5 11q130 10 260 16.5t262 6.5q134 0 265 -5.5t265 -9.5q81 -12 157.5 -32.5t141.5 -80.5q42 -39 65.5 -92t34 -110t13.5 -116t3 -110l-449 2q0 35 -4 61.5t-28 56.5 q-28 34 -68 42.5t-87 12.5q-66 4 -132.5 6t-133.5 2q-139 0 -281 -6q-17 0 -36.5 -1t-36.5 -3q-15 -2 -39 -7t-51.5 -18.5t-51.5 -39t-37 -69.5q-10 -35 -13.5 -98.5t-3.5 -147.5v-110q3 -61 11 -123t53 -103q26 -24 57.5 -37t60.5 -19t51 -8t29 -2h552q2 0 21 2t44.5 7 t52 17t44.5 33q24 28 28.5 67.5t8.5 82.5h459q0 -34 -1 -67t-3 -69q-2 -49 -7 -96t-17 -90.5t-35.5 -82t-64.5 -70.5q-61 -51 -132 -68.5t-144 -27.5q-122 -8 -244 -12.5t-242 -4.5q-134 0 -265 3.5t-266 7.5q-104 16 -202 39.5t-171 92.5q-73 65 -94.5 141t-33.5 170 q-6 79 -11 157.5t-5 159.5z" />
<glyph unicode="D" horiz-adv-x="2126" d="M69 0v1504h1401q59 0 121 -6q90 -9 156 -29t112.5 -48t77.5 -62t53 -70q53 -90 66 -192.5t17 -202.5v-296q0 -26 -2 -53q-5 -102 -21 -177.5t-42.5 -130t-62 -92t-77.5 -64.5q-85 -53 -170.5 -65t-181.5 -16h-1447zM537 362h809q30 0 66 6q69 11 107 41t57 73.5 t24.5 96.5t5.5 112v187q-4 53 -13.5 98.5t-50.5 88.5q-46 49 -112.5 59t-138.5 14h-754v-776z" />
<glyph unicode="E" horiz-adv-x="1916" d="M120 0v1504h1680v-333h-1223v-251h1157v-315h-1157v-264h1223v-341h-1680z" />
<glyph unicode="F" horiz-adv-x="1916" d="M173 0v1504h1631v-345h-1168v-299h1106v-342h-1106v-518h-463z" />
<glyph unicode="G" horiz-adv-x="2337" d="M147 795v69q0 49 2 96.5t9 96.5q8 70 26.5 131.5t50 114t79.5 92.5t117 70q40 17 81 27t93.5 15t117.5 7t153 4q44 0 89 1t90 1h368q59 3 119 3h60q87 -3 178 -13q147 -14 220 -51.5t117 -92.5q37 -45 55.5 -90t27.5 -92.5t11 -97.5v-31q0 -35 -2 -71h-471 q-4 47 -11.5 78t-30 49.5t-64 27.5t-114.5 13h-644q-45 -2 -91 -9t-82 -37q-45 -37 -56 -99t-15 -170v-198q2 -11 2 -30q0 -8 1 -32t8 -53.5t20.5 -60t39.5 -56.5q43 -39 101 -48.5t125 -13.5h569q68 2 126.5 11.5t94.5 62.5q21 34 25 69.5t4 72.5h-632v293l1101 -2 q0 -75 2 -149v-32q0 -59 -4 -122q0 -43 -2 -83t-6 -82q-11 -116 -58 -208.5t-160 -139.5q-95 -40 -204 -46.5t-212 -6.5h-764q-63 0 -126 2.5t-124 12.5t-119 32.5t-115 63.5q-34 26 -53.5 50t-31.5 35q-38 57 -57 126t-25.5 143t-6.5 144v136q-2 34 -2 67z" />
<glyph unicode="H" horiz-adv-x="2233" d="M124 0v1504h470v-549h1038v549h464v-1504h-466v586h-1040v-586h-466z" />
<glyph unicode="I" horiz-adv-x="744" d="M118 0v1504h476v-1504h-476z" />
<glyph unicode="J" horiz-adv-x="1707" d="M51 458v178h453v-75q2 -62 9 -92t22 -52q30 -45 107.5 -57.5t188.5 -12.5q30 0 62 1t64 4q10 2 43 5t65 17q34 15 53.5 40t26.5 49.5t8 46.5t1 33v961h467v-839l-11 -267q-10 -70 -27.5 -130.5t-66.5 -120.5q-34 -43 -75 -68.5t-89.5 -41.5t-100.5 -24.5t-107 -16.5 q-92 -4 -181 -8.5t-183 -4.5q-77 0 -155 4.5t-156 8.5q-89 14 -167 36.5t-146 91.5q-38 38 -59.5 85t-32.5 109t-13 140z" />
<glyph unicode="K" horiz-adv-x="2219" d="M115 0v1504h468v-557h234l628 557h634q-69 -53 -135 -106.5t-129 -108.5q-66 -56 -131.5 -112.5t-128.5 -113.5q-90 -75 -176 -151.5t-176 -151.5l963 -760h-660l-683 571h-242v-571h-466z" />
<glyph unicode="L" d="M110 0v1504h471v-1132h1040v-372h-1511z" />
<glyph unicode="M" horiz-adv-x="2768" d="M113 0v1504h743l546 -986l547 986h734v-1504h-447v1138l-657 -1138h-369l-657 1144v-1144h-440z" />
<glyph unicode="N" horiz-adv-x="2238" d="M73 0v1504h736q124 -151 245 -299t243 -302q108 -139 214.5 -278t215.5 -280l-8 690v469h435v-1504h-740q-134 162 -265 324t-261 328q-96 124 -189.5 248t-186.5 250v-1150h-439z" />
<glyph unicode="O" horiz-adv-x="2242" d="M59 641l16 441q2 16 4 35t6 35q17 90 60.5 161t124.5 118q60 36 116.5 49t125.5 24q138 8 274 13.5t277 5.5q164 0 326 -5.5t328 -13.5q17 -2 35 -4t35 -7q24 -4 62.5 -13.5t81.5 -31t86.5 -60t78.5 -97.5q40 -75 52 -148.5t16 -154.5t6 -161v-54q0 -55 -2 -108t-5 -106 t-7 -108q-10 -83 -30 -152t-75 -137q-43 -53 -97 -85t-112.5 -49.5t-122.5 -25.5t-126 -12q-113 -2 -225 -4.5t-226 -2.5q-130 0 -258 2.5t-258 6.5q-51 2 -100 7t-96.5 15t-93.5 27.5t-91 47.5q-68 47 -105.5 112t-55.5 138.5t-21.5 151.5t-3.5 150zM528 705 q4 -96 12.5 -164t34.5 -104q30 -41 88.5 -57t153.5 -24h614q36 2 71.5 7t65 15t55 28t43.5 47q15 24 22 53t13 84v326q-2 26 -4 47t-10 45q-13 44 -36 69.5t-54.5 41t-69.5 19.5t-82 8h-644q-79 -4 -117 -16t-70 -35q-24 -17 -34.5 -31t-14.5 -25q-13 -24 -18.5 -49 t-7.5 -33q-4 -41 -6.5 -101.5t-4.5 -150.5z" />
<glyph unicode="P" horiz-adv-x="2022" d="M85 0v1504h1261q32 2 64 2t62 -2q74 -2 127.5 -13t93 -28.5t67 -40t51.5 -50.5q34 -39 52.5 -78.5t28.5 -80t13 -85t5 -91.5q3 -30 4 -56t1 -56q0 -7 -1 -61.5t-13.5 -126.5t-45 -148.5t-93.5 -124.5q-43 -32 -96.5 -50t-109.5 -25t-113 -10t-103 -3h-779v-376h-476z M558 746h673q35 0 64.5 1t53 9t43.5 25.5t35 47.5q8 17 17 43.5t9 66.5q0 2 -1 20.5t-7 42.5t-15 51t-26 44q-26 28 -66.5 36.5t-83.5 12.5h-696v-400z" />
<glyph unicode="Q" horiz-adv-x="2440" d="M113 650v70q0 79 2.5 157t8.5 158q10 110 28.5 173.5t45.5 106.5q28 44 96 99.5t194 83.5q55 10 153 19.5t239 9.5q106 0 210.5 -3.5t208.5 -5.5q98 -2 195 -3t199 -7q55 -2 107.5 -7t101.5 -19.5t93.5 -40t85.5 -67.5q10 -11 25.5 -28t33.5 -47q21 -36 37 -78.5t25 -96 t13 -121.5t4 -157q0 -120 -7 -237t-19 -237l189 -114l-181 -309l-191 147q-24 -13 -49 -26t-51 -23q-42 -17 -89 -28t-104.5 -16t-131 -7t-166.5 -2q-337 0 -682 6q-65 2 -127.5 4t-120.5 14t-114 36.5t-109 73.5q-73 71 -110 157q-24 53 -30 115q-4 28 -6 72t-4.5 89.5 t-2.5 88.5zM573 697q0 -2 1 -43.5t14 -96.5t40.5 -108t82.5 -77q19 -8 39.5 -12t45 -6t55.5 -3.5t74 -3.5q68 -4 133.5 -7t134.5 -3q100 0 200 5t202 10l-509 296l207 302l485 -330q-2 55 -2 108v177q-2 28 -10 72.5t-55 95.5q-11 13 -33.5 33t-61.5 34q-24 8 -44.5 12 t-46 6.5t-59 3.5t-78.5 1q-63 2 -126 3t-126 1q-132 0 -267 -6q-53 -5 -104.5 -14t-95.5 -41q-45 -35 -59 -69.5t-18 -56.5q-2 -13 -5.5 -43t-6.5 -68t-5 -82.5t-2 -89.5z" />
<glyph unicode="R" horiz-adv-x="2134" d="M102 0v1504h1365l116 4h23q44 0 85 -4q53 -8 103.5 -26.5t95.5 -54.5q30 -24 48.5 -49.5t25.5 -36.5q23 -42 35.5 -91t18.5 -92.5t7 -75.5t1 -41v-31q0 -26 -3 -63.5t-10 -78.5t-17 -76q-4 -8 -13 -28.5t-24 -39.5q-28 -39 -66 -64.5t-82.5 -42.5t-91.5 -26.5t-87 -15.5 q93 0 177.5 -13t139.5 -83q41 -49 47 -101.5t6 -111.5v-262h-466v203q0 30 -4.5 59.5t-21.5 58.5q-26 37 -65 48t-84 15h-788v-384h-471zM575 756h737q66 0 109.5 4t71.5 20q26 15 39.5 39t21 49.5t8.5 45t1 23.5t-1 22.5t-4 41.5t-11.5 47.5t-23.5 44.5q-29 32 -74 39.5 t-97 11.5h-777v-388z" />
<glyph unicode="S" horiz-adv-x="2129" d="M115 494l471 -2q0 -26 1 -47t9 -40q12 -37 48.5 -53.5t111.5 -23.5q73 -5 143 -7t142 -4h154q77 2 155 4h52q2 -2 6 -2q37 0 70 16q36 12 61.5 44t25.5 70q0 11 -3 28t-18 39q-28 38 -68.5 45.5t-120.5 17.5q-166 4 -331.5 6.5t-330.5 12.5q-53 4 -105.5 7.5t-105.5 8.5 q-17 4 -33 5t-34 5q-10 2 -33.5 6t-53.5 16t-61 30.5t-58 47.5q-36 38 -62.5 109.5t-26.5 186.5q0 4 1 33t4 70.5t10 86t23 81.5q21 53 61 95q66 71 149 92.5t179 31.5q124 4 246.5 8.5t245.5 4.5q136 0 272 -6.5t272 -12.5l83 -13q13 -2 36 -6.5t54 -16t64 -29.5t62 -46 q39 -37 60.5 -79t31 -88t11.5 -96v-33q0 -34 -2 -66l-456 2q-11 42 -21 68.5t-28.5 40.5t-47 21.5t-73.5 11.5q-83 4 -167 8t-168 4q-65 0 -129 -2.5t-131 -4.5q-42 -2 -80.5 -8.5t-65.5 -43.5q-4 -6 -15 -25t-11 -42q0 -24 9.5 -41.5t16.5 -25.5q30 -38 68 -45.5t80 -11.5 l904 -32q47 -4 79.5 -10.5t58 -13.5t46 -18t40.5 -26q28 -21 54 -51t46 -73.5t32 -104.5t12 -144q0 -128 -20 -198t-57 -119q-14 -19 -28 -34t-33 -30q-53 -38 -119 -54.5t-137 -26.5q-140 -8 -276.5 -13.5t-276.5 -5.5q-151 0 -300.5 7.5t-302.5 15.5q-39 6 -77.5 13 t-76.5 19.5t-72 33t-62 50.5q-33 34 -49.5 81t-23.5 98t-8.5 100.5t-1.5 92.5z" />
<glyph unicode="T" horiz-adv-x="2022" d="M94 1154v350h1814v-348h-677v-1156h-473v1154h-664z" />
<glyph unicode="U" horiz-adv-x="2236" d="M145 473v1031h462v-878q2 -49 7.5 -100t35.5 -93q38 -55 114 -69q64 -12 167 -12h475q75 10 109 21t56 32q37 36 48 89t15 102v908h464v-998q-2 -28 -4.5 -54t-6.5 -54q-4 -24 -12.5 -62t-28.5 -83.5t-56.5 -92.5t-95.5 -83q-83 -51 -167.5 -66t-177.5 -23 q-109 -3 -213.5 -5t-213.5 -2q-124 0 -246 4.5t-246 10.5q-24 4 -45.5 6t-45.5 6q-96 17 -179 58.5t-138 129.5q-43 68 -56 135t-21 142z" />
<glyph unicode="V" horiz-adv-x="2453" d="M77 1504h502l614 -1157l630 1157h516l-848 -1504h-611z" />
<glyph unicode="W" horiz-adv-x="3303" d="M51 1504h473q66 -171 130 -340.5t132 -338.5q45 -114 90.5 -225.5t90.5 -225.5l385 1130h569l369 -1130l451 1130h482q-17 -32 -32 -63t-30 -63q-24 -49 -45 -97t-43 -96q-55 -133 -107 -264t-106 -265q-69 -166 -137.5 -329t-141.5 -327h-613l-336 1071l-354 -1071h-616 z" />
<glyph unicode="X" horiz-adv-x="2453" d="M66 0l773 762l-707 742h605l488 -526l474 526h626l-721 -748l760 -756h-637l-504 543l-516 -543h-641z" />
<glyph unicode="Y" horiz-adv-x="2340" d="M81 1504h581l505 -614l507 614h600l-868 -978v-526h-471v526z" />
<glyph unicode="Z" horiz-adv-x="2129" d="M140 0l2 356q128 89 255 178.5t255 183.5q98 70 194.5 141.5t199.5 139.5q69 47 137.5 91t139.5 85l-1146 -10v339h1797v-343q-128 -90 -253.5 -177.5t-253.5 -176.5q-127 -91 -250.5 -183t-251.5 -179l-148 -96l1175 13v-362h-1852z" />
<glyph unicode="[" horiz-adv-x="746" d="M89 0v1504h586v-288h-189v-911h189v-305h-586z" />
<glyph unicode="\" horiz-adv-x="853" d="M47 1504h272l486 -1542h-273z" />
<glyph unicode="]" horiz-adv-x="740" d="M63 0v301h193v917h-190v286h584v-1504h-587z" />
<glyph unicode="^" horiz-adv-x="1120" d="M19 662l432 842h222l413 -842h-294l-234 492l-247 -492h-292z" />
<glyph unicode="_" horiz-adv-x="1277" d="M85 -240h1108v-272h-1108v272z" />
<glyph unicode="`" horiz-adv-x="666" d="M-211 1252l81 254l520 -209l-45 -149z" />
<glyph unicode="a" horiz-adv-x="1597" d="M92 311q0 75 11.5 127t30.5 88.5t45 57.5t53 36q77 38 164.5 45.5t164.5 7.5h244q41 2 71 2h29q38 -2 72.5 -11.5t68.5 -28.5t80 -54v86q-2 30 -6 56.5t-14 49.5q-19 34 -64.5 46t-123.5 12h-268q-30 0 -48.5 -3t-31 -11t-22 -23.5t-18.5 -43.5l-392 2q4 36 7.5 65 t14.5 61q17 44 72 96t164 78q62 15 151 20t231 10h224q23 0 47 -1t48 -1q145 -9 225 -38.5t127 -82.5q55 -61 66.5 -131t11.5 -149v-679h-389l12 207q-16 -36 -31.5 -70.5t-43.5 -61.5q-42 -43 -133.5 -71t-230.5 -28q-59 0 -119 3.5t-121 5.5q-69 3 -136 14t-128 50 q-24 14 -44.5 33.5t-36.5 50.5t-25 74t-9 104zM484 349q0 -28 10 -47t18 -25q28 -37 71 -43t122 -6h134q83 4 145 10.5t93 23.5q7 4 29 24.5t22 56.5q-2 9 -6 26t-21 38q-32 38 -77.5 43.5t-129.5 7.5h-108q-38 -5 -76.5 -6t-81.5 -5q-40 -2 -75 -8t-57 -43q-4 -6 -8 -18 t-4 -29z" />
<glyph unicode="b" horiz-adv-x="1597" d="M55 0v1504h403l2 -601q24 30 45 54.5t44.5 43.5t51 32t64.5 24q38 10 114.5 16.5t177.5 6.5q28 0 109.5 -4.5t177.5 -23.5q12 -2 37.5 -8.5t56 -18t62 -30.5t57.5 -48q43 -46 72.5 -134.5t29.5 -231.5q0 -36 -1 -69t-3 -69q-2 -53 -6.5 -102t-16.5 -92.5t-35 -84 t-66 -75.5q-32 -28 -60.5 -42.5t-41.5 -18.5q-79 -36 -162 -39.5t-165 -5.5q-43 0 -88 -1t-87 -1h-41q-36 0 -85 7.5t-102.5 24.5t-89.5 53q-17 18 -31 41t-27 46v-153h-396zM453 464q3 -11 11.5 -51.5t25.5 -67.5q28 -42 82 -55t150 -18h200q9 0 53.5 4.5t85.5 21.5 q34 15 51.5 37.5t27.5 50t13 62t3 72.5v55q0 39 -4 70.5t-30 61.5q-21 28 -53 42.5t-68 22.5t-72.5 10t-66.5 2h-140q-96 -4 -152 -18t-82 -55q-11 -16 -17.5 -38.5t-9.5 -45t-5.5 -39.5t-2.5 -21v-103z" />
<glyph unicode="c" horiz-adv-x="1594" d="M66 543q0 6 2.5 59.5t17 123t46.5 140.5t92 116q81 59 238.5 80.5t376.5 21.5q75 0 148.5 -3.5t150.5 -11.5q115 -12 205 -47.5t146 -137.5q33 -61 38 -120t5 -125h-398q-5 23 -8.5 40.5t-19.5 33.5q-11 13 -25 23t-29 16q-30 10 -87.5 19t-135.5 9q-39 0 -77.5 -2.5 t-78.5 -6.5q-49 -5 -75.5 -12t-44.5 -17q-32 -19 -48.5 -52.5t-24 -68.5t-8.5 -63t-1 -36q0 -85 26.5 -136t58.5 -69q31 -19 93 -25.5t146 -6.5q40 0 78.5 1t81.5 4q6 0 22.5 1t39 5.5t46 14.5t43.5 30q18 21 25 41t11 51l400 -2q-4 -58 -8.5 -101t-11 -74.5t-16.5 -56 t-26 -46.5q-24 -37 -77 -77t-153 -64q-49 -10 -158.5 -21.5t-250.5 -11.5q-46 0 -91 1t-90 3q-152 9 -246.5 27t-155.5 51q-36 21 -63 47t-44 50.5t-27.5 46t-15.5 33.5q-16 43 -29 120t-13 185z" />
<glyph unicode="d" horiz-adv-x="1597" d="M49 458q0 48 2 95.5t4 96.5q0 8 1 30.5t3 51t9 60t17 60.5q9 21 27 51t61 66q44 37 91 58t97 32.5t102.5 16t103.5 6.5q32 2 63.5 3t64.5 1q8 0 47.5 -1t93.5 -8.5t113 -24.5t106 -50q30 -21 50.5 -47t44.5 -56v605h396v-1504h-385v198q-19 -37 -41.5 -71.5t-50.5 -60.5 q-47 -43 -133 -66.5t-227 -23.5q-55 0 -111.5 3.5t-118.5 8.5q-10 0 -40 2t-67 7t-77.5 17t-75.5 33q-65 38 -99.5 103t-50.5 130t-18 116t-2 62zM449 477q0 -24 6.5 -53.5t20.5 -60.5t42 -50q4 -4 14.5 -9.5t23.5 -9.5q37 -10 82 -13.5t120 -8.5h77q81 3 135 7t91 22 q36 14 55.5 43.5t27.5 60t9 56t1 31.5v53q-2 55 -8 106.5t-43 83.5q-40 37 -104 43t-113 8h-221q-9 0 -35.5 -1t-56.5 -10q-81 -24 -100.5 -78t-23.5 -134v-86z" />
<glyph unicode="e" horiz-adv-x="1594" d="M75 549q0 21 1 40.5t1 40.5q8 141 52 221t93 118q50 41 123.5 63.5t153.5 32.5t157 13.5t136 3.5q75 0 151.5 -3.5t153.5 -13.5q110 -15 167 -40.5t99 -65.5q13 -11 38.5 -41t45.5 -72q16 -37 24.5 -74t12.5 -84q2 -34 3 -76v-29q-2 -57 -3 -134h-1005q-2 -21 -2 -40 q0 -9 2 -17q0 -28 6.5 -51.5t21.5 -42.5t42 -36q61 -36 128 -36h237q53 0 102 16q43 15 55 33q9 10 15.5 24t10.5 44l387 -2v-36q0 -17 -4 -35q-4 -30 -18.5 -76.5t-73.5 -97.5q-44 -41 -97 -63.5t-112 -32.5t-119.5 -13.5t-122.5 -3.5h-232q-30 2 -62 2q-30 0 -60 5 q-44 2 -93 9t-97 20t-91.5 33.5t-82.5 49.5q-16 12 -38.5 37t-46.5 70q-32 59 -45.5 133.5t-13.5 206.5zM479 660l620 2q-4 58 -14 84.5t-26 43.5q-28 24 -94 34.5t-150 10.5q-42 0 -84.5 -2t-84.5 -6q-41 -4 -75 -14t-62 -40q-26 -28 -27 -51q-3 -15 -3 -34v-28z" />
<glyph unicode="f" horiz-adv-x="1168" d="M94 790v269h209v95q2 19 3 38.5t3 36.5q4 30 18 85.5t69 112.5q30 32 67 52.5t87.5 33t114 18t146.5 7.5h220v-262h-100q-73 -4 -116.5 -14t-70.5 -33q-31 -26 -37 -71.5t-6 -96.5h351v-269h-353v-792h-398v790h-207z" />
<glyph unicode="g" horiz-adv-x="1807" d="M102 553q0 19 2 70.5t9 106.5q7 39 18 86.5t42.5 94t86.5 85.5t147 63q42 10 130.5 22t204.5 12q28 0 97.5 -3.5t156.5 -18.5q47 -8 94.5 -23t78.5 -42q24 -19 43 -50t48 -94v203h401v-1022q0 -31 -1 -62.5t-3 -61.5q-7 -96 -33.5 -173.5t-100.5 -139.5 q-82 -69 -216 -101.5t-350 -32.5q-55 0 -110 1t-110 1q-63 0 -125.5 2t-121.5 13t-115 33t-105 65q-16 13 -44 43.5t-49 79.5q-11 24 -16 49.5t-7.5 49t-3.5 40.5t-1 23h412q12 -38 27 -60.5t51 -35.5q32 -10 84 -15.5t123 -5.5h89q45 0 91 5q7 0 31.5 3t55.5 13.5 t61.5 29.5t50.5 54q11 18 15 35.5t4 25.5q2 21 4 60.5t2 81.5q0 43 -1 80.5t-1 57.5q-12 -37 -26.5 -64t-31.5 -46.5t-41.5 -34.5t-62.5 -30q-90 -36 -185.5 -40.5t-191.5 -4.5q-57 0 -114.5 2t-113 11.5t-110 28t-105.5 52.5q-10 8 -37.5 29.5t-51.5 53.5q-43 59 -59 148.5 t-16 246.5zM514 500q6 -49 15.5 -92.5t39.5 -72.5q19 -17 48 -27t58.5 -15.5t59 -7.5t53.5 -2h137q34 2 66.5 3t69.5 6q47 4 85.5 14.5t63.5 49.5q28 38 32 74.5t4 78.5v117q-4 30 -17 57q-10 17 -33 43t-70 38q-30 9 -96.5 11.5t-145.5 6.5h-53q-81 0 -138 -5.5t-90 -20.5 q-36 -17 -55.5 -46t-26.5 -57.5t-7 -51.5v-101z" />
<glyph unicode="h" horiz-adv-x="1699" d="M115 2v1502h399v-626q30 57 56 92.5t84 62.5q32 14 67 24t78.5 16.5t99.5 8.5t125 2q21 0 41.5 -1t42.5 -3q16 0 52.5 -4.5t83.5 -16t98 -33.5t99 -63q17 -15 44 -42t49 -71q28 -55 34 -119t11 -130v-601h-399v573q0 30 -9.5 66t-33 69.5t-68.5 49.5q-43 15 -103.5 16 t-105.5 1q-175 0 -242 -33q-15 -11 -30 -23t-25 -24q-35 -43 -41 -97.5t-8 -109.5v-486h-399z" />
<glyph unicode="i" horiz-adv-x="638" d="M134 0v1065h394v-1065h-394zM136 1212v292h394v-292h-394z" />
<glyph unicode="j" horiz-adv-x="746" d="M57 -374l2 259q33 -3 56 -3q29 0 45 5q32 6 51 32q4 4 11.5 16t11.5 29q4 24 4 42v1059h401v-1148q-5 -69 -17.5 -119t-68.5 -96q-42 -37 -111.5 -62.5t-189.5 -25.5q-49 0 -97.5 3t-97.5 9zM245 1216v294h398v-294h-398z" />
<glyph unicode="k" horiz-adv-x="1597" d="M118 0v1504h394v-791h82l388 352h543q-37 -26 -69.5 -50.5t-67.5 -51.5q-53 -45 -104 -90.5t-102 -92.5q-59 -55 -118.5 -107.5t-120.5 -107.5q35 -26 60.5 -44.5t51 -39.5t59.5 -52t85 -80l90 -83q74 -68 150.5 -134t155.5 -132h-545l-430 431h-108v-431h-394z" />
<glyph unicode="l" horiz-adv-x="638" d="M115 0v1504h391v-1504h-391z" />
<glyph unicode="m" horiz-adv-x="2555" d="M100 0v1065h390v-166q36 48 71 85.5t91 59.5q39 15 88.5 22t95.5 10.5t78 5.5h31q116 0 190.5 -16t127 -44t88 -66t74.5 -80q24 42 38.5 63.5t32.5 38.5q50 48 155 77t264 29q18 0 74 -3.5t115 -17.5q96 -24 178 -79t122 -143q11 -24 18.5 -48t13 -54t8.5 -69.5t7 -92.5 v-577h-394v558q0 17 -2 37.5t-6 43.5t-13 40q-20 47 -79 70.5t-170 23.5q-57 0 -121 -5.5t-113 -43.5q-49 -37 -60 -90t-15 -114v-520h-401v571q-6 79 -17.5 113t-39.5 53q-18 13 -47.5 20t-59 11.5t-59 5.5t-49.5 1q-126 0 -192 -25.5t-95 -78.5q-17 -30 -21.5 -60 t-6.5 -62v-549h-390z" />
<glyph unicode="n" horiz-adv-x="1599" d="M79 -8v1065h390v-188q13 24 29 49q11 17 34.5 44.5t70.5 51.5q35 19 71.5 31t83.5 18t107 9t137 3q18 0 58.5 -1t93.5 -10t114 -30.5t116 -64.5q30 -24 55.5 -52.5t42.5 -60.5q21 -43 32 -94t18 -150v-620h-394v575q0 34 -8 61q-10 41 -30 64.5t-42.5 36.5t-43 17 t-32.5 6q-11 2 -42 4t-66 4t-65.5 3t-39.5 1q-33 0 -54.5 -3t-35.5 -5q-10 -2 -34.5 -9.5t-53 -22.5t-57 -39.5t-42.5 -58.5q-13 -30 -17 -65t-4 -105v-464h-392z" />
<glyph unicode="o" horiz-adv-x="1701" d="M106 479q1 105 7 214q7 83 25 149.5t79 120.5q64 55 136.5 73.5t148.5 28.5q94 6 185 11.5t185 5.5q89 0 178.5 -4.5t178.5 -8.5q90 -14 169.5 -37.5t135.5 -90.5q51 -59 65.5 -127t18.5 -141q2 -30 3.5 -56.5t1.5 -55.5q0 -51 -3.5 -102.5t-7.5 -104.5 q-4 -45 -13.5 -87.5t-29.5 -79.5q-14 -30 -33.5 -52t-29.5 -31q-55 -49 -118 -69t-132 -35q-91 -6 -181.5 -12.5t-180.5 -6.5q-97 0 -189 7q-47 2 -92.5 3t-92.5 5q-19 4 -39.5 6t-41.5 6q-64 13 -127.5 41t-108.5 77q-35 36 -53 79t-27.5 88.5t-13 92.5t-3.5 93zM502 520 q0 -43 3.5 -83.5t29.5 -80.5q4 -4 13.5 -17t26.5 -24q28 -17 60 -21t98 -9l76 -6q34 -2 68.5 -3t67.5 -1q13 0 65.5 3t105.5 20q43 15 60 33t25 33q15 32 17.5 70.5t6.5 77.5q2 16 3 34.5t1 34.5q0 17 -4 50.5t-32 75.5q-24 32 -48.5 48t-52 22.5t-59.5 6.5q-33 0 -68 2 q-69 6 -130 6q-32 0 -60.5 -1t-89.5 -9q-46 -6 -81 -17t-63 -49q-30 -45 -34.5 -95t-4.5 -101z" />
<glyph unicode="p" d="M110 -473v1538h399v-177q6 11 22 36.5t40 53.5q41 48 88.5 67.5t113.5 27.5q26 4 87.5 8.5t131.5 4.5q69 0 139 -5.5t139 -17.5q98 -19 154 -48t86 -58q10 -11 27.5 -30.5t33.5 -50.5q24 -49 34.5 -128t10.5 -201q0 -49 -1 -98t-5 -100q0 -8 -2 -28t-7.5 -45.5t-14.5 -54 t-25 -53.5q-15 -26 -32 -43l-25 -25q-45 -39 -96 -61t-104.5 -33.5t-109.5 -16t-110 -6.5q-30 0 -56 -1t-57 -1q-42 0 -89 3.5t-95 11.5t-92.5 23t-80.5 40q-31 21 -52 45t-44 52v-629h-408zM512 526q0 -65 12 -113q17 -59 47 -87q15 -15 31 -22.5t39 -11.5q32 -8 95 -14 t144 -6q96 0 166 13t106 38q28 19 46 59t18 108q0 19 -1 39t-1 42q-2 55 -7.5 82.5t-17.5 51.5q-24 41 -87 64t-165 23h-49q-24 0 -47 -2h-57q-28 0 -58 -4q-36 -2 -74 -8.5t-69 -25.5q-28 -19 -47.5 -62.5t-23.5 -128.5v-35z" />
<glyph unicode="q" d="M87 502q0 134 8.5 223.5t34.5 146.5q6 14 22 39.5t51 55.5q71 62 149.5 79t163.5 27l311 13q16 -2 33.5 -3t33.5 -3q13 0 43 -4.5t68.5 -15t77.5 -33.5t69 -62q11 -14 22 -33.5t27 -55.5v189h382v-1538h-401v644q-4 -9 -28 -43t-53 -57q-34 -30 -81 -47.5t-97.5 -28 t-101 -13.5t-91.5 -3q-38 0 -80.5 2t-78.5 5.5t-62.5 6.5t-35.5 3q-134 16 -211 59t-111 96q-35 49 -49.5 134t-14.5 217zM486 532q0 -57 4 -98.5t21 -71.5t51 -48t94 -27q19 -4 50 -6t64 -4t63.5 -3.5t48.5 -1.5q26 0 63 2.5t76.5 11t73 21t53.5 36.5q15 17 21 38t11 45 q0 2 1 18t3.5 39t3.5 49t1 45q0 75 -25.5 118.5t-53.5 62.5q-17 11 -38.5 17.5t-40.5 10.5q-7 0 -29 2t-51 4.5t-63 3.5t-61 1q-41 0 -80.5 -3.5t-79.5 -7.5q-49 -6 -83.5 -17t-61.5 -49q-30 -43 -34 -90q-2 -32 -2 -63v-35z" />
<glyph unicode="r" horiz-adv-x="1384" d="M92 0v1065h379v-222q24 56 48 97.5t77 77.5q51 32 123.5 47t200.5 15q15 0 47 -1.5t71 -9.5t84 -27.5t85 -55.5q51 -45 71 -102q19 -47 23 -115t6 -177h-366q-6 68 -21 109t-79 59q-10 4 -39 11t-63 7q-72 0 -120 -25t-68 -42q-30 -26 -42.5 -59.5t-20.5 -108.5v-543 h-396z" />
<glyph unicode="s" d="M113 349l415 -2q2 -12 4.5 -25t6.5 -24q14 -30 45.5 -43t39.5 -15q10 -2 37 -5t62 -5t75.5 -3t81.5 -1h138q24 0 46 2t46 12q28 11 49 34.5t21 46.5q0 11 -10.5 31t-39.5 34q-20 8 -64 12t-91.5 5.5t-90.5 1.5h-61q-69 2 -139 3t-141 5q-81 2 -158.5 15t-146.5 62 q-55 38 -80 93q-10 19 -19 52.5t-9 88.5q0 8 2 44.5t10 72.5q5 24 15.5 52.5t32 57.5t57.5 55.5t94 43.5q28 9 57.5 14t64.5 8t80 4t105 4q49 2 99 3t99 1q148 0 243.5 -4.5t160.5 -14.5q94 -17 141.5 -40t78.5 -54q48 -49 58 -101.5t12 -115.5l-410 2q-8 28 -17.5 41.5 t-39.5 25.5q-21 6 -56 8t-84 6q-28 2 -54.5 3t-53.5 1q-30 0 -61 -1t-61 -1h-51q-14 0 -34 -6q-26 -10 -49.5 -32.5t-23.5 -46.5q0 -15 10 -25.5t20.5 -18t20 -11.5t11.5 -4q17 -4 53.5 -8t84 -5t103 -2t111.5 -3q49 -2 93 -2q47 0 96 -2q90 -2 172 -10.5t156 -61.5 q30 -21 50 -45t35 -54q10 -20 19 -54.5t9 -89.5q0 -11 -1 -35.5t-5 -56.5t-15 -68t-30 -66q-32 -53 -109 -93.5t-213 -50.5q-62 -5 -121.5 -6t-121.5 -1q-168 0 -337 7h-38q-26 0 -62 2t-77.5 6t-78.5 12q-75 17 -136 50.5t-97 105.5q-24 47 -28 90.5t-6 94.5z" />
<glyph unicode="t" horiz-adv-x="1490" d="M87 784v281h200v240h396v-240h648v-275h-648v-390q0 -36 6 -52t18 -33q19 -24 57.5 -38.5t102.5 -14.5t101.5 22.5t49.5 45.5q8 16 10.5 31t2.5 35q0 19 -2.5 41.5t-2.5 26.5h356v-59q0 -31 -2 -60q-2 -18 -6 -54.5t-19 -78t-46 -85.5t-84 -76q-36 -24 -82 -37.5t-95 -22 t-97 -10.5t-89 -2q-38 0 -75 1t-76 3q-46 2 -91 6.5t-88.5 15t-82 29.5t-73.5 53q-36 37 -51.5 70.5t-19.5 51.5q-7 19 -9 40t-4 40.5t-2 31.5v463h-203z" />
<glyph unicode="u" d="M122 422v643h394v-586q0 -14 3 -33.5t9.5 -40.5t20.5 -41q24 -32 54.5 -45.5t67.5 -20.5q16 -2 73 -5t112 -3q57 0 126.5 8.5t118.5 44.5q28 21 47 53q24 39 27 79.5t5 52.5v537h394v-1065h-392v185q-30 -53 -56.5 -87.5t-84.5 -61.5q-41 -20 -85 -31t-91.5 -16.5 t-93.5 -5.5h-145q-45 0 -105.5 7.5t-127.5 25.5t-118 55q-43 30 -67.5 63.5t-32.5 48.5q-28 53 -37.5 115t-15.5 124z" />
<glyph unicode="v" d="M61 1065h443l342 -760l334 760h452l-531 -1065h-520z" />
<glyph unicode="w" horiz-adv-x="2449" d="M69 1065h415l242 -775l290 775h370l288 -767l251 767h418l-400 -1065h-529l-213 630l-209 -630h-525z" />
<glyph unicode="x" horiz-adv-x="1594" d="M36 0l464 558l-427 507h498l207 -292l218 292h497l-432 -496l477 -569h-494l-262 362l-270 -362h-476z" />
<glyph unicode="y" horiz-adv-x="1599" d="M47 1065h428l307 -775l340 775h427l-41 -81l-579 -1250q-24 -47 -40.5 -71.5t-34.5 -42.5q-41 -40 -120.5 -69.5t-207.5 -29.5q-44 0 -90 2t-91 6v273h62q32 0 64 2q59 5 82.5 17.5t40.5 33.5q16 21 36 57.5t43 87.5h-151z" />
<glyph unicode="z" horiz-adv-x="1490" d="M87 0v281l716 514h-667v270h1232v-313l-675 -475h697v-277h-1303z" />
<glyph unicode="{" horiz-adv-x="853" d="M81 524v15q28 6 42.5 14t25.5 14q38 26 58.5 64t29 80.5t10 87t1.5 83.5v376q4 98 35.5 176t127.5 121q34 14 67.5 22t73.5 11t91.5 4t118.5 1v-16q-34 -7 -74 -20q-12 -4 -33 -12.5t-42 -25.5t-39 -43.5t-29 -65.5q-10 -36 -11.5 -76.5t-3.5 -115.5v-202q0 -75 -1 -131 t-5 -101t-15 -81t-32 -69q-32 -46 -74.5 -67.5t-95.5 -36.5q47 -12 84 -30t71 -57q28 -30 42 -64t20 -77.5t7 -100t1 -132.5v-229q0 -64 3.5 -128t39.5 -121q37 -55 82.5 -73t104.5 -36v-14h-97q-82 2 -164 11t-149 63q-41 33 -62.5 73t-30.5 85.5t-10 94.5t-1 95v268 q0 39 2 76v14q0 30 -5 59q-4 36 -15 70t-34 66q-7 10 -21.5 26.5t-40.5 30.5q-16 11 -31.5 16.5t-21.5 7.5z" />
<glyph unicode="|" horiz-adv-x="534" d="M142 -532v2125h271v-2125h-271z" />
<glyph unicode="}" horiz-adv-x="855" d="M83 -518q57 13 104 31t83 70q17 26 27 49t13 52t4 67t1 91v333q0 57 5.5 101.5t17 81t34.5 68.5q33 47 74.5 68.5t92.5 33.5q-47 13 -84.5 32t-68.5 56q-28 32 -43 66t-21.5 77.5t-7.5 100t-1 130.5v231q0 65 -4 133.5t-45 125.5q-36 49 -81 65t-100 32v16q24 0 48.5 -1 t49.5 -1q81 0 163 -11t150 -62q41 -32 62 -73t30.5 -87t10.5 -94t1 -93v-342q-2 -8 -2 -16q0 -30 5 -59q4 -36 14.5 -71t34.5 -67q6 -11 20.5 -26t40.5 -32q17 -10 32 -14.5t21 -6.5v-17q-38 -6 -67 -28q-39 -26 -59 -63t-28.5 -80.5t-10 -88.5t-1.5 -83v-373 q-2 -48 -10.5 -94.5t-27.5 -84.5t-51 -70t-81 -53q-32 -13 -64 -20.5t-72 -10.5t-91 -3h-118v14z" />
<glyph unicode="~" horiz-adv-x="1277" d="M77 641q12 16 37.5 50.5t66.5 67.5t97.5 57.5t130.5 24.5q61 0 112.5 -19t106.5 -47l77 -33q2 -3 19.5 -10.5t40.5 -16t49.5 -14.5t52.5 -6q45 0 98 28.5t115 101.5l111 -224q-15 -17 -36 -37.5t-60 -49.5q-79 -55 -135.5 -72.5t-101.5 -17.5q-61 0 -114 20t-108 46 l-65 32q-39 17 -76 33t-80 16q-21 -2 -40 -5t-38 -13q-34 -16 -64.5 -47t-79.5 -87z" />
<glyph unicode="&#xa1;" horiz-adv-x="642" d="M113 1091v413h450v-413h-450zM120 0l18 894h407l18 -894h-443z" />
<glyph unicode="&#xa2;" horiz-adv-x="1656" d="M90 543q0 6 2.5 59.5t17 123t46.5 140.5t92 116q81 59 238.5 80.5t376.5 21.5q75 0 148.5 -3.5t150.5 -11.5q115 -12 205 -47.5t146 -137.5q33 -61 38 -120t5 -125h-398q-5 23 -8.5 40.5t-19.5 33.5q-11 13 -25 23t-29 16q-30 10 -87.5 19t-135.5 9q-39 0 -77.5 -2.5 t-78.5 -6.5q-49 -5 -75.5 -12t-44.5 -17q-32 -19 -48.5 -52.5t-24 -68.5t-8.5 -63t-1 -36q0 -85 26.5 -136t58.5 -69q31 -19 93 -25.5t146 -6.5q40 0 78.5 1t81.5 4q6 0 22.5 1t39 5.5t46 14.5t43.5 30q18 21 25 41t11 51l400 -2q-4 -58 -8.5 -101t-11 -74.5t-16.5 -56 t-26 -46.5q-24 -37 -77 -77t-153 -64q-49 -10 -158.5 -21.5t-250.5 -11.5q-46 0 -91 1t-90 3q-152 9 -246.5 27t-155.5 51q-36 21 -63 47t-44 50.5t-27.5 46t-15.5 33.5q-16 43 -29 120t-13 185zM277 -207l678 1504h262l-680 -1504h-260z" />
<glyph unicode="&#xa3;" horiz-adv-x="2233" d="M128 575v258h228q2 158 8 263t28 170q15 46 39.5 80t49.5 56.5t50 36.5t42 20q55 24 121 36.5t135.5 17.5t135.5 6t119 1h351q75 -2 153 -5t152 -13q69 -11 116.5 -28t80.5 -37.5t54 -45.5t37 -54q45 -81 51 -164q2 -47 2 -93q0 -39 -2 -76h-435q-2 34 -6 62.5t-26 57.5 q-28 37 -62 45.5l-50 12.5q-39 5 -75.5 6t-72.5 5h-255q-98 -4 -163 -17t-97 -50q-6 -10 -15 -28t-13 -50q-4 -30 -5 -87.5t-1 -125.5h638v-260l-626 -2q-4 -32 -11 -63t-20 -57q-10 -20 -22 -36.5t-33.5 -31.5t-53.5 -27.5t-81 -27.5h1506v-330h-1909l2 341q17 0 53.5 5.5 t70.5 41.5q35 36 40 85t7 102h-236z" />
<glyph unicode="&#xa4;" horiz-adv-x="1605" d="M106 228l175 174q-11 15 -20 30t-19 32q-38 79 -45.5 153t-7.5 103q0 128 32.5 205t57.5 119l-171 170l203 202l171 -170q14 10 28 18t29 16q34 17 101 37t165 20q124 0 200.5 -32.5t118.5 -58.5l173 173l205 -205l-173 -170q8 -14 15.5 -27t16.5 -31q41 -83 49.5 -156.5 t8.5 -109.5q0 -62 -9.5 -112t-23.5 -89.5t-30 -69.5t-29 -51l173 -174l-205 -203l-173 175q-21 -13 -49.5 -28t-68 -28.5t-90 -23.5t-111.5 -10q-124 0 -202.5 34.5t-118.5 60.5l-173 -175zM456 722q0 -19 3 -56.5t23 -82.5q42 -99 131.5 -156t193.5 -57q55 0 91.5 12 t58.5 23q93 44 144 129.5t51 189.5q0 20 -4 60.5t-28 89.5q-43 93 -129 147t-188 54q-17 0 -46 -3t-69 -17q-110 -39 -171 -128.5t-61 -204.5z" />
<glyph unicode="&#xa5;" horiz-adv-x="2132" d="M120 1504h494l429 -614l431 614h510l-738 -978v-526h-400v526zM453 49v272h1108v-272h-1108zM453 419v272h1108v-272h-1108z" />
<glyph unicode="&#xa6;" horiz-adv-x="425" d="M73 405h270v-812h-270v812zM73 656v811h270v-811h-270z" />
<glyph unicode="&#xa7;" horiz-adv-x="1288" d="M102 748q0 10 3 39.5t15 60.5q18 55 56.5 83t89.5 57q-21 24 -30.5 36.5t-18.5 25.5q-12 21 -20 52.5t-11 59t-4 47.5t-1 24q0 58 14 101.5t33.5 75t42.5 52t42 31.5q34 17 70 21t75 9q89 6 181 6q44 0 89 -2t92 -7q55 -4 103 -12t97 -43q32 -24 49 -53.5t27 -63t13 -72 t5 -79.5h-313q-4 26 -10.5 49.5t-24.5 37.5q-18 17 -50.5 20t-83.5 6h-83q-17 -2 -31 -5.5t-24 -20.5q-2 -4 -5 -9t-3 -17q2 -16 23 -26.5t47 -19.5l428 -126q75 -26 123.5 -56.5t72.5 -107.5q7 -23 11 -54t4 -57q0 -6 -2 -32.5t-8 -52.5q-17 -69 -58 -101.5t-101 -68.5 q29 -24 50 -43t33.5 -40.5t19.5 -48t7 -64.5q0 -110 -22.5 -170t-54.5 -103q-11 -10 -33 -32.5t-57 -39.5q-36 -17 -73.5 -22t-78.5 -10q-59 -2 -118 -2q-57 0 -116 4q-38 3 -75 6t-75 7q-35 4 -63.5 10.5t-60.5 21.5q-51 21 -79.5 53t-43.5 71t-18.5 86t-5.5 103h300 q2 -36 8.5 -58.5t41.5 -36.5q40 -17 80 -18.5t83 -5.5q15 -2 29 -3.5t29 -1.5q11 0 29 3.5t35 29.5q4 4 8 13.5t4 21.5q0 15 -13.5 23.5t-53.5 17.5l-397 111q-40 12 -73.5 26t-61 33.5t-49 46t-35.5 67.5q-4 16 -14 51.5t-10 84.5zM364 829q0 -34 27.5 -51.5t64.5 -31.5 l396 -118q26 17 37.5 29t19.5 26q2 4 5.5 15t3.5 22q0 28 -28 45t-59 32l-412 121q-21 -16 -38 -37t-17 -52z" />
<glyph unicode="&#xa8;" horiz-adv-x="666" d="M-292 1154v230h311v-230h-311zM160 1156v230h317v-230h-317z" />
<glyph unicode="&#xa9;" horiz-adv-x="1805" d="M173 754q0 94 18 172t44.5 138t56 104t53.5 72q30 34 80 81t122.5 88.5t168 71t217.5 29.5q181 0 339.5 -77.5t269.5 -227.5q75 -102 113 -217q34 -108 34 -228v-12q0 -35 -5 -89t-24.5 -119t-56 -137.5t-95.5 -142.5q-75 -89 -160 -143t-163.5 -80.5t-146 -34.5 t-107.5 -8q-128 0 -246 40.5t-218 114.5q-36 28 -87.5 79t-97.5 125.5t-77.5 174.5t-31.5 226zM240 752q0 -138 52 -262q39 -98 104.5 -177t149.5 -135t182.5 -86.5t204.5 -30.5q32 0 92.5 7t139.5 34q104 36 188 101t143 150.5t92 186.5t33 210q0 28 -3.5 72.5t-17 100 t-40 117t-73.5 125.5q-26 34 -71.5 82t-114 90.5t-160 73t-208.5 30.5q-28 0 -72 -3t-98 -16.5t-115.5 -40t-123.5 -71.5q-34 -26 -83 -71.5t-93.5 -114.5t-76 -162t-31.5 -210zM415 754q0 83 16 142t29 88q16 40 51.5 92t94.5 99.5t143 79t198 31.5q88 0 155 -19 t117.5 -46.5t85.5 -59t58 -55.5l-185 -179q-12 12 -33 30.5t-49.5 34.5t-67 27.5t-85.5 11.5q-14 0 -51.5 -4.5t-76.5 -20.5q-70 -37 -104 -106t-34 -146q2 -126 75 -200.5t198 -74.5q93 3 147.5 37.5t80.5 60.5l185 -172q-87 -94 -187.5 -136.5t-228.5 -42.5q-30 0 -93.5 6 t-137.5 36q-75 33 -131.5 82.5t-94 113.5t-56.5 137.5t-19 152.5z" />
<glyph unicode="&#xaa;" horiz-adv-x="683" d="M6 1597q0 41 5.5 70.5t14 50t21 32.5t26.5 20q34 21 74 25.5t77 4.5h160q16 0 32.5 -5.5t32 -16t37.5 -30.5v47q0 17 -2 32.5t-9 27.5q-8 19 -28.5 26t-56.5 7h-126q-12 0 -21 -3t-15 -7t-10.5 -12.5t-8.5 -22.5h-181q2 21 3 37t7 33q9 26 34.5 54.5t74.5 42.5 q30 9 71.5 12.5t104.5 5.5h105q11 0 21.5 -1t21.5 -1q69 -4 106 -20t57 -47q26 -36 31.5 -74t5.5 -83v-379h-181l6 115q-8 -19 -14.5 -38.5t-19.5 -34.5q-19 -24 -61.5 -39.5t-106.5 -15.5q-28 0 -55.5 2t-57.5 2q-30 2 -62 8.5t-60 28.5q-10 8 -19.5 18.5t-17 27.5 t-12 41.5t-4.5 58.5zM187 1618q0 -14 5.5 -25.5t8.5 -13.5q12 -21 32.5 -24.5t56.5 -3.5h62q40 2 67.5 5t42.5 13q4 2 14 14t10 31q0 4 -2 14t-11 22q-14 21 -35 25t-58 4h-52q-17 -3 -34 -3q-18 0 -38 -4q-19 0 -35 -3t-28 -25q-2 -4 -4 -10t-2 -16z" />
<glyph unicode="&#xab;" horiz-adv-x="1405" d="M32 551l334 583l313 -177l-240 -408l230 -396l-301 -168zM707 553l343 585l309 -175l-241 -412l228 -398l-307 -170z" />
<glyph unicode="&#xac;" horiz-adv-x="1594" d="M85 484v270h1421v-754h-273v484h-1148z" />
<glyph unicode="&#xad;" horiz-adv-x="1075" d="M4 402v393h1059v-393h-1059z" />
<glyph unicode="&#xae;" horiz-adv-x="1807" d="M151 754q0 94 18 172t44.5 138t57 104t52.5 72q31 34 80.5 81t122 88.5t168.5 71t218 29.5q181 0 339.5 -77.5t268.5 -227.5q75 -102 114 -217q34 -108 34 -228v-12q0 -35 -5.5 -89t-25 -119t-55.5 -137.5t-95 -142.5q-75 -89 -160 -143t-164 -80.5t-146 -34.5t-108 -8 q-128 0 -246 40.5t-218 114.5q-36 28 -87 79t-97 125.5t-78 174.5t-32 226zM219 752q0 -138 51 -262q39 -98 105 -177t150 -135t182 -86.5t205 -30.5q32 0 92.5 7t139.5 34q104 36 188 101t143 150.5t92 186.5t33 210q0 28 -3.5 72.5t-17.5 100t-40.5 117t-73.5 125.5 q-26 34 -71.5 82t-113.5 90.5t-159.5 73t-208.5 30.5q-28 0 -71.5 -3t-98 -16.5t-116 -40t-124.5 -71.5q-34 -26 -83 -71.5t-93.5 -114.5t-75.5 -162t-31 -210zM553 272v976h392q21 0 43 -2q57 -2 98.5 -9.5t72 -20.5t52.5 -31t39 -41q53 -69 53 -158q0 -59 -20 -98.5 t-46.5 -65t-55.5 -41t-45 -23.5q8 -4 15.5 -9t15.5 -12q24 -16 37.5 -40t21 -46.5t11 -40.5t3.5 -24q2 -11 7 -45.5t15 -79t24.5 -94.5t38.5 -95l-268 3q-31 61 -39 123t-19 130q-10 51 -16.5 79.5t-27.5 46.5q-28 24 -61.5 24.5t-64.5 2.5h-41v-409h-235zM788 867h104 q71 0 107 6.5t58 44.5q4 4 9 19t5 36q0 5 -2 20t-10 29q-15 24 -43 35.5t-81 11.5h-147v-202z" />
<glyph unicode="&#xaf;" horiz-adv-x="1075" d="M29 1180v393h1059v-393h-1059z" />
<glyph unicode="&#xb0;" horiz-adv-x="752" d="M10 1221q0 77 29.5 143.5t79 117t116 78t141.5 27.5q22 0 62.5 -4t89.5 -28q102 -43 159 -134.5t57 -199.5q0 -55 -11 -93.5t-22 -58.5q-42 -100 -133.5 -158.5t-201.5 -58.5q-16 0 -42.5 3t-59 13t-67 27t-69.5 46q-61 53 -94.5 126t-33.5 154zM260 1225q0 -49 35 -84 t85 -35q48 0 82 34.5t34 84.5q0 49 -35 83t-85 34q-48 0 -82 -34t-34 -83z" />
<glyph unicode="&#xb1;" horiz-adv-x="1384" d="M66 0v270h1241v-270h-1241zM66 790v271h485v443h274v-443h482v-271h-482v-445h-274v445h-485z" />
<glyph unicode="&#xb2;" horiz-adv-x="819" d="M24 1380v177q0 28 4 53.5t21 52.5q12 17 28.5 27.5t34.5 18.5t39.5 11t41.5 7l331 23q24 2 43 7t31 26q6 12 7.5 22t1.5 16q0 13 -2 21.5t-4 12.5q-12 24 -31 28.5t-42 6.5q-32 2 -60.5 3t-58.5 1t-60 -1t-59 -3q-14 -2 -31 -5t-29 -13q-19 -15 -22 -37t-3 -48h-181 q0 42 1 74.5t7 57t17.5 41.5t33.5 30q9 6 18 11t22 9t29 8t37 6q57 2 115 3t115 1q53 0 105.5 -1t105.5 -3q17 -2 35 -7t35.5 -12t32.5 -16.5t27 -22.5q11 -13 17.5 -30t10.5 -35.5t5.5 -37t1.5 -34.5q0 -8 -1.5 -30.5t-5.5 -48.5q0 -4 -2 -12t-4 -19q-4 -6 -10 -19t-16 -26 q-14 -14 -30.5 -24t-34.5 -16t-38.5 -9.5t-40.5 -6.5l-333 -25q-15 -2 -34 -5t-30 -19q-8 -10 -9 -26t-1 -33h587v-130h-768z" />
<glyph unicode="&#xb3;" horiz-adv-x="789" d="M-6 1583v49h179v-18q-2 -4 -2 -6q0 -11 4 -23q2 -15 11.5 -24.5t21 -14t22.5 -4.5h12q41 -2 79.5 -3t76.5 -1q47 0 98 2h6q7 0 14.5 1t15 4.5t13.5 7.5q4 4 11 15t7 32v14q0 8 -10 22q-10 19 -29.5 23t-41.5 4h-184v120h181q21 2 37 5t25 21q6 10 7 19.5t1 14.5 q0 12 -2 19.5t-4 11.5q-8 17 -23.5 21.5t-33.5 6.5q-33 2 -65.5 4t-66.5 2h-47q-24 0 -49 -2q-4 0 -19 -2t-30 -8q-15 -8 -21.5 -22t-8.5 -49h-175v37q0 6 1 20t4 33t13 38t27 34q14 13 32.5 20t38.5 13t40.5 9t37.5 3l264 4h7l108 -6q9 -2 19.5 -3t19.5 -3q34 -6 57.5 -20 t39.5 -47q7 -10 13.5 -30.5t6.5 -50.5q0 -4 -1.5 -10t-1.5 -17q0 -10 -2 -21l-4 -22q-4 -18 -10.5 -30t-20.5 -22t-33 -17t-51 -16q13 0 28 -2t28.5 -6.5t27.5 -11t23 -16.5q10 -11 16.5 -27t10 -31t3.5 -25v-17q0 -19 -2 -41q-5 -28 -12.5 -49t-28.5 -40q-28 -24 -61 -31.5 t-67 -11.5q-49 0 -96.5 -1t-94.5 -1q-55 0 -111 1t-113 5q-28 3 -54.5 7t-50.5 22q-24 16 -36.5 38.5t-18.5 47t-6 52.5z" />
<glyph unicode="&#xb4;" horiz-adv-x="666" d="M-120 1284l352 441l199 -189l-439 -365z" />
<glyph unicode="&#xb5;" horiz-adv-x="1196" d="M126 799q0 49 8 91.5t45 78.5q32 33 75 33q28 0 47.5 -13t32.5 -30.5t19.5 -33.5t8.5 -22q2 -11 4 -27t2 -41q0 -19 -4 -64t-10.5 -102t-14 -122t-15 -123t-13.5 -102.5t-8 -63.5q40 -94 91 -127t100 -33q21 0 51 8.5t67 40.5q74 63 103 178.5t29 310.5v71q-2 21 -2 43 q0 24 2 47q0 44 6 87t21 68q20 34 48.5 42t42.5 8q11 0 32.5 -6t44.5 -23q30 -23 42.5 -69t12.5 -124q0 -49 -3 -95t-7 -93q-11 -96 -31 -185.5t-65 -176.5q13 -57 42 -79.5t56 -22.5q26 0 42 12.5t25.5 32.5t12.5 42.5t3 42.5v27q0 8 -2 22l75 4q8 -24 19.5 -61t11.5 -94 q0 -8 -1 -28t-7 -42.5t-21.5 -45.5t-42.5 -40q-10 -6 -30.5 -15t-50.5 -9q-34 0 -70 16q-47 16 -77 56.5t-40 87.5q-38 -55 -84 -89.5t-89.5 -51t-81 -22t-62.5 -5.5q-17 0 -43 3t-56.5 14t-65 31t-64.5 57q-2 -21 -2 -54t2 -72q4 -83 54 -185q21 -43 41 -73t35.5 -54.5 t24.5 -46t9 -46.5q0 -20 -8 -42q-8 -15 -31.5 -36.5t-66.5 -21.5q-42 0 -68.5 18t-38.5 28q-42 49 -65.5 154.5t-23.5 257.5q0 39 1 87.5t4.5 98.5t8.5 98t12 86q-15 77 -25 164.5t-15 164t-7 132t-2 68.5z" />
<glyph unicode="&#xb6;" horiz-adv-x="1420" d="M175 1046q0 104 30.5 179.5t74 127t93 81t87.5 42.5q49 16 96 22t100 6h533v-167h-77v-1693h-179v1693h-250v-1693h-181v978q-16 4 -56.5 17t-83.5 38q-28 17 -60 47t-60.5 74.5t-47.5 105.5t-19 142z" />
<glyph unicode="&#xb7;" horiz-adv-x="397" d="M10 616q0 10 2.5 29.5t13.5 42.5q6 15 18.5 35.5t34 39.5t52.5 31.5t74 12.5q81 0 133 -54t52 -135q0 -45 -20 -83q-6 -11 -18.5 -29t-35 -36.5t-53.5 -30t-70 -11.5q-37 0 -70.5 15t-59 40.5t-39.5 59.5t-14 73z" />
<glyph unicode="&#xb8;" horiz-adv-x="516" d="M-245 -209l349 177l136 -224l-404 -96z" />
<glyph unicode="&#xb9;" horiz-adv-x="638" d="M8 1838l275 182h243v-652h-191l4 502l-241 -166z" />
<glyph unicode="&#xba;" horiz-adv-x="1175" d="M85 801q1 63 5 129q4 50 16 89.5t52 72.5q42 33 90 44t98 17q62 4 122 7t122 3q59 0 118 -2.5t118 -5.5q60 -8 112 -22t89 -54q34 -36 43.5 -76.5t12.5 -84.5q1 -18 2 -34t1 -33q0 -31 -2 -62t-5 -63q-3 -27 -9 -52.5t-20 -47.5q-9 -18 -21.5 -31t-19.5 -19 q-36 -29 -78 -41t-87 -21q-60 -4 -120 -7.5t-119 -3.5q-64 0 -125 4q-31 1 -61 1.5t-61 3.5q-12 2 -25.5 3t-27.5 4q-43 8 -84.5 24.5t-71.5 46.5q-23 21 -35 47t-18 53t-8.5 55.5t-2.5 55.5zM162 301v272h554v-272h-554zM346 826q0 -26 2.5 -50t19.5 -48q3 -3 9 -10.5 t17 -14.5q19 -10 40 -12.5t65 -5.5l50 -4q22 -1 45 -1.5t45 -0.5q8 0 43 2t70 12q28 9 39 19.5t17 19.5q10 20 11.5 43t3.5 46q2 10 2.5 21t0.5 21t-2.5 30t-21.5 45q-15 19 -31.5 29t-34.5 13.5t-39 3.5q-22 0 -45 2q-46 3 -86 3q-21 0 -40 -0.5t-59 -5.5q-30 -3 -53 -10 t-42 -29q-20 -27 -23 -57t-3 -61z" />
<glyph unicode="&#xbb;" horiz-adv-x="1388" d="M19 158l237 411l-222 400l296 175l339 -577l-346 -586zM699 160l234 407l-228 398l301 165l340 -561l-338 -586z" />
<glyph unicode="&#xbc;" horiz-adv-x="1807" d="M87 1325l283 185h250v-669h-198l6 516l-249 -172zM219 0l1053 1504h230l-1055 -1504h-228zM876 145v239l490 295h229v-394h106v-136h-106v-132h-191v128h-528zM1014 285h396v245z" />
<glyph unicode="&#xbd;" horiz-adv-x="1858" d="M69 1325l283 185h249v-669h-199l7 516l-249 -172zM201 0l1051 1504h230l-1054 -1504h-227zM978 30v177q0 28 4 53t22 53q12 17 28 28t34 18t39 10t43 7l330 24q24 2 43 6.5t32 26.5q6 12 7 21.5t1 16.5q0 13 -2 21t-4 12q-13 24 -31 28.5t-42 6.5q-32 2 -60.5 3t-58.5 1 t-59.5 -1t-59.5 -3q-15 -2 -31 -4.5t-28 -12.5q-19 -14 -22.5 -37t-3.5 -48h-181q0 42 1 74t7 56.5t18 41.5t33 30q8 6 18 11.5t23 10t28.5 7.5t37.5 5q57 2 115 3t115 1q53 0 105.5 -1t105.5 -3q17 -2 35 -6.5t35 -11.5t31.5 -17t28.5 -22q10 -13 16.5 -30t10.5 -35.5 t5 -37.5t1 -34q0 -8 -1 -30.5t-5 -48.5q0 -4 -2 -12t-4 -20q-4 -6 -9.5 -18.5t-15.5 -26.5q-15 -14 -31.5 -23.5t-34 -16t-38 -10t-42.5 -5.5l-332 -26q-14 -2 -33.5 -5t-30.5 -18q-8 -10 -9 -26t-1 -33h587v-130h-768z" />
<glyph unicode="&#xbe;" horiz-adv-x="1803" d="M132 1041v50h179v-18q-2 -4 -2 -6q0 -10 4 -23q2 -14 12 -24t21.5 -14t21.5 -4h14q40 -3 78 -4.5t77 -1.5q46 0 97 3h7q6 0 13.5 1.5t15 4.5t13.5 7q4 4 11 14.5t7 32.5v14q0 9 -8 22q-11 19 -30.5 23t-42.5 4h-183v120h181q21 2 37 5t24 21q6 10 7.5 19.5t1.5 13.5 q0 13 -2.5 20.5t-4.5 11.5q-8 17 -23 21.5t-34 6.5q-32 2 -65 4.5t-67 2.5h-47q-24 0 -49 -2q-4 0 -19 -2.5t-30 -8.5q-14 -8 -21 -22t-9 -49h-175v37q0 6 1.5 20t4.5 33t13 38t26 35q15 12 33 19.5t38.5 12.5t40.5 8.5t38 3.5l264 5h6l109 -7q8 -2 19 -3.5t19 -3.5 q34 -6 57.5 -19.5t40.5 -46.5q6 -10 13 -30t7 -51q0 -4 -1.5 -10t-1.5 -18q0 -10 -2.5 -20.5t-4.5 -20.5q-4 -19 -10 -31t-20.5 -22t-33 -17t-50.5 -16q12 0 27 -2.5t28.5 -6.5t28 -10.5t22.5 -16.5q10 -10 17 -26.5t10 -31.5t3 -25v-17q0 -19 -2 -40q-4 -28 -12 -49.5 t-29 -40.5q-28 -24 -60.5 -31t-67.5 -11q-48 0 -96 -1.5t-95 -1.5q-55 0 -110.5 1.5t-113.5 5.5q-28 2 -54.5 6t-50.5 21q-23 16 -35.5 39t-19 47.5t-6.5 51.5zM311 0l1052 1504h230l-1054 -1504h-228zM967 145v239l490 295h230v-394h106v-136h-106v-132h-191v128h-529z M1106 285h396v245z" />
<glyph unicode="&#xbf;" horiz-adv-x="1807" d="M149 419q0 138 20 212t69 121q39 36 79.5 50.5t89.5 26.5l258 51q16 4 33.5 7t36.5 7q24 7 33.5 12.5t15.5 15.5q11 15 14 37.5t5 26.5h396v-87q-2 -21 -2 -41q0 -19 -2 -38q-4 -37 -21.5 -80t-87.5 -86q-43 -26 -86 -41t-89.5 -23.5t-94 -13.5t-96.5 -11 q-35 -7 -66.5 -14.5t-57 -22t-41.5 -40.5t-16 -64q0 -24 6 -43t11 -25q19 -41 57.5 -50.5t85.5 -15.5l317 -9q77 4 132 10.5t85 23.5q37 24 48.5 77t13.5 136h394q-2 -89 -6 -157t-17 -119t-34.5 -88.5t-60.5 -69.5q-59 -49 -125 -66.5t-139 -27.5q-102 -6 -200.5 -12.5 t-201.5 -6.5q-100 0 -198 6.5t-198 12.5q-17 4 -35 6t-37 6q-13 3 -44 10.5t-69.5 24t-75.5 47t-61 79.5q-16 36 -27 96.5t-11 149.5zM778 1124v380h447v-380h-447z" />
<glyph unicode="&#xc0;" horiz-adv-x="2346" d="M24 0l834 1504h599l848 -1504h-522l-141 268h-969l-143 -268h-506zM795 1721l95 311l606 -243l-57 -185zM841 586h633l-311 585z" />
<glyph unicode="&#xc1;" horiz-adv-x="2342" d="M24 0l834 1504h599l848 -1504h-522l-141 268h-969l-143 -268h-506zM841 586h633l-311 585zM860 1787l610 247l85 -315l-646 -113z" />
<glyph unicode="&#xc2;" horiz-adv-x="2346" d="M24 0l834 1504h599l848 -1504h-522l-141 268h-969l-143 -268h-506zM616 1740l555 262l565 -266l-62 -141l-66 11l-379 89q-2 0 -22 3t-38 3q-17 0 -57 -6l-356 -81l-81 -12zM841 586h633l-311 585z" />
<glyph unicode="&#xc3;" horiz-adv-x="2342" d="M45 0l835 1504h598l847 -1504h-521l-141 268h-968l-144 -268h-506zM565 1646q8 45 16.5 84.5t24.5 76t39.5 69t59.5 63.5q11 8 37.5 25t62.5 30q41 14 75 16t49 2q44 0 88 -7t81.5 -17.5t63 -20.5t35.5 -12q2 0 24.5 -8t54 -17t69 -16.5t69.5 -7.5q7 0 21 1t31.5 6.5 t35.5 16.5t32 29q8 11 11.5 23t7.5 24h207q-4 -19 -9 -37t-9 -37q-4 -14 -12.5 -44.5t-27.5 -66.5t-49 -73t-76 -63q-21 -11 -62 -26t-101 -15q-36 0 -64.5 5.5t-65.5 11.5l-294 79q-36 8 -52 10.5t-35 2.5q-45 0 -69.5 -17t-34.5 -35q-9 -14 -11 -34.5t-2 -22.5zM862 586 h634l-311 585z" />
<glyph unicode="&#xc4;" horiz-adv-x="2346" d="M24 0l834 1504h599l848 -1504h-522l-141 268h-969l-143 -268h-506zM641 1640v268h411v-268h-411zM841 586h633l-311 585zM1280 1640v268h407v-268h-407z" />
<glyph unicode="&#xc5;" horiz-adv-x="2346" d="M24 0l834 1504h599l848 -1504h-522l-141 268h-969l-143 -268h-506zM742 1806q0 17 6 49q4 13 14.5 36.5t36.5 49.5q34 36 74.5 53.5t76.5 25.5t64 8h41q30 0 58.5 -1t57.5 -1h65q32 0 63 -2q32 -2 63 -4.5t60 -10t55.5 -23.5t49.5 -43q10 -15 33 -53.5t23 -94.5 q0 -32 -9 -54t-15 -35q-28 -51 -74 -72.5t-101 -31.5q-24 -5 -57.5 -7t-72 -4t-73.5 -3t-57 -1q-215 0 -299 55q-28 19 -44.5 42.5t-24.5 46t-11 42.5t-3 33zM841 586h633l-311 585zM931 1804q0 -16 16 -34q17 -14 37 -21t38 -9q11 -2 22 -2q4 0 8 2h258q13 0 23 4 q37 10 51 32q13 19 13 30v3q0 14 -8.5 24t-12.5 14q-24 19 -53 25q-17 4 -43 4q-16 0 -36 -2h-230q-19 0 -38 -10q-17 -7 -31 -25t-14 -35z" />
<glyph unicode="&#xc6;" horiz-adv-x="3294" d="M47 0l1037 1504h2132v-339h-1173v-247h1101v-313h-1108v-264h1191v-341h-1625v277h-838l-189 -277h-528zM963 583h641v584h-256z" />
<glyph unicode="&#xc7;" horiz-adv-x="2126" d="M98 752q0 83 5 165t10 165q11 74 27 133t65 120q43 51 95 82.5t101.5 49t89 24.5t58.5 11q130 10 260 16.5t262 6.5q134 0 265 -5.5t266 -9.5q81 -12 157.5 -32.5t140.5 -80.5q43 -39 66.5 -92t33.5 -110t13.5 -116t3.5 -110l-450 2q0 35 -4 61.5t-27 56.5 q-28 34 -68.5 42.5t-87.5 12.5q-65 4 -131.5 6t-134.5 2q-138 0 -281 -6q-17 0 -36 -1t-37 -3q-14 -2 -38.5 -7t-51.5 -18.5t-51.5 -39t-37.5 -69.5q-10 -35 -13 -98.5t-3 -147.5v-110q2 -61 10 -123t53 -103q26 -24 58 -37t60.5 -19t51 -8t29.5 -2h551q2 0 21.5 2t45 7 t52 17t43.5 33q24 28 29 67.5t10 82.5h457q0 -34 -1 -67t-3 -69q-2 -49 -6 -96t-17 -90.5t-36.5 -82t-64.5 -70.5q-61 -51 -131.5 -68.5t-144.5 -27.5q-122 -8 -243 -12.5t-243 -4.5q-134 0 -265 3.5t-265 7.5q-104 16 -202.5 39.5t-171.5 92.5q-72 65 -94 141t-33 170 q-6 79 -11.5 157.5t-5.5 159.5zM735 -209l351 177l137 -224l-406 -96z" />
<glyph unicode="&#xc8;" horiz-adv-x="1916" d="M153 0v1504h1681v-333h-1222v-251h1156v-315h-1156v-264h1222v-341h-1681zM618 1721l95 311l604 -243l-57 -185z" />
<glyph unicode="&#xc9;" horiz-adv-x="1916" d="M110 0v1504h1681v-333h-1222v-251h1156v-315h-1156v-264h1222v-341h-1681zM639 1787l609 247l85 -315l-645 -113z" />
<glyph unicode="&#xca;" horiz-adv-x="1920" d="M136 0v1504h1681v-333h-1223v-251h1156v-315h-1156v-264h1223v-341h-1681zM419 1740l557 262l564 -266l-62 -141l-66 11l-379 89q-2 0 -22.5 3t-37.5 3q-16 0 -57 -6l-355 -81l-82 -12z" />
<glyph unicode="&#xcb;" horiz-adv-x="1920" d="M120 0v1504h1680v-333h-1223v-251h1157v-315h-1157v-264h1223v-341h-1680zM435 1648v267h411v-267h-411zM1069 1648v267h415v-267h-415z" />
<glyph unicode="&#xcc;" horiz-adv-x="849" d="M61 1721l97 311l604 -243l-55 -185zM203 0v1504h476v-1504h-476z" />
<glyph unicode="&#xcd;" horiz-adv-x="849" d="M106 1787l610 247l85 -315l-645 -113zM181 0v1504h477v-1504h-477z" />
<glyph unicode="&#xce;" horiz-adv-x="849" d="M-138 1740l555 262l563 -266l-60 -141l-66 11l-379 89q-2 0 -23 3t-37 3q-17 0 -57 -6l-356 -81l-81 -12zM183 0v1504h477v-1504h-477z" />
<glyph unicode="&#xcf;" horiz-adv-x="849" d="M-87 1648v267h413v-267h-413zM203 0v1504h476v-1504h-476zM549 1648v267h414v-267h-414z" />
<glyph unicode="&#xd0;" horiz-adv-x="2126" d="M59 0v1504h1401q59 0 121 -6q90 -9 156 -29t112.5 -48t77.5 -62t53 -70q53 -90 66 -192.5t17 -202.5v-296q0 -26 -2 -53q-5 -102 -21 -177.5t-42.5 -130t-62 -92t-77.5 -64.5q-85 -53 -170.5 -65t-181.5 -16h-1447zM100 616v272h1108v-272h-1108zM527 362h809q30 0 66 6 q69 11 107 41t57 73.5t24.5 96.5t5.5 112v187q-4 53 -13.5 98.5t-50.5 88.5q-46 49 -112.5 59t-138.5 14h-754v-776z" />
<glyph unicode="&#xd1;" horiz-adv-x="2447" d="M158 0v1504h736q124 -151 245 -299t243 -302q108 -139 215 -278t216 -280l-9 690v469h434v-1504h-738q-134 162 -265.5 324t-261.5 328q-95 124 -188.5 248t-188.5 250v-1150h-438zM567 1646q8 45 16.5 84.5t24.5 76t39.5 69t59.5 63.5q11 8 37.5 25t62.5 30q41 14 75 16 t49 2q45 0 88.5 -7t80 -17.5t63 -20.5t36.5 -12q2 0 24.5 -8t54.5 -17t69 -16.5t69 -7.5q7 0 21 1t32 6.5t36 16.5t31 29q8 11 11.5 23t7.5 24h207q-4 -19 -9 -37t-9 -37q-4 -14 -12.5 -44.5t-27.5 -66.5t-50 -73t-77 -63q-19 -11 -60 -26t-101 -15q-36 0 -64.5 5.5 t-65.5 11.5l-294 79q-36 8 -51.5 10.5t-35.5 2.5q-45 0 -69.5 -17t-34.5 -35q-9 -14 -11 -34.5t-2 -22.5z" />
<glyph unicode="&#xd2;" horiz-adv-x="2344" d="M134 641l15 441q2 16 4.5 35t6.5 35q17 90 60.5 161t124.5 118q60 36 116.5 49t124.5 24q138 8 274 13.5t278 5.5q164 0 326 -5.5t327 -13.5q17 -2 35.5 -4t35.5 -7q24 -4 61.5 -13.5t81.5 -31t87.5 -60t77.5 -97.5q41 -75 52.5 -148.5t15.5 -154.5t7 -161v-54 q0 -55 -2 -108t-5.5 -106t-7.5 -108q-11 -83 -30 -152t-74 -137q-43 -53 -97.5 -85t-113 -49.5t-122 -25.5t-125.5 -12q-113 -2 -225 -4.5t-227 -2.5q-130 0 -257.5 2.5t-257.5 6.5q-51 2 -100.5 7t-97 15t-93.5 27.5t-91 47.5q-68 47 -105 112t-55.5 138.5t-21.5 151.5 t-3 150zM603 705q4 -96 12.5 -164t34.5 -104q30 -41 88.5 -57t153.5 -24h614q36 2 71 7t65 15t55.5 28t42.5 47q14 24 22 53t14 84v326q-2 26 -4 47t-10 45q-13 44 -37 69.5t-54.5 41t-69 19.5t-83.5 8h-642q-79 -4 -117.5 -16t-70.5 -35q-23 -17 -34 -31t-15 -25 q-13 -24 -18 -49t-7 -33q-5 -41 -7 -101.5t-4 -150.5zM817 1721l97 311l604 -243l-55 -185z" />
<glyph unicode="&#xd3;" horiz-adv-x="2344" d="M113 641l15 441q2 16 4 35t6 35q17 90 60.5 161t124.5 118q60 36 116.5 49t125.5 24q138 8 274.5 13.5t276.5 5.5q164 0 326 -5.5t328 -13.5q17 -2 35 -4t35 -7q24 -4 62.5 -13.5t82 -31t87 -60t77.5 -97.5q40 -75 52 -148.5t16 -154.5t7 -161v-54q0 -55 -3 -108 q-2 -53 -5 -106t-7 -108q-10 -83 -29.5 -152t-75.5 -137q-43 -53 -97 -85t-112.5 -49.5t-122.5 -25.5t-126 -12q-113 -2 -224.5 -4.5t-226.5 -2.5q-130 0 -258 2.5t-258 6.5q-51 2 -100 7t-96.5 15t-93.5 27.5t-91 47.5q-68 47 -105 112t-55 138.5t-21.5 151.5t-3.5 150z M581 705q5 -96 13.5 -164t33.5 -104q30 -41 88.5 -57t155.5 -24h612q36 2 71.5 7t65 15t55 28t43.5 47q15 24 22 53t15 84v326q-3 26 -5.5 47t-10.5 45q-13 44 -36 69.5t-54.5 41t-69.5 19.5t-82 8h-644q-79 -4 -117 -16t-70 -35q-24 -17 -34.5 -31t-14.5 -25 q-13 -24 -18.5 -49t-7.5 -33q-4 -41 -6.5 -101.5t-4.5 -150.5zM860 1787l610 247l87 -315l-645 -113z" />
<glyph unicode="&#xd4;" horiz-adv-x="2344" d="M113 641l15 441q2 16 4 35t6 35q17 90 60.5 161t124.5 118q60 36 116.5 49t125.5 24q138 8 274.5 13.5t276.5 5.5q164 0 326 -5.5t328 -13.5q17 -2 35 -4t35 -7q24 -4 62.5 -13.5t82 -31t87 -60t77.5 -97.5q40 -75 52 -148.5t16 -154.5t7 -161v-54q0 -55 -3 -108 q-2 -53 -5 -106t-7 -108q-10 -83 -29.5 -152t-75.5 -137q-43 -53 -97 -85t-112.5 -49.5t-122.5 -25.5t-126 -12q-113 -2 -224.5 -4.5t-226.5 -2.5q-130 0 -258 2.5t-258 6.5q-51 2 -100 7t-96.5 15t-93.5 27.5t-91 47.5q-68 47 -105 112t-55 138.5t-21.5 151.5t-3.5 150z M581 705q5 -96 13.5 -164t33.5 -104q30 -41 88.5 -57t155.5 -24h612q36 2 71.5 7t65 15t55 28t43.5 47q15 24 22 53t15 84v326q-3 26 -5.5 47t-10.5 45q-13 44 -36 69.5t-54.5 41t-69.5 19.5t-82 8h-644q-79 -4 -117 -16t-70 -35q-24 -17 -34.5 -31t-14.5 -25 q-13 -24 -18.5 -49t-7.5 -33q-4 -41 -6.5 -101.5t-4.5 -150.5zM609 1740l556 262l565 -266l-60 -141l-68 11l-379 89q-2 0 -22.5 3t-37.5 3q-15 0 -55 -6l-356 -81l-83 -12z" />
<glyph unicode="&#xd5;" horiz-adv-x="2340" d="M113 641l15 441q2 16 4 35t6 35q17 90 60.5 161t124.5 118q60 36 116.5 49t125.5 24q138 8 274.5 13.5t276.5 5.5q164 0 326 -5.5t328 -13.5q17 -2 35 -4t35 -7q24 -4 62.5 -13.5t82 -31t87 -60t77.5 -97.5q40 -75 52 -148.5t16 -154.5t7 -161v-54q0 -55 -3 -108 q-2 -53 -5 -106t-7 -108q-10 -83 -29.5 -152t-75.5 -137q-43 -53 -97 -85t-112.5 -49.5t-122.5 -25.5t-126 -12q-113 -2 -224.5 -4.5t-226.5 -2.5q-130 0 -258 2.5t-258 6.5q-51 2 -100 7t-96.5 15t-93.5 27.5t-91 47.5q-68 47 -105 112t-55 138.5t-21.5 151.5t-3.5 150z M573 1646q8 45 16.5 84.5t23.5 76t38.5 69t59.5 63.5q11 8 37.5 25t64.5 30q39 14 74 16t50 2q45 0 88.5 -7t80 -17.5t63 -20.5t36.5 -12q2 0 24.5 -8t55 -17t69 -16.5t69.5 -7.5q6 0 20 1t31 6.5t36 16.5t32 29q7 11 10 23t7 24h207q-4 -19 -7 -37t-9 -37 q-4 -14 -13.5 -44.5t-28.5 -66.5t-48.5 -73t-76.5 -63q-21 -11 -61 -26t-101 -15q-37 0 -65.5 5.5t-64.5 11.5l-292 79q-36 8 -53 10.5t-37 2.5q-43 0 -68.5 -17t-35.5 -35q-6 -14 -9.5 -34.5t-3.5 -22.5zM581 705q5 -96 13.5 -164t33.5 -104q30 -41 88.5 -57t155.5 -24h612 q36 2 71.5 7t65 15t55 28t43.5 47q15 24 22 53t15 84v326q-3 26 -5.5 47t-10.5 45q-13 44 -36 69.5t-54.5 41t-69.5 19.5t-82 8h-644q-79 -4 -117 -16t-70 -35q-24 -17 -34.5 -31t-14.5 -25q-13 -24 -18.5 -49t-7.5 -33q-4 -41 -6.5 -101.5t-4.5 -150.5z" />
<glyph unicode="&#xd6;" horiz-adv-x="2344" d="M113 643l15 439q4 36 14.5 91.5t41.5 114t89.5 111t159.5 81.5q28 8 53.5 13t78.5 13q138 6 274.5 12.5t276.5 6.5q164 0 326 -6.5t328 -12.5q17 -4 35 -5t35 -5q24 -5 62.5 -14.5t82 -32t87 -61t77.5 -97.5q14 -28 26 -56t20 -61.5t13 -78.5t9 -105q4 -81 7 -161v-56 q0 -55 -3 -108q-2 -53 -5 -106t-7 -106q-2 -16 -4 -31t-4 -32q-5 -17 -11.5 -50t-22.5 -71.5t-42.5 -80t-69.5 -75.5q-10 -10 -31.5 -24t-51.5 -32q-81 -38 -160.5 -49.5t-165.5 -15.5q-115 -4 -229 -6.5t-228 -2.5q-128 0 -255 2.5t-255 6.5q-98 6 -188.5 20t-177.5 69 q-75 47 -115 112t-59 139.5t-22.5 154.5t-3.5 156zM581 707q5 -98 13.5 -165t33.5 -103q30 -41 88.5 -57t155.5 -24h612q73 4 135 19t98 70q21 35 27 69.5t12 73.5v326q-3 26 -5.5 47t-10.5 47q-13 45 -36 70.5t-54.5 39.5t-69.5 18t-82 8h-644q-73 -4 -109 -13t-68 -30 q-28 -16 -51 -47.5t-34 -98.5q-4 -41 -6.5 -100.5t-4.5 -149.5zM650 1650v269h413v-269h-413zM1289 1650v265h408v-265h-408z" />
<glyph unicode="&#xd7;" horiz-adv-x="1264" d="M49 234l388 386l-388 390l191 187l388 -386l390 386l189 -187l-384 -390l384 -386l-189 -193l-390 387l-388 -387z" />
<glyph unicode="&#xd8;" horiz-adv-x="2453" d="M63 -43v260l140 88q-15 57 -23.5 94.5t-12 77t-4.5 94.5t-3 151q0 49 -1 100.5t-1 102.5q0 113 20 216t94 192q29 35 62.5 61.5t79.5 47.5t110 36t153 24q164 16 323 17t321 1q83 0 165.5 1.5t166.5 1.5q95 0 162 -7.5t116.5 -22.5t89.5 -36.5t83 -48.5l260 147v-260 l-143 -81q9 -39 16.5 -77t14 -82.5t9.5 -102.5t3 -135v-181q0 -59 -2 -115.5t-12 -110.5t-28.5 -106t-57.5 -101q-38 -57 -100 -99q-24 -17 -64.5 -35t-107.5 -35q-83 -18 -204 -28t-247 -13t-246 -3h-203q-49 0 -99 -1t-101 -1h-46q-41 0 -97.5 4t-120.5 16.5t-113 36.5 q-26 12 -49 29.5t-47 33.5zM601 880q0 -88 5.5 -172t9.5 -167l1041 605q-26 19 -45 27q-21 11 -61.5 14.5t-95.5 3.5h-87q-45 0 -90 -2q-81 0 -163 -2t-165 -9q-60 -4 -103.5 -7.5t-76.5 -12t-57.5 -21.5t-45.5 -36q-31 -34 -48.5 -83t-17.5 -138zM756 362 q39 -10 65.5 -17.5t52 -11t53.5 -4.5t67 -1q75 0 147.5 -2.5t147.5 -2.5q104 3 217 14q32 2 66 4t67 8.5t62 18.5t52 34q31 31 46.5 65.5t21.5 68t6 56.5v36q0 30 -1 61t-3 61q-2 59 -3 117t-5 115z" />
<glyph unicode="&#xd9;" horiz-adv-x="2242" d="M145 473v1031h462v-878q2 -49 7.5 -100t35.5 -93q38 -55 114 -69q64 -12 167 -12h475q75 10 109 21t56 32q37 36 48 89t15 102v908h464v-998q-2 -28 -4.5 -54t-6.5 -54q-4 -24 -12.5 -62t-28.5 -83.5t-56.5 -92.5t-95.5 -83q-83 -51 -167.5 -66t-177.5 -23 q-109 -3 -213.5 -5t-213.5 -2q-124 0 -246 4.5t-246 10.5q-24 4 -45.5 6t-45.5 6q-96 17 -179 58.5t-138 129.5q-43 68 -56 135t-21 142zM771 1721l96 311l605 -243l-56 -185z" />
<glyph unicode="&#xda;" horiz-adv-x="2238" d="M145 473v1031h462v-878q2 -49 7.5 -100t35.5 -93q38 -55 114 -69q64 -12 167 -12h475q75 10 109 21t56 32q37 36 48 89t15 102v908h464v-998q-2 -28 -4.5 -54t-6.5 -54q-4 -24 -12.5 -62t-28.5 -83.5t-56.5 -92.5t-95.5 -83q-83 -51 -167.5 -66t-177.5 -23 q-109 -3 -213.5 -5t-213.5 -2q-124 0 -246 4.5t-246 10.5q-24 4 -45.5 6t-45.5 6q-96 17 -179 58.5t-138 129.5q-43 68 -56 135t-21 142zM775 1787l609 247l86 -315l-645 -113z" />
<glyph unicode="&#xdb;" horiz-adv-x="2242" d="M145 473v1031h462v-878q2 -49 7.5 -100t35.5 -93q38 -55 114 -69q64 -12 167 -12h475q75 10 109 21t56 32q37 36 48 89t15 102v908h464v-998q-2 -28 -4.5 -54t-6.5 -54q-4 -24 -12.5 -62t-28.5 -83.5t-56.5 -92.5t-95.5 -83q-83 -51 -167.5 -66t-177.5 -23 q-109 -3 -213.5 -5t-213.5 -2q-124 0 -246 4.5t-246 10.5q-24 4 -45.5 6t-45.5 6q-96 17 -179 58.5t-138 129.5q-43 68 -56 135t-21 142zM563 1740l555 262l565 -266l-62 -141l-66 11l-380 89q-2 0 -21.5 3t-37.5 3q-17 0 -57 -6l-356 -81l-81 -12z" />
<glyph unicode="&#xdc;" horiz-adv-x="2238" d="M166 471v1033h462v-906q0 -21 3 -49.5t13 -60.5t27 -57q36 -56 112.5 -70t200.5 -14h443q51 9 96.5 19t76.5 45q34 38 42 88t13 95v910h465v-1000q-3 -20 -4 -41.5t-3 -45.5q-4 -24 -11.5 -67t-30 -93t-62 -100.5t-105.5 -87.5q-81 -49 -163 -63t-172 -23 q-97 -4 -194 -6.5t-197 -2.5q-119 0 -237 7q-149 7 -289 19q-21 2 -41.5 3t-41.5 5q-19 2 -57.5 9t-84 24.5t-93 51t-82.5 88.5q-47 69 -62 140t-24 150zM626 1648v267h411v-267h-411zM1263 1650v260h413v-260h-413z" />
<glyph unicode="&#xdd;" horiz-adv-x="2340" d="M107 1504h581l505 -614l507 614h600l-868 -978v-526h-471v526zM928 1723l352 441l199 -189l-439 -365z" />
<glyph unicode="&#xde;" horiz-adv-x="2022" d="M106 -209v1504h1261q32 2 64 2t62 -2q74 -2 127.5 -13t93 -28.5t67 -40t51.5 -50.5q34 -39 52.5 -78.5t28.5 -80t13 -85t5 -91.5q3 -30 4 -56t1 -56q0 -7 -1 -61.5t-13.5 -126.5t-45 -148.5t-93.5 -124.5q-43 -32 -96.5 -50t-109.5 -25t-113 -10t-103 -3h-779v-376h-476z M108 0v1504h476v-1504h-476zM579 537h673q35 0 64.5 1t53 9t43.5 25.5t35 47.5q8 17 17 43.5t9 66.5q0 2 -1 20.5t-7 42.5t-15 51t-26 44q-26 28 -66.5 36.5t-83.5 12.5h-696v-400z" />
<glyph unicode="&#xdf;" horiz-adv-x="1809" d="M153 -2v1065q2 24 3 45q0 20 4 42q2 13 5 39.5t12.5 59.5t28 68t48.5 67q38 41 90 65.5t110 40.5t116 24.5t109 14.5q55 4 112 6.5t112 2.5q57 0 113.5 -3t111.5 -8l110 -19q136 -30 197 -81t85 -112q9 -19 19 -54.5t10 -89.5q0 -55 -13 -94.5t-32.5 -68t-42 -47 t-38.5 -26.5q-26 -15 -54.5 -22.5t-58.5 -13.5q64 -7 115 -18.5t104 -55.5q75 -64 97 -147.5t22 -179.5q0 -16 -1 -51.5t-8 -80.5t-23 -96t-47 -97q-8 -13 -28.5 -40t-51.5 -52q-44 -38 -139.5 -74.5t-248.5 -36.5q-95 0 -168 21t-126 54.5t-87.5 74t-48.5 76.5 q-17 38 -22.5 84t-5.5 133l337 -2q4 -24 9 -46t17 -42q20 -36 55.5 -45.5t52.5 -9.5q10 0 30.5 3.5t44.5 18.5q44 26 53.5 63t11.5 84v144q0 37 -4 66.5t-27 59.5q-17 19 -32.5 29t-23.5 14q-34 14 -92.5 18.5t-141.5 9.5h-205v263h258q69 2 99.5 11t48.5 32q18 20 18 56 q0 24 -17 52.5t-68 40.5q-4 3 -21 6t-41.5 6t-51 5t-52.5 2q-35 0 -68.5 -3t-68.5 -7q-36 -4 -69 -8.5t-69 -28.5q-51 -36 -60.5 -82t-12.5 -107v-1018h-400z" />
<glyph unicode="&#xe0;" horiz-adv-x="1597" d="M81 311q0 75 11.5 127t30.5 88.5t44.5 57.5t54.5 36q76 38 163.5 45.5t163.5 7.5h246q40 2 69 2h30q39 -2 73.5 -11.5t68 -28.5t80.5 -54v86q-2 30 -6 56.5t-15 49.5q-19 34 -64 46t-124 12h-268q-31 0 -48.5 -3t-30.5 -11t-22.5 -23.5t-17.5 -43.5l-392 2q4 36 7 65 t14 61q16 44 72 96t165 78q61 15 150.5 20t229.5 10h224q24 0 48.5 -1t47.5 -1q144 -9 224 -38.5t127 -82.5q55 -61 67 -131t12 -149v-679h-390l14 207q-17 -36 -32 -70.5t-43 -61.5q-43 -43 -134.5 -71t-229.5 -28q-59 0 -119 3.5t-122 5.5q-69 3 -135.5 14t-128.5 50 q-24 14 -44 33.5t-36 50.5t-25.5 74t-9.5 104zM473 349q0 -28 10.5 -47t16.5 -25q28 -37 72 -43t123 -6h134q83 4 144.5 10.5t93.5 23.5q6 4 28.5 24.5t22.5 56.5q-2 9 -6 26t-21 38q-32 38 -78 43.5t-129 7.5h-109q-39 -5 -77 -6t-80 -5q-41 -2 -76.5 -8t-55.5 -43 q-4 -6 -8.5 -18t-4.5 -29zM512 1252l80 254l520 -209l-45 -149z" />
<glyph unicode="&#xe1;" horiz-adv-x="1594" d="M75 311q0 75 11.5 127t30.5 88.5t44.5 57.5t53.5 36q77 38 164.5 45.5t163.5 7.5h245q41 2 70 2h30q39 -2 72.5 -11.5t68 -28.5t81.5 -54v86q-2 30 -6.5 56.5t-14.5 49.5q-19 34 -64 46t-124 12h-269q-30 0 -47.5 -3t-30.5 -11t-22.5 -23.5t-17.5 -43.5l-392 2q4 36 7 65 t13 61q17 44 72.5 96t165.5 78q61 15 150.5 20t229.5 10h224q24 0 48.5 -1t47.5 -1q144 -9 224 -38.5t127 -82.5q55 -61 67 -131t12 -149v-679h-390l14 207q-17 -36 -32.5 -70.5t-42.5 -61.5q-43 -43 -134.5 -71t-229.5 -28q-60 0 -119.5 3.5t-122.5 5.5q-68 3 -134.5 14 t-129.5 50q-24 14 -43.5 33.5t-35.5 50.5t-25.5 74t-9.5 104zM467 349q0 -28 10.5 -47t16.5 -25q28 -37 71.5 -43t122.5 -6h135q83 4 144.5 10.5t93.5 23.5q6 4 28.5 24.5t22.5 56.5q-2 9 -6.5 26t-21.5 38q-33 38 -78 43.5t-128 7.5h-109q-39 -5 -77 -6t-80 -5 q-41 -2 -76.5 -8t-56.5 -43q-4 -6 -8 -18t-4 -29zM509 1310l522 210l81 -262l-563 -102z" />
<glyph unicode="&#xe2;" horiz-adv-x="1597" d="M69 311q0 75 11.5 127t30.5 88.5t44.5 57.5t53.5 36q77 38 164 45.5t164 7.5h245q41 2 70 2h30q38 -2 72 -11.5t68.5 -28.5t80.5 -54v86q-2 30 -6 56.5t-15 49.5q-19 34 -64 46t-124 12h-268q-30 0 -47.5 -3t-30.5 -11t-22.5 -23.5t-19.5 -43.5l-391 2q5 36 8 65t13 61 q17 44 72.5 96t163.5 78q62 15 152 20t230 10h224q24 0 48 -1t47 -1q145 -9 225 -38.5t127 -82.5q55 -61 67 -131t12 -149v-679h-390l12 207q-16 -36 -31 -70.5t-43 -61.5q-42 -43 -133.5 -71t-230.5 -28q-59 0 -119 3.5t-122 5.5q-68 3 -135 14t-129 50q-24 14 -43.5 33.5 t-36 50.5t-25.5 74t-9 104zM345 1252l458 286l453 -292l-59 -124l-394 138l-405 -138zM460 349q0 -28 11 -47t17 -25q28 -37 71.5 -43t121.5 -6h134q84 4 145.5 10.5t94.5 23.5q6 4 28.5 24.5t22.5 56.5q-3 9 -7 26t-22 38q-32 38 -77 43.5t-128 7.5h-110q-38 -5 -76 -6 t-81 -5q-40 -2 -75.5 -8t-56.5 -43q-4 -6 -8.5 -18t-4.5 -29z" />
<glyph unicode="&#xe3;" horiz-adv-x="1597" d="M73 311q0 75 11.5 127t30.5 88.5t44.5 57.5t53.5 36q77 38 164 45.5t164 7.5h245q41 2 70 2h30q39 -2 72.5 -11.5t68 -28.5t81.5 -54v86q-2 30 -6.5 56.5t-15.5 49.5q-19 34 -63.5 46t-123.5 12h-269q-30 0 -47.5 -3t-30.5 -11t-22.5 -23.5t-17.5 -43.5l-392 2q4 36 7 65 t13 61q17 44 72.5 96t163.5 78q62 15 152 20t230 10h224q24 0 48.5 -1t46.5 -1q145 -9 225 -38.5t127 -82.5q55 -61 67 -131t12 -149v-679h-390l12 207q-16 -36 -31 -70.5t-42 -61.5q-43 -43 -134.5 -71t-229.5 -28q-60 0 -119.5 3.5t-122.5 5.5q-68 3 -134.5 14t-129.5 50 q-24 14 -43.5 33.5t-35.5 50.5t-25.5 74t-9.5 104zM315 1163q13 68 21.5 102t23.5 64q8 17 27.5 46t51.5 56.5t78 47t107 19.5q55 0 92.5 -13t56.5 -24q42 -19 82.5 -39t89.5 -20q7 0 21 1t30 5q37 11 51 36.5t28 59.5h193q-11 -64 -25 -120.5t-58 -107.5q-24 -28 -77 -63 t-145 -38q-55 2 -95.5 14t-58.5 21q-45 16 -86.5 34.5t-90.5 18.5q-24 0 -37.5 -3.5t-21.5 -7.5q-24 -8 -37.5 -26.5t-37.5 -62.5h-183zM464 349q0 -28 11 -47t17 -25q28 -37 71.5 -43t121.5 -6h135q83 4 144.5 10.5t94.5 23.5q6 4 28.5 24.5t22.5 56.5q-2 9 -6.5 26 t-21.5 38q-33 38 -78 43.5t-128 7.5h-110q-38 -5 -76 -6t-81 -5q-40 -2 -75.5 -8t-56.5 -43q-4 -6 -8.5 -18t-4.5 -29z" />
<glyph unicode="&#xe4;" horiz-adv-x="1597" d="M73 328q0 81 16.5 149t78.5 117q66 53 140 66t154 17h379q49 0 82.5 -3t61 -12.5t56 -26.5t67.5 -47v93q0 37 -5.5 63.5t-33.5 54.5q-28 24 -63 34q-28 6 -73 6q-21 0 -45 -2h-238q-53 0 -76 -7t-35 -25q-9 -13 -23 -53l-392 2q0 4 1 18t4 33.5t7 40.5t11 40q16 43 72 95 t163 78q63 16 187 21.5t287 10.5h51q166 -4 275 -16t177 -51q19 -10 53.5 -38.5t61.5 -84.5q18 -39 26 -79t10 -121v-701h-390v179q-24 -41 -40.5 -67.5t-33.5 -44.5t-34.5 -28.5t-38.5 -19.5q-95 -43 -325 -43q-57 0 -115 2.5t-116 6.5q-10 0 -33.5 2.5t-55.5 6.5t-67 14.5 t-68 29.5q-26 15 -47.5 37.5t-37.5 55.5t-25.5 81t-9.5 116zM405 1161v232h315v-232h-315zM469 349q0 -16 9.5 -47.5t45.5 -47.5q26 -15 71.5 -20.5t107.5 -5.5q61 0 121 1t121 7q41 4 79.5 11t64.5 40q21 28 21 65q0 6 -1 14t-6 22q-12 28 -39 42.5t-59 21t-64 6.5h-55 q-75 0 -144 2h-14q-63 0 -132 -11q-4 0 -17.5 -2t-32 -7t-36.5 -15t-28 -25q-7 -10 -10 -24t-3 -27zM860 1159v231h311v-231h-311z" />
<glyph unicode="&#xe5;" horiz-adv-x="1590" d="M79 311q0 73 9.5 124t27.5 86t42.5 57.5t54.5 39.5q75 42 161 49.5t163 9.5h268q32 2 55 2h24q32 -2 56.5 -5t45 -10.5t40.5 -17.5q24 -11 47.5 -27t46.5 -31v81q-4 47 -12.5 85t-42.5 57q-24 15 -66 20.5t-105 5.5h-274q-11 0 -24 -4q-26 -4 -39.5 -18t-30.5 -59h-392 q2 15 2 28q0 15 4 27q5 32 22 82t80 99q41 30 91.5 48.5t114.5 29t144.5 13.5t180.5 6h203q95 -2 170 -8t132 -20.5t100 -41.5t75 -67q45 -60 55 -121.5t12 -131.5v-699h-386v196q-26 -58 -42.5 -84.5t-39.5 -48.5q-91 -85 -377 -84h-63q-31 0 -61 2q-30 0 -56 1t-56 1 q-11 0 -41 2.5t-68 9.5t-81.5 23t-80.5 45q-36 31 -62.5 84.5t-26.5 163.5zM477 347q0 -34 21.5 -63.5t50.5 -41.5q24 -8 64.5 -9t95.5 -5h111q42 2 82.5 4t83.5 6q49 4 71.5 14t39.5 29q6 6 15.5 21t9.5 39q0 15 -12.5 50t-52.5 52q-19 6 -58.5 9.5t-91.5 7.5h-159 q-79 0 -129 -4.5t-84 -20.5q-37 -17 -47.5 -45t-10.5 -43zM490 1355q0 17 4 33q6 26 24.5 48.5t39.5 39.5q49 36 102 44.5t109 11.5q16 2 33.5 3t34.5 1q151 -2 218 -56.5t67 -135.5q0 -49 -18 -76.5t-31 -38.5q-30 -28 -92.5 -48t-157.5 -20h-28q-24 0 -58 3t-72.5 9.5 t-66.5 19.5q-36 14 -61 43q-28 30 -41 74q-6 24 -6 45zM628 1357q0 -4 2 -13t13 -21q21 -26 45.5 -30t53.5 -4h110q18 -3 32 -3q6 0 10 3q13 0 28 4q21 8 39.5 26t18.5 36q0 17 -17.5 28.5t-35.5 18.5q-37 14 -69 14q-30 0 -59 -2q-28 0 -69.5 -3t-77.5 -23q-24 -12 -24 -31 z" />
<glyph unicode="&#xe6;" horiz-adv-x="2659" d="M71 343q0 64 9 108.5t25.5 75.5t38.5 51t45 36q69 42 142.5 50.5t147.5 10.5h273q30 0 60.5 -1t63.5 -1q46 0 76 -3t55.5 -12.5t51 -27.5t61.5 -47q0 24 2 49v16q0 17 -2 31q0 32 -6 57.5t-32 49.5q-39 37 -88 41t-98 6q-34 0 -65.5 1t-66.5 1q-30 0 -57.5 -1t-56.5 -1 h-34q-28 0 -47 -10q-15 -7 -24.5 -22t-24.5 -49h-402v32q0 17 4 33q4 29 17.5 72.5t67.5 92.5q38 36 85 55.5t98 28.5t105 12.5t110 3.5h298q42 0 90 -2.5t96.5 -10.5t93 -23t80.5 -40q23 -17 38.5 -35.5t31.5 -41.5q13 18 37.5 49.5t80.5 58.5q61 30 131.5 35t140.5 8h291 q24 0 49.5 -1.5t51.5 -1.5q13 0 57.5 -4t100 -20t112 -49t94.5 -90q33 -47 47.5 -106.5t20.5 -122.5q6 -55 7 -106v-16q-2 -62 -5 -114l-1041 -2q0 -36 3 -70t25 -68q21 -37 48.5 -50.5t65.5 -18.5q45 -6 87.5 -7t85.5 -1h90q28 0 53.5 1t55.5 3q6 2 34.5 4t47.5 18 q21 14 32 39.5t22 56.5h396q-2 -53 -8.5 -92.5t-31.5 -86.5q-55 -102 -191 -148t-362 -46q-51 0 -101.5 1t-101.5 1q-41 0 -96.5 1t-114 7.5t-113 20.5t-92.5 41q-21 15 -36 34t-40 66q-11 -19 -20 -31q-17 -24 -44 -49.5t-86 -46.5q-55 -19 -125.5 -30t-191.5 -11h-145 q-85 0 -165 1.5t-170 21.5q-16 4 -63 20.5t-90 50.5q-53 45 -74 115t-21 149zM469 339q0 -10 4 -24t17 -32q28 -30 68 -37.5t117 -9.5q32 -2 62 -2h64q81 0 164 6q2 0 12.5 1t25.5 4t32 7t30 10q21 10 36 31.5t15 47.5q0 32 -23 59q-34 43 -77 48t-85 8h-236 q-24 0 -47.5 -1.5t-46.5 -3.5q-6 0 -31 -2t-44 -12q-36 -19 -46.5 -52t-10.5 -46zM1500 673h656q-8 45 -18 76t-32.5 48.5t-63 26.5t-113.5 9h-204q-36 0 -72 -2q-53 -4 -96 -34q-19 -17 -30 -33t-15 -22q-4 -13 -6 -27z" />
<glyph unicode="&#xe7;" horiz-adv-x="1594" d="M66 543q0 6 2.5 59.5t17 123t46.5 140.5t92 116q81 59 238.5 80.5t376.5 21.5q75 0 148.5 -3.5t150.5 -11.5q115 -12 205 -47.5t146 -137.5q33 -61 38 -120t5 -125h-398q-5 23 -8.5 40.5t-19.5 33.5q-11 13 -25 23t-29 16q-30 10 -87.5 19t-135.5 9q-39 0 -77.5 -2.5 t-78.5 -6.5q-49 -5 -75.5 -12t-44.5 -17q-32 -19 -48.5 -52.5t-24 -68.5t-8.5 -63t-1 -36q0 -85 26.5 -136t58.5 -69q31 -19 93 -25.5t146 -6.5q40 0 78.5 1t81.5 4q6 0 22.5 1t39 5.5t46 14.5t43.5 30q18 21 25 41t11 51l400 -2q-4 -58 -8.5 -101t-11 -74.5t-16.5 -56 t-26 -46.5q-24 -37 -77 -77t-153 -64q-49 -10 -158.5 -21.5t-250.5 -11.5q-46 0 -91 1t-90 3q-152 9 -246.5 27t-155.5 51q-36 21 -63 47t-44 50.5t-27.5 46t-15.5 33.5q-16 43 -29 120t-13 185zM471 -209l349 177l137 -224l-406 -96z" />
<glyph unicode="&#xe8;" horiz-adv-x="1594" d="M81 549q0 21 1 40.5t1 40.5q9 141 52.5 221t92.5 118q51 41 124.5 63.5t153.5 32.5t156.5 13.5t136.5 3.5q75 0 151 -3.5t153 -13.5q111 -15 167.5 -40.5t99.5 -65.5q12 -11 37.5 -41t45.5 -72q17 -37 25.5 -74t12.5 -84q2 -34 2 -76v-29q-2 -57 -2 -134h-1005 q-2 -21 -2 -40q0 -9 2 -17q0 -28 6 -51.5t21 -42.5t43 -36q62 -36 127 -36h237q53 0 102 16q43 15 55 33q9 10 15.5 24t10.5 44l388 -2v-36q0 -17 -4 -35q-4 -30 -19 -76.5t-73 -97.5q-45 -41 -98 -63.5t-112 -32.5t-119 -13.5t-123 -3.5h-232q-30 2 -61 2q-30 0 -60 5 q-45 2 -94 9t-96.5 20t-91.5 33.5t-82 49.5q-17 12 -39.5 37t-46.5 70q-32 59 -45.5 133.5t-13.5 206.5zM486 660l620 2q-5 58 -14.5 84.5t-26.5 43.5q-28 24 -94 34.5t-148 10.5q-43 0 -85.5 -2t-85.5 -6q-40 -4 -74.5 -14t-61.5 -40q-26 -28 -28 -51q-2 -15 -2 -34v-28z M496 1252l83 254l520 -209l-47 -149z" />
<glyph unicode="&#xe9;" horiz-adv-x="1601" d="M100 549q0 21 1 40.5t1 40.5q8 141 52 221t94 118q50 41 123.5 63.5t153.5 32.5t156.5 13.5t135.5 3.5q75 0 152 -3.5t153 -13.5q110 -15 167 -40.5t99 -65.5q13 -11 39 -41t45 -72q16 -37 25 -74t13 -84q2 -34 2 -76v-29q-2 -57 -2 -134h-1006q-2 -21 -2 -40q0 -9 2 -17 q0 -28 7 -51.5t21.5 -42.5t42.5 -36q61 -36 128 -36h236q53 0 102 16q43 15 56 33q9 10 15 24t10 44l388 -2v-36q0 -17 -4 -35q-4 -30 -19 -76.5t-73 -97.5q-44 -41 -97.5 -63.5t-112 -32.5t-119.5 -13.5t-122 -3.5h-233q-30 2 -61 2q-30 0 -60 5q-44 2 -93 9t-97.5 20 t-92 33.5t-81.5 49.5q-16 12 -39 37t-46 70q-32 59 -46 133.5t-14 206.5zM504 660l620 2q-4 58 -13.5 84.5t-26.5 43.5q-28 24 -93.5 34.5t-149.5 10.5q-42 0 -85 -2t-85 -6q-41 -4 -74.5 -14t-61.5 -40q-26 -28 -29 -51q-2 -15 -2 -34v-28zM522 1310l522 210l80 -262 l-561 -102z" />
<glyph unicode="&#xea;" horiz-adv-x="1594" d="M85 549q0 21 1 40.5t1 40.5q9 141 52.5 221t92.5 118q51 41 125 63.5t153.5 32.5t156.5 13.5t136 3.5q75 0 151.5 -3.5t153.5 -13.5q110 -15 166.5 -40.5t99.5 -65.5q12 -11 37.5 -41t45.5 -72q17 -37 25.5 -74t13.5 -84q2 -34 2 -76v-29q-2 -57 -2 -134h-1006 q-2 -21 -2 -40q0 -9 2 -17q0 -28 6 -51.5t21 -42.5t44 -36q61 -36 127 -36h237q53 0 101 16q43 15 56 33q8 10 14.5 24t11.5 44l388 -2v-36q0 -17 -5 -35q-4 -30 -19 -76.5t-72 -97.5q-45 -41 -98.5 -63.5t-112.5 -32.5t-119 -13.5t-123 -3.5h-231q-31 2 -62 2q-30 0 -60 5 q-45 2 -94 9t-96.5 20t-91.5 33.5t-82 49.5q-17 12 -39.5 37t-45.5 70q-33 59 -46.5 133.5t-13.5 206.5zM347 1252l458 286l455 -292l-59 -124l-396 138l-403 -138zM490 660l620 2q-4 58 -14 84.5t-27 43.5q-28 24 -94 34.5t-148 10.5q-43 0 -85.5 -2t-85.5 -6 q-40 -4 -74.5 -14t-61.5 -40q-26 -28 -28 -51q-2 -15 -2 -34v-28z" />
<glyph unicode="&#xeb;" horiz-adv-x="1594" d="M96 549q0 21 1 40.5t1 40.5q8 141 51.5 221t92.5 118q51 41 125 63.5t154 32.5t156.5 13.5t135.5 3.5q75 0 151.5 -3.5t153.5 -13.5q110 -15 167 -40.5t99 -65.5q13 -11 39 -41t44 -72q17 -37 26 -74t13 -84q2 -34 2 -76v-29q-2 -57 -2 -134h-1006q-2 -21 -2 -40 q0 -9 2 -17q0 -28 7 -51.5t21.5 -42.5t42.5 -36q61 -36 128 -36h236q53 0 102 16q43 15 56 33q8 10 14.5 24t10.5 44l388 -2v-36q0 -17 -4 -35q-4 -30 -19.5 -76.5t-72.5 -97.5q-44 -41 -98 -63.5t-112 -32.5t-119 -13.5t-122 -3.5h-233q-30 2 -61 2t-60 5q-44 2 -93.5 9 t-97.5 20t-91.5 33.5t-82.5 49.5q-16 12 -38.5 37t-45.5 70q-32 59 -46 133.5t-14 206.5zM433 1154v230h309v-230h-309zM500 660l620 2q-4 58 -13.5 84.5t-26.5 43.5q-29 24 -94.5 34.5t-148.5 10.5q-42 0 -85 -2t-85 -6q-41 -4 -75 -14t-62 -40q-26 -28 -28 -51 q-2 -15 -2 -34v-28zM884 1156v230h315v-230h-315z" />
<glyph unicode="&#xec;" horiz-adv-x="744" d="M75 1252l81 254l521 -209l-47 -149zM177 0v1065h398v-1065h-398z" />
<glyph unicode="&#xed;" horiz-adv-x="744" d="M79 1310l524 210l80 -262l-561 -102zM177 0v1065h398v-1065h-398z" />
<glyph unicode="&#xee;" horiz-adv-x="744" d="M-96 1252l458 286l455 -292l-59 -124l-396 138l-403 -138zM162 0v1065h399v-1065h-399z" />
<glyph unicode="&#xef;" horiz-adv-x="744" d="M-4 1154v230h309v-230h-309zM177 0v1065h398v-1065h-398zM447 1156v230h315v-230h-315z" />
<glyph unicode="&#xf0;" horiz-adv-x="1594" d="M79 453q0 -44 3 -89t11.5 -87.5t26.5 -83t51 -73.5q42 -47 103 -74t120 -40q21 -4 40 -5t37 -5q45 -4 88.5 -5t88.5 -3q87 -7 179 -7q85 0 171 6.5t173 12.5q63 12 123.5 31.5t113.5 66.5q8 8 27.5 29.5t31.5 49.5q19 34 28 74.5t13 83.5q4 51 7 99t3 96q0 31 -1 55 t-3 54q-4 68 -18 133t-63 120q-53 64 -128.5 85.5t-160.5 36.5q-85 4 -169.5 8t-169.5 4q-89 0 -175.5 -5t-173.5 -11q-75 -11 -143 -28t-130 -68q-57 -51 -74 -115t-24 -143q-6 -103 -6 -203zM349 1778l92 -209h96q72 -4 117 -10t79 -25q37 -19 59.5 -57t38.5 -77h-335 l92 -213h339l248 -571l339 97l-204 472h196l-92 215h-200l-34 74q-8 14 -16 29t-14 31q-14 24 -47.5 67t-106.5 88q-40 28 -82 43.5t-95 25.5t-115.5 14t-142.5 6h-212zM456 492q0 49 3 96.5t33 90.5q26 37 58.5 46.5t77.5 16.5q57 8 84 9t59 1q57 0 123 -6q35 -2 65 -2 t56 -7t50 -21.5t45 -44.5q28 -41 31 -72.5t3 -47.5t-1 -33.5t-3 -33.5q-2 -37 -4 -73.5t-18 -65.5q-8 -14 -24.5 -31.5t-56.5 -32.5q-51 -15 -100 -18t-61 -3q-33 0 -65.5 1t-64.5 3l-73 6q-61 5 -92.5 8t-56.5 20q-16 11 -25 22.5t-13 16.5q-26 38 -28 76t-2 79z" />
<glyph unicode="&#xf1;" horiz-adv-x="1805" d="M164 0v1065h389v-187q13 24 30 49q11 16 34.5 44t70.5 51q35 19 72 31t83.5 18t106.5 9.5t136 3.5q18 0 59.5 -1t94.5 -10.5t113.5 -31t116.5 -63.5q30 -24 55.5 -53t41.5 -61q21 -42 32 -93t17 -151v-620h-393v575q0 34 -7 61q-11 41 -31 64.5t-42.5 36.5t-42.5 17 t-33 6q-10 2 -41.5 4t-66 4.5t-66 3.5t-39.5 1q-32 0 -54 -3.5t-36 -5.5q-10 -2 -34.5 -9t-53 -22t-56.5 -39.5t-43 -59.5q-12 -30 -16.5 -64.5t-4.5 -105.5v-464h-392zM398 1163q13 68 23 102t24 64q8 17 27.5 46t51.5 56.5t78 47t107 19.5q55 0 92.5 -13t56.5 -24 q43 -19 83.5 -39t89.5 -20q4 0 19 1t30 5q36 11 51 36.5t28 59.5h191q-8 -64 -23 -120.5t-57 -107.5q-24 -28 -77 -63t-147 -38q-55 2 -96 14t-58 21q-42 16 -85 34.5t-91 18.5q-24 0 -36.5 -3.5t-21.5 -7.5q-24 -8 -38.5 -26.5t-36.5 -62.5h-185z" />
<glyph unicode="&#xf2;" horiz-adv-x="1701" d="M94 479q0 105 6 214q6 83 24 149.5t81 120.5q63 55 135.5 73.5t149.5 28.5q93 6 183.5 11.5t184.5 5.5q89 0 178.5 -4.5t179.5 -8.5q89 -14 169 -37.5t135 -90.5q51 -59 66.5 -127t19.5 -141q2 -30 3 -56.5t1 -55.5q0 -51 -3 -102.5t-7 -104.5q-5 -45 -14 -87.5 t-29 -79.5q-15 -30 -34 -52t-30 -31q-55 -49 -118 -69t-131 -35q-92 -6 -182.5 -12.5t-179.5 -6.5q-98 0 -189 7q-47 2 -93.5 3t-93.5 5q-18 4 -38.5 6t-41.5 6q-63 13 -127.5 41t-109.5 77q-34 36 -51.5 79t-27.5 88.5t-13 92.5t-3 93zM490 520q0 -43 3 -83.5t29 -80.5 q4 -4 13.5 -17t27.5 -24q28 -17 59.5 -21t97.5 -9l77 -6q34 -2 68 -3t68 -1q12 0 64.5 3t105.5 20q43 15 60 33t26 33q14 32 16 70.5t7 77.5q2 16 3 34.5t1 34.5q0 17 -4.5 50.5t-31.5 75.5q-24 32 -48 48t-52 22.5t-60 6.5t-68 2q-69 6 -129 6q-33 0 -61.5 -1t-88.5 -9 q-47 -6 -82 -17t-63 -49q-30 -45 -34 -95t-4 -101zM543 1252l81 254l522 -209l-47 -149z" />
<glyph unicode="&#xf3;" d="M94 479q0 105 6 214q6 83 24 149.5t81 120.5q63 55 135.5 73.5t149.5 28.5q93 6 183.5 11.5t184.5 5.5q89 0 178.5 -4.5t179.5 -8.5q89 -14 169 -37.5t135 -90.5q51 -59 66.5 -127t19.5 -141q2 -30 3 -56.5t1 -55.5q0 -51 -3 -102.5t-7 -104.5q-5 -45 -14 -87.5 t-29 -79.5q-15 -30 -34 -52t-30 -31q-55 -49 -118 -69t-131 -35q-92 -6 -182.5 -12.5t-179.5 -6.5q-98 0 -189 7q-47 2 -93.5 3t-93.5 5q-18 4 -38.5 6t-41.5 6q-63 13 -127.5 41t-109.5 77q-34 36 -51.5 79t-27.5 88.5t-13 92.5t-3 93zM490 520q0 -43 3 -83.5t29 -80.5 q4 -4 13.5 -17t27.5 -24q28 -17 59.5 -21t97.5 -9l77 -6q34 -2 68 -3t68 -1q12 0 64.5 3t105.5 20q43 15 60 33t26 33q14 32 16 70.5t7 77.5q2 16 3 34.5t1 34.5q0 17 -4.5 50.5t-31.5 75.5q-24 32 -48 48t-52 22.5t-60 6.5t-68 2q-69 6 -129 6q-33 0 -61.5 -1t-88.5 -9 q-47 -6 -82 -17t-63 -49q-30 -45 -34 -95t-4 -101zM547 1310l524 210l81 -262l-562 -102z" />
<glyph unicode="&#xf4;" d="M94 479q0 105 6 214q6 83 24 149.5t81 120.5q63 55 135.5 73.5t149.5 28.5q93 6 183.5 11.5t184.5 5.5q89 0 178.5 -4.5t179.5 -8.5q89 -14 169 -37.5t135 -90.5q51 -59 66.5 -127t19.5 -141q2 -30 3 -56.5t1 -55.5q0 -51 -3 -102.5t-7 -104.5q-5 -45 -14 -87.5 t-29 -79.5q-15 -30 -34 -52t-30 -31q-55 -49 -118 -69t-131 -35q-92 -6 -182.5 -12.5t-179.5 -6.5q-98 0 -189 7q-47 2 -93.5 3t-93.5 5q-18 4 -38.5 6t-41.5 6q-63 13 -127.5 41t-109.5 77q-34 36 -51.5 79t-27.5 88.5t-13 92.5t-3 93zM396 1252l458 286l453 -292l-59 -124 l-394 138l-405 -138zM490 520q0 -43 3 -83.5t29 -80.5q4 -4 13.5 -17t27.5 -24q28 -17 59.5 -21t97.5 -9l77 -6q34 -2 68 -3t68 -1q12 0 64.5 3t105.5 20q43 15 60 33t26 33q14 32 16 70.5t7 77.5q2 16 3 34.5t1 34.5q0 17 -4.5 50.5t-31.5 75.5q-24 32 -48 48t-52 22.5 t-60 6.5t-68 2q-69 6 -129 6q-33 0 -61.5 -1t-88.5 -9q-47 -6 -82 -17t-63 -49q-30 -45 -34 -95t-4 -101z" />
<glyph unicode="&#xf5;" d="M94 479q0 105 6 214q6 83 24 149.5t81 120.5q63 55 135.5 73.5t149.5 28.5q93 6 183.5 11.5t184.5 5.5q89 0 178.5 -4.5t179.5 -8.5q89 -14 169 -37.5t135 -90.5q51 -59 66.5 -127t19.5 -141q2 -30 3 -56.5t1 -55.5q0 -51 -3 -102.5t-7 -104.5q-5 -45 -14 -87.5 t-29 -79.5q-15 -30 -34 -52t-30 -31q-55 -49 -118 -69t-131 -35q-92 -6 -182.5 -12.5t-179.5 -6.5q-98 0 -189 7q-47 2 -93.5 3t-93.5 5q-18 4 -38.5 6t-41.5 6q-63 13 -127.5 41t-109.5 77q-34 36 -51.5 79t-27.5 88.5t-13 92.5t-3 93zM376 1163q13 68 23 102t25 64 q9 17 28 46t51 56.5t77.5 47t107.5 19.5q56 0 92.5 -13t56.5 -24q43 -19 83.5 -39t89.5 -20q4 0 19 1t30 5q36 11 50.5 36.5t28.5 59.5h191q-8 -64 -23 -120.5t-58 -107.5q-24 -28 -77 -63t-147 -38q-55 2 -95.5 14t-56.5 21q-43 16 -85.5 34.5t-91.5 18.5q-24 0 -36.5 -3.5 t-22.5 -7.5q-23 -8 -38 -26.5t-35 -62.5h-187zM490 520q0 -43 3 -83.5t29 -80.5q4 -4 13.5 -17t27.5 -24q28 -17 59.5 -21t97.5 -9l77 -6q34 -2 68 -3t68 -1q12 0 64.5 3t105.5 20q43 15 60 33t26 33q14 32 16 70.5t7 77.5q2 16 3 34.5t1 34.5q0 17 -4.5 50.5t-31.5 75.5 q-24 32 -48 48t-52 22.5t-60 6.5t-68 2q-69 6 -129 6q-33 0 -61.5 -1t-88.5 -9q-47 -6 -82 -17t-63 -49q-30 -45 -34 -95t-4 -101z" />
<glyph unicode="&#xf6;" horiz-adv-x="1701" d="M92 473q0 49 1 96t3 96q4 79 15 143t64 127q10 10 28.5 29.5t48.5 39.5q85 53 237 70t371 17q73 0 143 -2.5t143 -6.5q90 -5 175 -21.5t157 -74.5q61 -49 95.5 -132t34.5 -238v-60q0 -30 -2 -60q0 -57 -2 -112.5t-14.5 -108.5t-39.5 -100t-78 -86q-51 -40 -104 -58.5 t-73 -22.5q-64 -14 -161 -18.5t-248 -6.5h-140q-169 0 -281.5 16t-181.5 52q-47 24 -73.5 51.5t-38.5 44.5q-58 77 -68.5 156t-10.5 170zM471 1161v229h309v-229h-309zM490 469q0 -10 3 -33t14 -48.5t32.5 -49t58.5 -35.5q36 -11 93 -14.5t138 -7.5q28 0 55.5 -1t56.5 -1h28 q28 0 64 5.5t73.5 19t62.5 39.5q8 9 16 23t14 36q2 13 5 37.5t5.5 51.5t3.5 51.5t1 36.5q0 37 -7.5 69.5t-31.5 64.5q-21 31 -45 45.5t-52 21t-58 6.5t-63 2q-35 2 -68 4.5t-66 2.5q-35 0 -67 -2.5t-68 -6.5q-72 -6 -103.5 -20t-52.5 -46q-32 -47 -37 -100t-5 -104v-47z M920 1159v231h313v-231h-313z" />
<glyph unicode="&#xf7;" horiz-adv-x="1415" d="M43 484v270h1421v-270h-1421zM526 728v424h453v-424h-453zM528 87v417h451v-417h-451z" />
<glyph unicode="&#xf8;" horiz-adv-x="1809" d="M55 -30v186l134 70q-10 36 -16.5 63.5t-10.5 60t-4 74.5q-2 13 -2 29q0 33 2 77v77q2 49 5 97t13.5 92.5t31 85t56.5 75.5q37 36 77.5 54t86.5 30q43 13 83 19.5t89.5 11.5t111 7.5t146.5 6.5q110 6 226 7h40q39 0 93.5 -4.5t113.5 -14t106 -28.5q19 -8 39 -20t56 -36 l238 130v-179l-144 -81q14 -43 23.5 -72.5t14 -56t4.5 -58.5v-209q0 -55 -3.5 -104t-15 -92.5t-36 -83t-69.5 -74.5q-44 -36 -91 -56t-103 -30q-24 -4 -71.5 -10t-111.5 -11t-138 -9t-151 -4q-108 0 -220 6q-51 2 -101.5 5t-98.5 18q-45 12 -90 34t-87 43zM532 553 q0 -28 2.5 -52t8.5 -75l642 364q-73 9 -144.5 14t-144.5 5q-93 0 -168.5 -10.5t-105.5 -29.5q-32 -17 -61 -71.5t-29 -144.5zM643 303q18 -9 33 -14.5t30.5 -9.5t36.5 -6.5t58 -2.5h221q53 5 115 18t105 55q6 6 12 14.5t14 26.5q16 42 18 112v22q0 63 -6 149z" />
<glyph unicode="&#xf9;" d="M122 422v643h394v-586q0 -14 3 -33.5t9.5 -40.5t20.5 -41q24 -32 54.5 -45.5t67.5 -20.5q16 -2 73 -5t112 -3q57 0 126.5 8.5t118.5 44.5q28 21 47 53q24 39 27 79.5t5 52.5v537h394v-1065h-392v185q-30 -53 -56.5 -87.5t-84.5 -61.5q-41 -20 -85 -31t-91.5 -16.5 t-93.5 -5.5h-145q-45 0 -105.5 7.5t-127.5 25.5t-118 55q-43 30 -67.5 63.5t-32.5 48.5q-28 53 -37.5 115t-15.5 124zM547 1252l81 254l522 -209l-47 -149z" />
<glyph unicode="&#xfa;" horiz-adv-x="1701" d="M122 422v643h394v-586q0 -14 3 -33.5t9.5 -40.5t20.5 -41q24 -32 54.5 -45.5t67.5 -20.5q16 -2 73 -5t112 -3q57 0 126.5 8.5t118.5 44.5q28 21 47 53q24 39 27 79.5t5 52.5v537h394v-1065h-392v185q-30 -53 -56.5 -87.5t-84.5 -61.5q-41 -20 -85 -31t-91.5 -16.5 t-93.5 -5.5h-145q-45 0 -105.5 7.5t-127.5 25.5t-118 55q-43 30 -67.5 63.5t-32.5 48.5q-28 53 -37.5 115t-15.5 124zM545 1310l524 210l81 -262l-562 -102z" />
<glyph unicode="&#xfb;" d="M122 422v643h394v-586q0 -14 3 -33.5t9.5 -40.5t20.5 -41q24 -32 54.5 -45.5t67.5 -20.5q16 -2 73 -5t112 -3q57 0 126.5 8.5t118.5 44.5q28 21 47 53q24 39 27 79.5t5 52.5v537h394v-1065h-392v185q-30 -53 -56.5 -87.5t-84.5 -61.5q-41 -20 -85 -31t-91.5 -16.5 t-93.5 -5.5h-145q-45 0 -105.5 7.5t-127.5 25.5t-118 55q-43 30 -67.5 63.5t-32.5 48.5q-28 53 -37.5 115t-15.5 124zM392 1252l458 286l455 -292l-59 -124l-396 138l-403 -138z" />
<glyph unicode="&#xfc;" d="M118 460v605h398v-553q2 -43 7 -81.5t33 -74.5q35 -43 82 -50.5t104 -9.5q38 -2 73 -4t71 -2q17 0 68.5 3t108.5 30q40 19 63.5 45t35 57t15 69t5.5 83v488h397v-1065h-397v183q-16 -32 -34 -58.5t-42 -49.5q-47 -41 -137.5 -68.5t-226.5 -27.5q-47 0 -93 2t-93 7 q-42 4 -79.5 8t-78.5 14q-55 17 -92.5 42t-53.5 37q-45 39 -69.5 80.5t-38.5 87.5t-19 97t-7 106zM460 1165v239h315v-239h-315zM909 1161v234h316v-234h-316z" />
<glyph unicode="&#xfd;" horiz-adv-x="1599" d="M47 1065h428l307 -775l340 775h427l-41 -81l-579 -1250q-24 -47 -40.5 -71.5t-34.5 -42.5q-41 -40 -120.5 -69.5t-207.5 -29.5q-44 0 -90 2t-91 6v273h62q32 0 64 2q59 5 82.5 17.5t40.5 33.5q16 21 36 57.5t43 87.5h-151zM523 1284l352 441l199 -189l-439 -365z" />
<glyph unicode="&#xfe;" d="M153 -473v1538h399v-177q6 11 22 36.5t40 53.5q41 48 88.5 67.5t113.5 27.5q26 4 87.5 8.5t131.5 4.5q69 0 139 -5.5t139 -17.5q98 -19 154 -48t86 -58q10 -11 27.5 -30.5t33.5 -50.5q24 -49 34.5 -128t10.5 -201q0 -49 -1 -98t-5 -100q0 -8 -2 -28t-7.5 -45.5t-14.5 -54 t-25 -53.5q-15 -26 -32 -43l-25 -25q-45 -39 -96 -61t-104.5 -33.5t-109.5 -16t-110 -6.5q-30 0 -56 -1t-57 -1q-42 0 -89 3.5t-95 11.5t-92.5 23t-80.5 40q-31 21 -52 45t-44 52v-629h-408zM158 0v1504h391v-1504h-391zM555 526q0 -65 12 -113q17 -59 47 -87 q15 -15 31 -22.5t39 -11.5q32 -8 95 -14t144 -6q96 0 166 13t106 38q28 19 46 59t18 108q0 19 -1 39t-1 42q-2 55 -7.5 82.5t-17.5 51.5q-24 41 -87 64t-165 23h-49q-24 0 -47 -2h-57q-28 0 -58 -4q-36 -2 -74 -8.5t-69 -25.5q-28 -19 -47.5 -62.5t-23.5 -128.5v-35z" />
<glyph unicode="&#xff;" d="M89 1065h429l307 -775l340 775h426l-40 -81l-580 -1250q-24 -47 -40.5 -71.5t-34.5 -42.5q-40 -40 -119.5 -69.5t-207.5 -29.5q-45 0 -90.5 2t-90.5 6v273h61q33 0 65 2q59 5 82.5 17.5t39.5 33.5q17 21 37 57.5t43 87.5h-151zM524 1156v230h309v-230h-309zM890 1156v230 h315v-230h-315z" />
<glyph unicode="&#x100;" horiz-adv-x="2342" d="M24 0l834 1504h599l848 -1504h-522l-141 268h-969l-143 -268h-506zM634 1619v393h1059v-393h-1059zM841 586h633l-311 585z" />
<glyph unicode="&#x101;" horiz-adv-x="1597" d="M98 311q0 75 11.5 127t30.5 88.5t45 57.5t53 36q77 38 164.5 45.5t164.5 7.5h244q41 2 71 2h29q38 -2 72.5 -11.5t68.5 -28.5t80 -54v86q-2 30 -6 56.5t-14 49.5q-19 34 -64.5 46t-123.5 12h-268q-30 0 -48.5 -3t-31 -11t-22 -23.5t-18.5 -43.5l-392 2q4 36 7.5 65 t14.5 61q17 44 72 96t164 78q62 15 151 20t231 10h224q23 0 47 -1t48 -1q145 -9 225 -38.5t127 -82.5q55 -61 66.5 -131t11.5 -149v-679h-389l12 207q-16 -36 -31.5 -70.5t-43.5 -61.5q-42 -43 -133.5 -71t-230.5 -28q-59 0 -119 3.5t-121 5.5q-69 3 -136 14t-128 50 q-24 14 -44.5 33.5t-36.5 50.5t-25 74t-9 104zM308 1180v393h1059v-393h-1059zM490 349q0 -28 10 -47t18 -25q28 -37 71 -43t122 -6h134q83 4 145 10.5t93 23.5q7 4 29 24.5t22 56.5q-2 9 -6 26t-21 38q-32 38 -77.5 43.5t-129.5 7.5h-108q-38 -5 -76.5 -6t-81.5 -5 q-40 -2 -75 -8t-57 -43q-4 -6 -8 -18t-4 -29z" />
<glyph unicode="&#x102;" horiz-adv-x="2342" d="M24 0l834 1504h599l848 -1504h-522l-141 268h-969l-143 -268h-506zM669 1935v42h247v-2q-10 -14 -11 -38q0 -13 4.5 -25t6.5 -16q11 -24 34 -30t54 -8l191 -7q47 2 80.5 6.5t51.5 15.5q21 13 30 45q4 26 6 59h241q-2 -40 -4 -73q-3 -40 -10 -70.5t-20 -53t-37 -41.5 q-36 -30 -76.5 -40t-84.5 -16q-62 -4 -121.5 -8.5t-122.5 -4.5q-61 0 -121 4.5t-119 8.5q-10 2 -22 3t-23 3q-8 2 -26 7t-41.5 15t-46 28.5t-36.5 46.5q-11 24 -17.5 60t-6.5 89zM841 586h633l-311 585z" />
<glyph unicode="&#x103;" horiz-adv-x="1597" d="M90 311q0 75 11.5 127t30.5 88.5t45 57.5t53 36q77 38 164.5 45.5t164.5 7.5h244q41 2 71 2h29q38 -2 72.5 -11.5t68.5 -28.5t80 -54v86q-2 30 -6 56.5t-14 49.5q-19 34 -64.5 46t-123.5 12h-268q-30 0 -48.5 -3t-31 -11t-22 -23.5t-18.5 -43.5l-392 2q4 36 7.5 65 t14.5 61q17 44 72 96t164 78q62 15 151 20t231 10h224q23 0 47 -1t48 -1q145 -9 225 -38.5t127 -82.5q55 -61 66.5 -131t11.5 -149v-679h-389l12 207q-16 -36 -31.5 -70.5t-43.5 -61.5q-42 -43 -133.5 -71t-230.5 -28q-59 0 -119 3.5t-121 5.5q-69 3 -136 14t-128 50 q-24 14 -44.5 33.5t-36.5 50.5t-25 74t-9 104zM377 1482v42h247v-2q-10 -14 -11 -38q0 -13 4.5 -25t6.5 -16q11 -24 34 -30t54 -8l191 -7q47 2 80.5 6.5t51.5 15.5q21 13 30 45q4 26 6 59h241q-2 -40 -4 -73q-3 -40 -10 -70.5t-20 -53t-37 -41.5q-36 -30 -76.5 -40 t-84.5 -16q-62 -4 -121.5 -8.5t-122.5 -4.5q-61 0 -121 4.5t-119 8.5q-10 2 -22 3t-23 3q-8 2 -26 7t-41.5 15t-46 28.5t-36.5 46.5q-11 24 -17.5 60t-6.5 89zM482 349q0 -28 10 -47t18 -25q28 -37 71 -43t122 -6h134q83 4 145 10.5t93 23.5q7 4 29 24.5t22 56.5q-2 9 -6 26 t-21 38q-32 38 -77.5 43.5t-129.5 7.5h-108q-38 -5 -76.5 -6t-81.5 -5q-40 -2 -75 -8t-57 -43q-4 -6 -8 -18t-4 -29z" />
<glyph unicode="&#x104;" horiz-adv-x="2342" d="M24 0l834 1504h599l848 -1504h-522l-141 268h-969l-143 -268h-506zM841 586h633l-311 585zM1778 89q0 1 1.5 10t5 21t6.5 25.5t9 24.5q10 23 45.5 58.5t112.5 53.5q34 8 78.5 11t91.5 5h89q45 -2 77 -3l-2 -174q-55 -1 -88.5 -6t-53.5 -17t-30.5 -35.5t-20.5 -61.5h136 v-313h-457v401z" />
<glyph unicode="&#x105;" horiz-adv-x="1597" d="M90 311q0 75 11.5 127t30.5 88.5t45 57.5t53 36q77 38 164.5 45.5t164.5 7.5h244q41 2 71 2h29q38 -2 72.5 -11.5t68.5 -28.5t80 -54v86q-2 30 -6 56.5t-14 49.5q-19 34 -64.5 46t-123.5 12h-268q-30 0 -48.5 -3t-31 -11t-22 -23.5t-18.5 -43.5l-392 2q4 36 7.5 65 t14.5 61q17 44 72 96t164 78q62 15 151 20t231 10h224q23 0 47 -1t48 -1q145 -9 225 -38.5t127 -82.5q55 -61 66.5 -131t11.5 -149v-679h-389l12 207q-16 -36 -31.5 -70.5t-43.5 -61.5q-42 -43 -133.5 -71t-230.5 -28q-59 0 -119 3.5t-121 5.5q-69 3 -136 14t-128 50 q-24 14 -44.5 33.5t-36.5 50.5t-25 74t-9 104zM482 349q0 -28 10 -47t18 -25q28 -37 71 -43t122 -6h134q83 4 145 10.5t93 23.5q7 4 29 24.5t22 56.5q-2 9 -6 26t-21 38q-32 38 -77.5 43.5t-129.5 7.5h-108q-38 -5 -76.5 -6t-81.5 -5q-40 -2 -75 -8t-57 -43q-4 -6 -8 -18 t-4 -29zM1008 106q0 1 1.5 9.5t5 20.5t6.5 26t9 25q10 23 45.5 58.5t112.5 53.5q34 9 78.5 12t91.5 4h89q45 -1 77 -3l-2 -174q-55 -2 -88.5 -6t-53.5 -16.5t-30.5 -36t-20.5 -61.5h136v-313h-457v401z" />
<glyph unicode="&#x106;" horiz-adv-x="2126" d="M96 752q0 83 5 165t9 165q10 74 26.5 133t65.5 120q42 51 94.5 82.5t102.5 49t89.5 24.5t58.5 11q130 10 260 16.5t262 6.5q134 0 265 -5.5t265 -9.5q81 -12 157.5 -32.5t141.5 -80.5q42 -39 65.5 -92t34 -110t13.5 -116t3 -110l-449 2q0 35 -4 61.5t-28 56.5 q-28 34 -68 42.5t-87 12.5q-66 4 -132.5 6t-133.5 2q-139 0 -281 -6q-17 0 -36.5 -1t-36.5 -3q-15 -2 -39 -7t-51.5 -18.5t-51.5 -39t-37 -69.5q-10 -35 -13.5 -98.5t-3.5 -147.5v-110q3 -61 11 -123t53 -103q26 -24 57.5 -37t60.5 -19t51 -8t29 -2h552q2 0 21 2t44.5 7 t52 17t44.5 33q24 28 28.5 67.5t8.5 82.5h459q0 -34 -1 -67t-3 -69q-2 -49 -7 -96t-17 -90.5t-35.5 -82t-64.5 -70.5q-61 -51 -132 -68.5t-144 -27.5q-122 -8 -244 -12.5t-242 -4.5q-134 0 -265 3.5t-266 7.5q-104 16 -202 39.5t-171 92.5q-73 65 -94.5 141t-33.5 170 q-6 79 -11 157.5t-5 159.5zM882 1723l352 441l199 -189l-439 -365z" />
<glyph unicode="&#x107;" horiz-adv-x="1594" d="M72 543q0 6 2.5 59.5t17 123t46.5 140.5t92 116q81 59 238.5 80.5t376.5 21.5q75 0 148.5 -3.5t150.5 -11.5q115 -12 205 -47.5t146 -137.5q33 -61 38 -120t5 -125h-398q-5 23 -8.5 40.5t-19.5 33.5q-11 13 -25 23t-29 16q-30 10 -87.5 19t-135.5 9q-39 0 -77.5 -2.5 t-78.5 -6.5q-49 -5 -75.5 -12t-44.5 -17q-32 -19 -48.5 -52.5t-24 -68.5t-8.5 -63t-1 -36q0 -85 26.5 -136t58.5 -69q31 -19 93 -25.5t146 -6.5q40 0 78.5 1t81.5 4q6 0 22.5 1t39 5.5t46 14.5t43.5 30q18 21 25 41t11 51l400 -2q-4 -58 -8.5 -101t-11 -74.5t-16.5 -56 t-26 -46.5q-24 -37 -77 -77t-153 -64q-49 -10 -158.5 -21.5t-250.5 -11.5q-46 0 -91 1t-90 3q-152 9 -246.5 27t-155.5 51q-36 21 -63 47t-44 50.5t-27.5 46t-15.5 33.5q-16 43 -29 120t-13 185zM563 1284l352 441l199 -189l-439 -365z" />
<glyph unicode="&#x108;" horiz-adv-x="2126" d="M94 752q0 83 5 165t9 165q10 74 26.5 133t65.5 120q42 51 94.5 82.5t102.5 49t89.5 24.5t58.5 11q130 10 260 16.5t262 6.5q134 0 265 -5.5t265 -9.5q81 -12 157.5 -32.5t141.5 -80.5q42 -39 65.5 -92t34 -110t13.5 -116t3 -110l-449 2q0 35 -4 61.5t-28 56.5 q-28 34 -68 42.5t-87 12.5q-66 4 -132.5 6t-133.5 2q-139 0 -281 -6q-17 0 -36.5 -1t-36.5 -3q-15 -2 -39 -7t-51.5 -18.5t-51.5 -39t-37 -69.5q-10 -35 -13.5 -98.5t-3.5 -147.5v-110q3 -61 11 -123t53 -103q26 -24 57.5 -37t60.5 -19t51 -8t29 -2h552q2 0 21 2t44.5 7 t52 17t44.5 33q24 28 28.5 67.5t8.5 82.5h459q0 -34 -1 -67t-3 -69q-2 -49 -7 -96t-17 -90.5t-35.5 -82t-64.5 -70.5q-61 -51 -132 -68.5t-144 -27.5q-122 -8 -244 -12.5t-242 -4.5q-134 0 -265 3.5t-266 7.5q-104 16 -202 39.5t-171 92.5q-73 65 -94.5 141t-33.5 170 q-6 79 -11 157.5t-5 159.5zM607 1691l460 286l453 -292l-59 -124l-394 138l-405 -138z" />
<glyph unicode="&#x109;" horiz-adv-x="1594" d="M62 543q0 6 2.5 59.5t17 123t46.5 140.5t92 116q81 59 238.5 80.5t376.5 21.5q75 0 148.5 -3.5t150.5 -11.5q115 -12 205 -47.5t146 -137.5q33 -61 38 -120t5 -125h-398q-5 23 -8.5 40.5t-19.5 33.5q-11 13 -25 23t-29 16q-30 10 -87.5 19t-135.5 9q-39 0 -77.5 -2.5 t-78.5 -6.5q-49 -5 -75.5 -12t-44.5 -17q-32 -19 -48.5 -52.5t-24 -68.5t-8.5 -63t-1 -36q0 -85 26.5 -136t58.5 -69q31 -19 93 -25.5t146 -6.5q40 0 78.5 1t81.5 4q6 0 22.5 1t39 5.5t46 14.5t43.5 30q18 21 25 41t11 51l400 -2q-4 -58 -8.5 -101t-11 -74.5t-16.5 -56 t-26 -46.5q-24 -37 -77 -77t-153 -64q-49 -10 -158.5 -21.5t-250.5 -11.5q-46 0 -91 1t-90 3q-152 9 -246.5 27t-155.5 51q-36 21 -63 47t-44 50.5t-27.5 46t-15.5 33.5q-16 43 -29 120t-13 185zM280 1252l460 286l453 -292l-59 -124l-394 138l-405 -138z" />
<glyph unicode="&#x10a;" horiz-adv-x="2126" d="M88 752q0 83 5 165t9 165q10 74 26.5 133t65.5 120q42 51 94.5 82.5t102.5 49t89.5 24.5t58.5 11q130 10 260 16.5t262 6.5q134 0 265 -5.5t265 -9.5q81 -12 157.5 -32.5t141.5 -80.5q42 -39 65.5 -92t34 -110t13.5 -116t3 -110l-449 2q0 35 -4 61.5t-28 56.5 q-28 34 -68 42.5t-87 12.5q-66 4 -132.5 6t-133.5 2q-139 0 -281 -6q-17 0 -36.5 -1t-36.5 -3q-15 -2 -39 -7t-51.5 -18.5t-51.5 -39t-37 -69.5q-10 -35 -13.5 -98.5t-3.5 -147.5v-110q3 -61 11 -123t53 -103q26 -24 57.5 -37t60.5 -19t51 -8t29 -2h552q2 0 21 2t44.5 7 t52 17t44.5 33q24 28 28.5 67.5t8.5 82.5h459q0 -34 -1 -67t-3 -69q-2 -49 -7 -96t-17 -90.5t-35.5 -82t-64.5 -70.5q-61 -51 -132 -68.5t-144 -27.5q-122 -8 -244 -12.5t-242 -4.5q-134 0 -265 3.5t-266 7.5q-104 16 -202 39.5t-171 92.5q-73 65 -94.5 141t-33.5 170 q-6 79 -11 157.5t-5 159.5zM866 1833q0 10 2.5 29.5t13.5 42.5q6 15 18.5 35.5t34 39.5t52.5 31.5t74 12.5q81 0 133 -54t52 -135q0 -45 -20 -83q-6 -11 -18.5 -29t-35 -36.5t-53.5 -30t-70 -11.5q-37 0 -70.5 15t-59 40.5t-39.5 59.5t-14 73z" />
<glyph unicode="&#x10b;" horiz-adv-x="1594" d="M68 543q0 6 2.5 59.5t17 123t46.5 140.5t92 116q81 59 238.5 80.5t376.5 21.5q75 0 148.5 -3.5t150.5 -11.5q115 -12 205 -47.5t146 -137.5q33 -61 38 -120t5 -125h-398q-5 23 -8.5 40.5t-19.5 33.5q-11 13 -25 23t-29 16q-30 10 -87.5 19t-135.5 9q-39 0 -77.5 -2.5 t-78.5 -6.5q-49 -5 -75.5 -12t-44.5 -17q-32 -19 -48.5 -52.5t-24 -68.5t-8.5 -63t-1 -36q0 -85 26.5 -136t58.5 -69q31 -19 93 -25.5t146 -6.5q40 0 78.5 1t81.5 4q6 0 22.5 1t39 5.5t46 14.5t43.5 30q18 21 25 41t11 51l400 -2q-4 -58 -8.5 -101t-11 -74.5t-16.5 -56 t-26 -46.5q-24 -37 -77 -77t-153 -64q-49 -10 -158.5 -21.5t-250.5 -11.5q-46 0 -91 1t-90 3q-152 9 -246.5 27t-155.5 51q-36 21 -63 47t-44 50.5t-27.5 46t-15.5 33.5q-16 43 -29 120t-13 185zM553 1394q0 10 2.5 29.5t13.5 42.5q6 15 18.5 35.5t34 39.5t52.5 31.5 t74 12.5q81 0 133 -54t52 -135q0 -45 -20 -83q-6 -11 -18.5 -29t-35 -36.5t-53.5 -30t-70 -11.5q-37 0 -70.5 15t-59 40.5t-39.5 59.5t-14 73z" />
<glyph unicode="&#x10c;" horiz-adv-x="2126" d="M94 752q0 83 5 165t9 165q10 74 26.5 133t65.5 120q42 51 94.5 82.5t102.5 49t89.5 24.5t58.5 11q130 10 260 16.5t262 6.5q134 0 265 -5.5t265 -9.5q81 -12 157.5 -32.5t141.5 -80.5q42 -39 65.5 -92t34 -110t13.5 -116t3 -110l-449 2q0 35 -4 61.5t-28 56.5 q-28 34 -68 42.5t-87 12.5q-66 4 -132.5 6t-133.5 2q-139 0 -281 -6q-17 0 -36.5 -1t-36.5 -3q-15 -2 -39 -7t-51.5 -18.5t-51.5 -39t-37 -69.5q-10 -35 -13.5 -98.5t-3.5 -147.5v-110q3 -61 11 -123t53 -103q26 -24 57.5 -37t60.5 -19t51 -8t29 -2h552q2 0 21 2t44.5 7 t52 17t44.5 33q24 28 28.5 67.5t8.5 82.5h459q0 -34 -1 -67t-3 -69q-2 -49 -7 -96t-17 -90.5t-35.5 -82t-64.5 -70.5q-61 -51 -132 -68.5t-144 -27.5q-122 -8 -244 -12.5t-242 -4.5q-134 0 -265 3.5t-266 7.5q-104 16 -202 39.5t-171 92.5q-73 65 -94.5 141t-33.5 170 q-6 79 -11 157.5t-5 159.5zM607 1841l53 121l403 -143l406 143l52 -121l-454 -294z" />
<glyph unicode="&#x10d;" horiz-adv-x="1594" d="M62 543q0 6 2.5 59.5t17 123t46.5 140.5t92 116q81 59 238.5 80.5t376.5 21.5q75 0 148.5 -3.5t150.5 -11.5q115 -12 205 -47.5t146 -137.5q33 -61 38 -120t5 -125h-398q-5 23 -8.5 40.5t-19.5 33.5q-11 13 -25 23t-29 16q-30 10 -87.5 19t-135.5 9q-39 0 -77.5 -2.5 t-78.5 -6.5q-49 -5 -75.5 -12t-44.5 -17q-32 -19 -48.5 -52.5t-24 -68.5t-8.5 -63t-1 -36q0 -85 26.5 -136t58.5 -69q31 -19 93 -25.5t146 -6.5q40 0 78.5 1t81.5 4q6 0 22.5 1t39 5.5t46 14.5t43.5 30q18 21 25 41t11 51l400 -2q-4 -58 -8.5 -101t-11 -74.5t-16.5 -56 t-26 -46.5q-24 -37 -77 -77t-153 -64q-49 -10 -158.5 -21.5t-250.5 -11.5q-46 0 -91 1t-90 3q-152 9 -246.5 27t-155.5 51q-36 21 -63 47t-44 50.5t-27.5 46t-15.5 33.5q-16 43 -29 120t-13 185zM343 1402l53 121l403 -143l406 143l52 -121l-454 -294z" />
<glyph unicode="&#x10e;" horiz-adv-x="2126" d="M61 0v1504h1401q59 0 121 -6q90 -9 156 -29t112.5 -48t77.5 -62t53 -70q53 -90 66 -192.5t17 -202.5v-296q0 -26 -2 -53q-5 -102 -21 -177.5t-42.5 -130t-62 -92t-77.5 -64.5q-85 -53 -170.5 -65t-181.5 -16h-1447zM529 362h809q30 0 66 6q69 11 107 41t57 73.5 t24.5 96.5t5.5 112v187q-4 53 -13.5 98.5t-50.5 88.5q-46 49 -112.5 59t-138.5 14h-754v-776zM541 1841l53 121l403 -143l406 143l52 -121l-454 -294z" />
<glyph unicode="&#x10f;" horiz-adv-x="2138" d="M17 458q0 48 2 95.5t5 96.5q0 8 1 30.5t3 51t8.5 60t16.5 60.5q8 21 26.5 51t60.5 66q45 37 92 58t97.5 32.5t102.5 16t103 6.5q32 2 63.5 3t63.5 1q9 0 48.5 -1t93.5 -8.5t113 -24.5t105 -50q30 -21 51.5 -47t44.5 -56v605h396v-1504h-386v198q-18 -37 -40.5 -71.5 t-50.5 -60.5q-47 -43 -133.5 -66.5t-226.5 -23.5q-55 0 -111.5 3.5t-118.5 8.5q-10 0 -40.5 2t-67 7t-77 17t-75.5 33q-65 38 -99.5 103t-50.5 130t-18 116t-2 62zM417 477q0 -24 7 -53.5t20.5 -60.5t41.5 -50q4 -4 15 -9.5t23 -9.5q37 -10 82.5 -13.5t119.5 -8.5h77 q81 3 135 7t91 22q36 14 55 43.5t27.5 60t9.5 56t1 31.5v53q-2 55 -8 106.5t-43 83.5q-40 37 -104 43t-113 8h-222q-8 0 -34.5 -1t-56.5 -10q-81 -24 -100 -78t-24 -134v-86zM1610 695l2 240h18q14 0 33.5 1t40.5 6t40 19q34 21 45 58.5t20 79.5h-135v405h452v-508 q0 -14 -2 -29q0 -12 -3.5 -32.5t-11 -45.5t-21 -51.5t-39.5 -51.5q-62 -63 -165 -79q-89 -12 -231 -12h-43z" />
<glyph unicode="&#x110;" horiz-adv-x="2126" d="M71 0v1504h1401q59 0 121 -6q90 -9 156 -29t112.5 -48t77.5 -62t53 -70q53 -90 66 -192.5t17 -202.5v-296q0 -26 -2 -53q-5 -102 -21 -177.5t-42.5 -130t-62 -92t-77.5 -64.5q-85 -53 -170.5 -65t-181.5 -16h-1447zM112 616v272h1108v-272h-1108zM539 362h809q30 0 66 6 q69 11 107 41t57 73.5t24.5 96.5t5.5 112v187q-4 53 -13.5 98.5t-50.5 88.5q-46 49 -112.5 59t-138.5 14h-754v-776z" />
<glyph unicode="&#x111;" horiz-adv-x="1597" d="M79 458q0 48 2 95.5t4 96.5q0 8 1 30.5t3 51t9 60t17 60.5q9 21 27 51t61 66q44 37 91 58t97 32.5t102.5 16t103.5 6.5q32 2 63.5 3t64.5 1q8 0 47.5 -1t93.5 -8.5t113 -24.5t106 -50q30 -21 50.5 -47t44.5 -56v605h396v-1504h-385v198q-19 -37 -41.5 -71.5t-50.5 -60.5 q-47 -43 -133 -66.5t-227 -23.5q-55 0 -111.5 3.5t-118.5 8.5q-10 0 -40 2t-67 7t-77.5 17t-75.5 33q-65 38 -99.5 103t-50.5 130t-18 116t-2 62zM479 477q0 -24 6.5 -53.5t20.5 -60.5t42 -50q4 -4 14.5 -9.5t23.5 -9.5q37 -10 82 -13.5t120 -8.5h77q81 3 135 7t91 22 q36 14 55.5 43.5t27.5 60t9 56t1 31.5v53q-2 55 -8 106.5t-43 83.5q-40 37 -104 43t-113 8h-221q-9 0 -35.5 -1t-56.5 -10q-81 -24 -100.5 -78t-23.5 -134v-86zM768 1145v272h1108v-272h-1108z" />
<glyph unicode="&#x112;" horiz-adv-x="1916" d="M126 0v1504h1680v-333h-1223v-251h1157v-315h-1157v-264h1223v-341h-1680zM415 1619v393h1059v-393h-1059z" />
<glyph unicode="&#x113;" horiz-adv-x="1594" d="M99 549q0 21 1 40.5t1 40.5q8 141 52 221t93 118q50 41 123.5 63.5t153.5 32.5t157 13.5t136 3.5q75 0 151.5 -3.5t153.5 -13.5q110 -15 167 -40.5t99 -65.5q13 -11 38.5 -41t45.5 -72q16 -37 24.5 -74t12.5 -84q2 -34 3 -76v-29q-2 -57 -3 -134h-1005q-2 -21 -2 -40 q0 -9 2 -17q0 -28 6.5 -51.5t21.5 -42.5t42 -36q61 -36 128 -36h237q53 0 102 16q43 15 55 33q9 10 15.5 24t10.5 44l387 -2v-36q0 -17 -4 -35q-4 -30 -18.5 -76.5t-73.5 -97.5q-44 -41 -97 -63.5t-112 -32.5t-119.5 -13.5t-122.5 -3.5h-232q-30 2 -62 2q-30 0 -60 5 q-44 2 -93 9t-97 20t-91.5 33.5t-82.5 49.5q-16 12 -38.5 37t-46.5 70q-32 59 -45.5 133.5t-13.5 206.5zM274 1180v393h1059v-393h-1059zM503 660l620 2q-4 58 -14 84.5t-26 43.5q-28 24 -94 34.5t-150 10.5q-42 0 -84.5 -2t-84.5 -6q-41 -4 -75 -14t-62 -40 q-26 -28 -27 -51q-3 -15 -3 -34v-28z" />
<glyph unicode="&#x114;" horiz-adv-x="1916" d="M124 0v1504h1680v-333h-1223v-251h1157v-315h-1157v-264h1223v-341h-1680zM476 1877v42h247v-2q-10 -14 -11 -38q0 -13 4.5 -25t6.5 -16q11 -24 34 -30t54 -8l191 -7q47 2 80.5 6.5t51.5 15.5q21 13 30 45q4 26 6 59h241q-2 -40 -4 -73q-3 -40 -10 -70.5t-20 -53 t-37 -41.5q-36 -30 -76.5 -40t-84.5 -16q-62 -4 -121.5 -8.5t-122.5 -4.5q-61 0 -121 4.5t-119 8.5q-10 2 -22 3t-23 3q-8 2 -26 7t-41.5 15t-46 28.5t-36.5 46.5q-11 24 -17.5 60t-6.5 89z" />
<glyph unicode="&#x115;" horiz-adv-x="1594" d="M81 549q0 21 1 40.5t1 40.5q8 141 52 221t93 118q50 41 123.5 63.5t153.5 32.5t157 13.5t136 3.5q75 0 151.5 -3.5t153.5 -13.5q110 -15 167 -40.5t99 -65.5q13 -11 38.5 -41t45.5 -72q16 -37 24.5 -74t12.5 -84q2 -34 3 -76v-29q-2 -57 -3 -134h-1005q-2 -21 -2 -40 q0 -9 2 -17q0 -28 6.5 -51.5t21.5 -42.5t42 -36q61 -36 128 -36h237q53 0 102 16q43 15 55 33q9 10 15.5 24t10.5 44l387 -2v-36q0 -17 -4 -35q-4 -30 -18.5 -76.5t-73.5 -97.5q-44 -41 -97 -63.5t-112 -32.5t-119.5 -13.5t-122.5 -3.5h-232q-30 2 -62 2q-30 0 -60 5 q-44 2 -93 9t-97 20t-91.5 33.5t-82.5 49.5q-16 12 -38.5 37t-46.5 70q-32 59 -45.5 133.5t-13.5 206.5zM264 1431v42h247v-2q-10 -14 -11 -38q0 -13 4.5 -25t6.5 -16q11 -24 34 -30t54 -8l191 -7q47 2 80.5 6.5t51.5 15.5q21 13 30 45q4 26 6 59h241q-2 -40 -4 -73 q-3 -40 -10 -70.5t-20 -53t-37 -41.5q-36 -30 -76.5 -40t-84.5 -16q-62 -4 -121.5 -8.5t-122.5 -4.5q-61 0 -121 4.5t-119 8.5q-10 2 -22 3t-23 3q-8 2 -26 7t-41.5 15t-46 28.5t-36.5 46.5q-11 24 -17.5 60t-6.5 89zM485 660l620 2q-4 58 -14 84.5t-26 43.5 q-28 24 -94 34.5t-150 10.5q-42 0 -84.5 -2t-84.5 -6q-41 -4 -75 -14t-62 -40q-26 -28 -27 -51q-3 -15 -3 -34v-28z" />
<glyph unicode="&#x116;" horiz-adv-x="1916" d="M135 0v1504h1680v-333h-1223v-251h1157v-315h-1157v-264h1223v-341h-1680zM764 1833q0 10 2.5 29.5t13.5 42.5q6 15 18.5 35.5t34 39.5t52.5 31.5t74 12.5q81 0 133 -54t52 -135q0 -45 -20 -83q-6 -11 -18.5 -29t-35 -36.5t-53.5 -30t-70 -11.5q-37 0 -70.5 15t-59 40.5 t-39.5 59.5t-14 73z" />
<glyph unicode="&#x117;" horiz-adv-x="1594" d="M94 549q0 21 1 40.5t1 40.5q8 141 52 221t93 118q50 41 123.5 63.5t153.5 32.5t157 13.5t136 3.5q75 0 151.5 -3.5t153.5 -13.5q110 -15 167 -40.5t99 -65.5q13 -11 38.5 -41t45.5 -72q16 -37 24.5 -74t12.5 -84q2 -34 3 -76v-29q-2 -57 -3 -134h-1005q-2 -21 -2 -40 q0 -9 2 -17q0 -28 6.5 -51.5t21.5 -42.5t42 -36q61 -36 128 -36h237q53 0 102 16q43 15 55 33q9 10 15.5 24t10.5 44l387 -2v-36q0 -17 -4 -35q-4 -30 -18.5 -76.5t-73.5 -97.5q-44 -41 -97 -63.5t-112 -32.5t-119.5 -13.5t-122.5 -3.5h-232q-30 2 -62 2q-30 0 -60 5 q-44 2 -93 9t-97 20t-91.5 33.5t-82.5 49.5q-16 12 -38.5 37t-46.5 70q-32 59 -45.5 133.5t-13.5 206.5zM498 660l620 2q-4 58 -14 84.5t-26 43.5q-28 24 -94 34.5t-150 10.5q-42 0 -84.5 -2t-84.5 -6q-41 -4 -75 -14t-62 -40q-26 -28 -27 -51q-3 -15 -3 -34v-28zM545 1394 q0 10 2.5 29.5t13.5 42.5q6 15 18.5 35.5t34 39.5t52.5 31.5t74 12.5q81 0 133 -54t52 -135q0 -45 -20 -83q-6 -11 -18.5 -29t-35 -36.5t-53.5 -30t-70 -11.5q-37 0 -70.5 15t-59 40.5t-39.5 59.5t-14 73z" />
<glyph unicode="&#x118;" horiz-adv-x="1916" d="M112 0v1504h1680v-333h-1223v-251h1157v-315h-1157v-264h1223v-341h-1680zM1276 95q0 1 1.5 10t5 21t6.5 25.5t9 24.5q10 23 45.5 58.5t112.5 53.5q34 8 78.5 11t91.5 5h89q45 -2 77 -3l-2 -174q-55 -1 -88.5 -6t-53.5 -17t-30.5 -35.5t-20.5 -61.5h136v-313h-457v401z " />
<glyph unicode="&#x119;" horiz-adv-x="1594" d="M87 549q0 21 1 40.5t1 40.5q8 141 52 221t93 118q50 41 123.5 63.5t153.5 32.5t157 13.5t136 3.5q75 0 151.5 -3.5t153.5 -13.5q110 -15 167 -40.5t99 -65.5q13 -11 38.5 -41t45.5 -72q16 -37 24.5 -74t12.5 -84q2 -34 3 -76v-29q-2 -57 -3 -134h-1005q-2 -21 -2 -40 q0 -9 2 -17q0 -28 6.5 -51.5t21.5 -42.5t42 -36q61 -36 128 -36h237q53 0 102 16q43 15 55 33q9 10 15.5 24t10.5 44l387 -2v-36q0 -17 -4 -35q-4 -30 -18.5 -76.5t-73.5 -97.5q-44 -41 -97 -63.5t-112 -32.5t-119.5 -13.5t-122.5 -3.5h-232q-30 2 -62 2q-30 0 -60 5 q-44 2 -93 9t-97 20t-91.5 33.5t-82.5 49.5q-16 12 -38.5 37t-46.5 70q-32 59 -45.5 133.5t-13.5 206.5zM491 660l620 2q-4 58 -14 84.5t-26 43.5q-28 24 -94 34.5t-150 10.5q-42 0 -84.5 -2t-84.5 -6q-41 -4 -75 -14t-62 -40q-26 -28 -27 -51q-3 -15 -3 -34v-28zM920 -99 v401q0 1 1.5 9.5t5 20.5t6.5 26t9 25q10 23 45.5 58.5t112.5 53.5q34 9 78.5 12t91.5 4h89q45 -1 77 -3l-2 -174q-55 -2 -88.5 -6t-53.5 -16.5t-30.5 -36t-20.5 -61.5h136v-313h-457z" />
<glyph unicode="&#x11a;" horiz-adv-x="1916" d="M126 0v1504h1680v-333h-1223v-251h1157v-315h-1157v-264h1223v-341h-1680zM488 1841l53 121l403 -143l406 143l52 -121l-454 -294z" />
<glyph unicode="&#x11b;" horiz-adv-x="1594" d="M81 549q0 21 1 40.5t1 40.5q8 141 52 221t93 118q50 41 123.5 63.5t153.5 32.5t157 13.5t136 3.5q75 0 151.5 -3.5t153.5 -13.5q110 -15 167 -40.5t99 -65.5q13 -11 38.5 -41t45.5 -72q16 -37 24.5 -74t12.5 -84q2 -34 3 -76v-29q-2 -57 -3 -134h-1005q-2 -21 -2 -40 q0 -9 2 -17q0 -28 6.5 -51.5t21.5 -42.5t42 -36q61 -36 128 -36h237q53 0 102 16q43 15 55 33q9 10 15.5 24t10.5 44l387 -2v-36q0 -17 -4 -35q-4 -30 -18.5 -76.5t-73.5 -97.5q-44 -41 -97 -63.5t-112 -32.5t-119.5 -13.5t-122.5 -3.5h-232q-30 2 -62 2q-30 0 -60 5 q-44 2 -93 9t-97 20t-91.5 33.5t-82.5 49.5q-16 12 -38.5 37t-46.5 70q-32 59 -45.5 133.5t-13.5 206.5zM266 1402l53 121l403 -143l406 143l52 -121l-454 -294zM485 660l620 2q-4 58 -14 84.5t-26 43.5q-28 24 -94 34.5t-150 10.5q-42 0 -84.5 -2t-84.5 -6q-41 -4 -75 -14 t-62 -40q-26 -28 -27 -51q-3 -15 -3 -34v-28z" />
<glyph unicode="&#x11c;" horiz-adv-x="2337" d="M137 795v69q0 49 2 96.5t9 96.5q8 70 26.5 131.5t50 114t79.5 92.5t117 70q40 17 81 27t93.5 15t117.5 7t153 4q44 0 89 1t90 1h368q59 3 119 3h60q87 -3 178 -13q147 -14 220 -51.5t117 -92.5q37 -45 55.5 -90t27.5 -92.5t11 -97.5v-31q0 -35 -2 -71h-471 q-4 47 -11.5 78t-30 49.5t-64 27.5t-114.5 13h-644q-45 -2 -91 -9t-82 -37q-45 -37 -56 -99t-15 -170v-198q2 -11 2 -30q0 -8 1 -32t8 -53.5t20.5 -60t39.5 -56.5q43 -39 101 -48.5t125 -13.5h569q68 2 126.5 11.5t94.5 62.5q21 34 25 69.5t4 72.5h-632v293l1101 -2 q0 -75 2 -149v-32q0 -59 -4 -122q0 -43 -2 -83t-6 -82q-11 -116 -58 -208.5t-160 -139.5q-95 -40 -204 -46.5t-212 -6.5h-764q-63 0 -126 2.5t-124 12.5t-119 32.5t-115 63.5q-34 26 -53.5 50t-31.5 35q-38 57 -57 126t-25.5 143t-6.5 144v136q-2 34 -2 67zM693 1691 l460 286l453 -292l-59 -124l-394 138l-405 -138z" />
<glyph unicode="&#x11d;" horiz-adv-x="1807" d="M121 553q0 19 2 70.5t9 106.5q7 39 18 86.5t42.5 94t86.5 85.5t147 63q42 10 130.5 22t204.5 12q28 0 97.5 -3.5t156.5 -18.5q47 -8 94.5 -23t78.5 -42q24 -19 43 -50t48 -94v203h401v-1022q0 -31 -1 -62.5t-3 -61.5q-7 -96 -33.5 -173.5t-100.5 -139.5 q-82 -69 -216 -101.5t-350 -32.5q-55 0 -110 1t-110 1q-63 0 -125.5 2t-121.5 13t-115 33t-105 65q-16 13 -44 43.5t-49 79.5q-11 24 -16 49.5t-7.5 49t-3.5 40.5t-1 23h412q12 -38 27 -60.5t51 -35.5q32 -10 84 -15.5t123 -5.5h89q45 0 91 5q7 0 31.5 3t55.5 13.5 t61.5 29.5t50.5 54q11 18 15 35.5t4 25.5q2 21 4 60.5t2 81.5q0 43 -1 80.5t-1 57.5q-12 -37 -26.5 -64t-31.5 -46.5t-41.5 -34.5t-62.5 -30q-90 -36 -185.5 -40.5t-191.5 -4.5q-57 0 -114.5 2t-113 11.5t-110 28t-105.5 52.5q-10 8 -37.5 29.5t-51.5 53.5q-43 59 -59 148.5 t-16 246.5zM403 1252l460 286l453 -292l-59 -124l-394 138l-405 -138zM533 500q6 -49 15.5 -92.5t39.5 -72.5q19 -17 48 -27t58.5 -15.5t59 -7.5t53.5 -2h137q34 2 66.5 3t69.5 6q47 4 85.5 14.5t63.5 49.5q28 38 32 74.5t4 78.5v117q-4 30 -17 57q-10 17 -33 43t-70 38 q-30 9 -96.5 11.5t-145.5 6.5h-53q-81 0 -138 -5.5t-90 -20.5q-36 -17 -55.5 -46t-26.5 -57.5t-7 -51.5v-101z" />
<glyph unicode="&#x11e;" horiz-adv-x="2337" d="M137 795v69q0 49 2 96.5t9 96.5q8 70 26.5 131.5t50 114t79.5 92.5t117 70q40 17 81 27t93.5 15t117.5 7t153 4q44 0 89 1t90 1h368q59 3 119 3h60q87 -3 178 -13q147 -14 220 -51.5t117 -92.5q37 -45 55.5 -90t27.5 -92.5t11 -97.5v-31q0 -35 -2 -71h-471 q-4 47 -11.5 78t-30 49.5t-64 27.5t-114.5 13h-644q-45 -2 -91 -9t-82 -37q-45 -37 -56 -99t-15 -170v-198q2 -11 2 -30q0 -8 1 -32t8 -53.5t20.5 -60t39.5 -56.5q43 -39 101 -48.5t125 -13.5h569q68 2 126.5 11.5t94.5 62.5q21 34 25 69.5t4 72.5h-632v293l1101 -2 q0 -75 2 -149v-32q0 -59 -4 -122q0 -43 -2 -83t-6 -82q-11 -116 -58 -208.5t-160 -139.5q-95 -40 -204 -46.5t-212 -6.5h-764q-63 0 -126 2.5t-124 12.5t-119 32.5t-115 63.5q-34 26 -53.5 50t-31.5 35q-38 57 -57 126t-25.5 143t-6.5 144v136q-2 34 -2 67zM701 1925v42h247 v-2q-10 -14 -11 -38q0 -13 4.5 -25t6.5 -16q11 -24 34 -30t54 -8l191 -7q47 2 80.5 6.5t51.5 15.5q21 13 30 45q4 26 6 59h241q-2 -40 -4 -73q-3 -40 -10 -70.5t-20 -53t-37 -41.5q-36 -30 -76.5 -40t-84.5 -16q-62 -4 -121.5 -8.5t-122.5 -4.5q-61 0 -121 4.5t-119 8.5 q-10 2 -22 3t-23 3q-8 2 -26 7t-41.5 15t-46 28.5t-36.5 46.5q-11 24 -17.5 60t-6.5 89z" />
<glyph unicode="&#x11f;" horiz-adv-x="1807" d="M121 553q0 19 2 70.5t9 106.5q7 39 18 86.5t42.5 94t86.5 85.5t147 63q42 10 130.5 22t204.5 12q28 0 97.5 -3.5t156.5 -18.5q47 -8 94.5 -23t78.5 -42q24 -19 43 -50t48 -94v203h401v-1022q0 -31 -1 -62.5t-3 -61.5q-7 -96 -33.5 -173.5t-100.5 -139.5 q-82 -69 -216 -101.5t-350 -32.5q-55 0 -110 1t-110 1q-63 0 -125.5 2t-121.5 13t-115 33t-105 65q-16 13 -44 43.5t-49 79.5q-11 24 -16 49.5t-7.5 49t-3.5 40.5t-1 23h412q12 -38 27 -60.5t51 -35.5q32 -10 84 -15.5t123 -5.5h89q45 0 91 5q7 0 31.5 3t55.5 13.5 t61.5 29.5t50.5 54q11 18 15 35.5t4 25.5q2 21 4 60.5t2 81.5q0 43 -1 80.5t-1 57.5q-12 -37 -26.5 -64t-31.5 -46.5t-41.5 -34.5t-62.5 -30q-90 -36 -185.5 -40.5t-191.5 -4.5q-57 0 -114.5 2t-113 11.5t-110 28t-105.5 52.5q-10 8 -37.5 29.5t-51.5 53.5q-43 59 -59 148.5 t-16 246.5zM421 1502v42h247v-2q-10 -14 -11 -38q0 -13 4.5 -25t6.5 -16q11 -24 34 -30t54 -8l191 -7q47 2 80.5 6.5t51.5 15.5q21 13 30 45q4 26 6 59h241q-2 -40 -4 -73q-3 -40 -10 -70.5t-20 -53t-37 -41.5q-36 -30 -76.5 -40t-84.5 -16q-62 -4 -121.5 -8.5t-122.5 -4.5 q-61 0 -121 4.5t-119 8.5q-10 2 -22 3t-23 3q-8 2 -26 7t-41.5 15t-46 28.5t-36.5 46.5q-11 24 -17.5 60t-6.5 89zM533 500q6 -49 15.5 -92.5t39.5 -72.5q19 -17 48 -27t58.5 -15.5t59 -7.5t53.5 -2h137q34 2 66.5 3t69.5 6q47 4 85.5 14.5t63.5 49.5q28 38 32 74.5t4 78.5 v117q-4 30 -17 57q-10 17 -33 43t-70 38q-30 9 -96.5 11.5t-145.5 6.5h-53q-81 0 -138 -5.5t-90 -20.5q-36 -17 -55.5 -46t-26.5 -57.5t-7 -51.5v-101z" />
<glyph unicode="&#x120;" horiz-adv-x="2337" d="M137 795v69q0 49 2 96.5t9 96.5q8 70 26.5 131.5t50 114t79.5 92.5t117 70q40 17 81 27t93.5 15t117.5 7t153 4q44 0 89 1t90 1h368q59 3 119 3h60q87 -3 178 -13q147 -14 220 -51.5t117 -92.5q37 -45 55.5 -90t27.5 -92.5t11 -97.5v-31q0 -35 -2 -71h-471 q-4 47 -11.5 78t-30 49.5t-64 27.5t-114.5 13h-644q-45 -2 -91 -9t-82 -37q-45 -37 -56 -99t-15 -170v-198q2 -11 2 -30q0 -8 1 -32t8 -53.5t20.5 -60t39.5 -56.5q43 -39 101 -48.5t125 -13.5h569q68 2 126.5 11.5t94.5 62.5q21 34 25 69.5t4 72.5h-632v293l1101 -2 q0 -75 2 -149v-32q0 -59 -4 -122q0 -43 -2 -83t-6 -82q-11 -116 -58 -208.5t-160 -139.5q-95 -40 -204 -46.5t-212 -6.5h-764q-63 0 -126 2.5t-124 12.5t-119 32.5t-115 63.5q-34 26 -53.5 50t-31.5 35q-38 57 -57 126t-25.5 143t-6.5 144v136q-2 34 -2 67zM960 1833 q0 10 2.5 29.5t13.5 42.5q6 15 18.5 35.5t34 39.5t52.5 31.5t74 12.5q81 0 133 -54t52 -135q0 -45 -20 -83q-6 -11 -18.5 -29t-35 -36.5t-53.5 -30t-70 -11.5q-37 0 -70.5 15t-59 40.5t-39.5 59.5t-14 73z" />
<glyph unicode="&#x121;" horiz-adv-x="1807" d="M130 553q0 19 2 70.5t9 106.5q7 39 18 86.5t42.5 94t86.5 85.5t147 63q42 10 130.5 22t204.5 12q28 0 97.5 -3.5t156.5 -18.5q47 -8 94.5 -23t78.5 -42q24 -19 43 -50t48 -94v203h401v-1022q0 -31 -1 -62.5t-3 -61.5q-7 -96 -33.5 -173.5t-100.5 -139.5 q-82 -69 -216 -101.5t-350 -32.5q-55 0 -110 1t-110 1q-63 0 -125.5 2t-121.5 13t-115 33t-105 65q-16 13 -44 43.5t-49 79.5q-11 24 -16 49.5t-7.5 49t-3.5 40.5t-1 23h412q12 -38 27 -60.5t51 -35.5q32 -10 84 -15.5t123 -5.5h89q45 0 91 5q7 0 31.5 3t55.5 13.5 t61.5 29.5t50.5 54q11 18 15 35.5t4 25.5q2 21 4 60.5t2 81.5q0 43 -1 80.5t-1 57.5q-12 -37 -26.5 -64t-31.5 -46.5t-41.5 -34.5t-62.5 -30q-90 -36 -185.5 -40.5t-191.5 -4.5q-57 0 -114.5 2t-113 11.5t-110 28t-105.5 52.5q-10 8 -37.5 29.5t-51.5 53.5q-43 59 -59 148.5 t-16 246.5zM542 500q6 -49 15.5 -92.5t39.5 -72.5q19 -17 48 -27t58.5 -15.5t59 -7.5t53.5 -2h137q34 2 66.5 3t69.5 6q47 4 85.5 14.5t63.5 49.5q28 38 32 74.5t4 78.5v117q-4 30 -17 57q-10 17 -33 43t-70 38q-30 9 -96.5 11.5t-145.5 6.5h-53q-81 0 -138 -5.5t-90 -20.5 q-36 -17 -55.5 -46t-26.5 -57.5t-7 -51.5v-101zM719 1394q0 10 2.5 29.5t13.5 42.5q6 15 18.5 35.5t34 39.5t52.5 31.5t74 12.5q81 0 133 -54t52 -135q0 -45 -20 -83q-6 -11 -18.5 -29t-35 -36.5t-53.5 -30t-70 -11.5q-37 0 -70.5 15t-59 40.5t-39.5 59.5t-14 73z" />
<glyph unicode="&#x122;" horiz-adv-x="2342" d="M136 795v69q0 49 2 96.5t9 96.5q8 70 26 131.5t50.5 114t80.5 92.5t115 70q41 17 82.5 27t94 15t117.5 7t151 4q45 0 90 1t90 1h368q60 3 120 3h59q88 -3 179 -13q147 -14 219 -51.5t117 -92.5q36 -45 55.5 -90t28.5 -92.5t11 -97.5v-31q0 -35 -2 -71h-472 q-4 47 -11.5 78t-30 49.5t-63.5 27.5t-114 13h-646q-45 -2 -90.5 -9t-80.5 -37q-45 -37 -56 -99t-15 -170v-198q2 -11 2 -30q0 -8 1 -32t7 -53.5t20.5 -60t40.5 -56.5q42 -39 100.5 -48.5t124.5 -13.5h568q69 2 127.5 11.5t94.5 62.5q20 34 25 69.5t5 72.5h-633v293l1102 -2 q0 -75 2 -149v-32q0 -59 -4 -122q0 -43 -2 -83t-8 -82q-10 -116 -57 -208.5t-159 -139.5q-96 -40 -205 -46.5t-211 -6.5h-764q-64 0 -127 2.5t-123.5 12.5t-119.5 32.5t-114 63.5q-34 26 -54.5 50t-30.5 35q-39 57 -58 126t-25.5 143t-6.5 144v136q-2 34 -2 67zM1106 -106 h117q32 0 63 -2q33 -2 63.5 -4.5t59 -10t55.5 -23.5t50 -43q11 -15 33 -53.5t22 -94.5q0 -32 -8 -54t-15 -35q-28 -51 -73.5 -72.5t-100.5 -31.5q-24 -5 -58 -7t-72.5 -4t-73 -3t-56.5 -1h-6v153h191q12 0 24 4q36 10 51 32q12 19 12 30v3q0 14 -8 23.5t-13 14.5 q-23 19 -53 25q-16 4 -42 4q-17 0 -37 -2h-125v152z" />
<glyph unicode="&#x123;" horiz-adv-x="1805" d="M122 553q0 19 2 70.5t8 106.5q6 39 18 86.5t43 94t86.5 85.5t146.5 63q43 10 131.5 22t202.5 12q28 0 98.5 -3.5t157.5 -18.5q47 -8 93.5 -23t79.5 -42q24 -19 42.5 -50t48.5 -94v203h401v-1022q0 -31 -1 -62.5t-4 -61.5q-6 -96 -33 -173.5t-101 -139.5 q-81 -69 -215 -101.5t-351 -32.5q-56 0 -110.5 1t-109.5 1q-63 0 -125 2t-122 13t-115 33t-104 65q-16 13 -44.5 43.5t-49.5 79.5q-11 24 -16 49.5t-7 49t-3.5 40.5t-1.5 23h411q13 -38 28 -60.5t51 -35.5q33 -10 85 -15.5t121 -5.5h91q44 0 91 5q6 0 30.5 3t55.5 13.5 t62 29.5t50 54q10 18 14.5 35.5t4.5 25.5q2 21 4.5 60.5t2.5 81.5q0 43 -1 80.5t-1 57.5q-13 -37 -27 -64t-31 -46.5t-41.5 -34.5t-62.5 -30q-90 -36 -185.5 -40.5t-192.5 -4.5q-57 0 -114.5 2t-113 11.5t-109.5 28t-106 52.5q-10 8 -38 29.5t-51 53.5q-43 59 -58.5 148.5 t-15.5 246.5zM532 500q7 -49 16.5 -92.5t39.5 -72.5q18 -17 47.5 -27t59 -15.5t59.5 -7.5t53 -2h136q35 2 68 3t69 6q46 4 84.5 14.5t64.5 49.5q28 38 32.5 74.5t4.5 78.5v117q-4 30 -18 57q-10 17 -32.5 43t-69.5 38q-30 9 -97 11.5t-146 6.5h-53q-81 0 -137.5 -5.5 t-90.5 -20.5q-36 -17 -55.5 -46t-27 -57.5t-7.5 -51.5v-101zM671 1240v506q0 15 2 30q0 13 3 33t11 44.5t21.5 51.5t39.5 52q61 64 164 79q90 13 232 13h43l-2 -240h-18q-15 0 -34 -1.5t-40.5 -7t-40.5 -17.5q-34 -21 -45 -58.5t-19 -80.5h134v-404h-451z" />
<glyph unicode="&#x124;" horiz-adv-x="2233" d="M141 0v1504h470v-549h1038v549h464v-1504h-466v586h-1040v-586h-466zM671 1691l460 286l453 -292l-59 -124l-394 138l-405 -138z" />
<glyph unicode="&#x125;" horiz-adv-x="1699" d="M115 2v1502h399v-626q30 57 56 92.5t84 62.5q32 14 67 24t78.5 16.5t99.5 8.5t125 2q21 0 41.5 -1t42.5 -3q16 0 52.5 -4.5t83.5 -16t98 -33.5t99 -63q17 -15 44 -42t49 -71q28 -55 34 -119t11 -130v-601h-399v573q0 30 -9.5 66t-33 69.5t-68.5 49.5q-43 15 -103.5 16 t-105.5 1q-175 0 -242 -33q-15 -11 -30 -23t-25 -24q-35 -43 -41 -97.5t-8 -109.5v-486h-399zM412 1727l460 286l453 -292l-59 -124l-394 138l-405 -138z" />
<glyph unicode="&#x126;" horiz-adv-x="2233" d="M87 1077v272h1108v-272h-1108zM179 0v1504h470v-549h1038v549h464v-1504h-466v586h-1040v-586h-466z" />
<glyph unicode="&#x127;" horiz-adv-x="1699" d="M136 2v1502h399v-626q30 57 56 92.5t84 62.5q32 14 67 24t78.5 16.5t99.5 8.5t125 2q21 0 41.5 -1t42.5 -3q16 0 52.5 -4.5t83.5 -16t98 -33.5t99 -63q17 -15 44 -42t49 -71q28 -55 34 -119t11 -130v-601h-399v573q0 30 -9.5 66t-33 69.5t-68.5 49.5q-43 15 -103.5 16 t-105.5 1q-175 0 -242 -33q-15 -11 -30 -23t-25 -24q-35 -43 -41 -97.5t-8 -109.5v-486h-399zM148 1183v272h1108v-272h-1108z" />
<glyph unicode="&#x128;" horiz-adv-x="744" d="M-55 1602q10 68 20 102t24 64q9 17 28 46t51.5 56.5t78 47t107.5 19.5q55 0 92.5 -13t55.5 -24q43 -19 83.5 -39t89.5 -20q6 0 20 1t31 5q36 11 50 36.5t29 59.5h191q-10 -64 -23.5 -120.5t-58.5 -107.5q-24 -28 -77 -63t-144 -38q-56 2 -96.5 14t-57.5 21 q-45 16 -86.5 34.5t-90.5 18.5q-24 0 -37.5 -3.5t-21.5 -7.5q-24 -8 -37.5 -26.5t-37.5 -62.5h-183zM184 0v1504h476v-1504h-476z" />
<glyph unicode="&#x129;" horiz-adv-x="638" d="M-100 1163q10 68 20 102t24 64q9 17 28 46t51.5 56.5t78 47t107.5 19.5q55 0 92.5 -13t55.5 -24q43 -19 83.5 -39t89.5 -20q6 0 20 1t31 5q36 11 50 36.5t29 59.5h191q-10 -64 -23.5 -120.5t-58.5 -107.5q-24 -28 -77 -63t-144 -38q-56 2 -96.5 14t-57.5 21 q-45 16 -86.5 34.5t-90.5 18.5q-24 0 -37.5 -3.5t-21.5 -7.5q-24 -8 -37.5 -26.5t-37.5 -62.5h-183zM156 0v1065h399v-1065h-399z" />
<glyph unicode="&#x12a;" horiz-adv-x="744" d="M-130 1619v393h1059v-393h-1059zM163 0v1504h476v-1504h-476z" />
<glyph unicode="&#x12b;" horiz-adv-x="638" d="M-154 1180v393h1059v-393h-1059zM156 0v1065h399v-1065h-399z" />
<glyph unicode="&#x12c;" horiz-adv-x="744" d="M-57 1925v42h247v-2q-10 -14 -11 -38q0 -13 4.5 -25t6.5 -16q11 -24 34 -30t54 -8l191 -7q47 2 80.5 6.5t51.5 15.5q21 13 30 45q4 26 6 59h241q-2 -40 -4 -73q-3 -40 -10 -70.5t-20 -53t-37 -41.5q-36 -30 -76.5 -40t-84.5 -16q-62 -4 -121.5 -8.5t-122.5 -4.5 q-61 0 -121 4.5t-119 8.5q-10 2 -22 3t-23 3q-8 2 -26 7t-41.5 15t-46 28.5t-36.5 46.5q-11 24 -17.5 60t-6.5 89zM173 0v1504h476v-1504h-476z" />
<glyph unicode="&#x12d;" horiz-adv-x="638" d="M-108 1451v42h247v-2q-10 -14 -11 -38q0 -13 4.5 -25t6.5 -16q11 -24 34 -30t54 -8l191 -7q47 2 80.5 6.5t51.5 15.5q21 13 30 45q4 26 6 59h241q-2 -40 -4 -73q-3 -40 -10 -70.5t-20 -53t-37 -41.5q-36 -30 -76.5 -40t-84.5 -16q-62 -4 -121.5 -8.5t-122.5 -4.5 q-61 0 -121 4.5t-119 8.5q-10 2 -22 3t-23 3q-8 2 -26 7t-41.5 15t-46 28.5t-36.5 46.5q-11 24 -17.5 60t-6.5 89zM160 0v1065h399v-1065h-399z" />
<glyph unicode="&#x12e;" horiz-adv-x="744" d="M126 95q0 1 1.5 10t5 21t6.5 25.5t9 24.5q10 23 45.5 58.5t112.5 53.5q34 8 78.5 11t91.5 5h89q45 -2 77 -3l-2 -174q-55 -1 -88.5 -6t-53.5 -17t-30.5 -35.5t-20.5 -61.5h136v-313h-457v401zM165 0v1504h476v-1504h-476z" />
<glyph unicode="&#x12f;" horiz-adv-x="638" d="M57 95q0 1 1.5 10t5 21t6.5 25.5t9 24.5q10 23 45.5 58.5t112.5 53.5q34 8 78.5 11t91.5 5h89q45 -2 77 -3l-2 -174q-55 -1 -88.5 -6t-53.5 -17t-30.5 -35.5t-20.5 -61.5h136v-313h-457v401zM177 0v1065h394v-1065h-394zM179 1212v292h394v-292h-394z" />
<glyph unicode="&#x130;" horiz-adv-x="744" d="M144 0v1504h476v-1504h-476zM191 1833q0 10 2.5 29.5t13.5 42.5q6 15 18.5 35.5t34 39.5t52.5 31.5t74 12.5q81 0 133 -54t52 -135q0 -45 -20 -83q-6 -11 -18.5 -29t-35 -36.5t-53.5 -30t-70 -11.5q-37 0 -70.5 15t-59 40.5t-39.5 59.5t-14 73z" />
<glyph unicode="&#x131;" horiz-adv-x="638" d="M113 0v1065h399v-1065h-399z" />
<glyph unicode="&#x132;" horiz-adv-x="2238" d="M55 0v1504h476v-1504h-476zM571 458v178h453v-75q2 -62 9 -92t22 -52q30 -45 107.5 -57.5t188.5 -12.5q30 0 62 1t64 4q10 2 43 5t65 17q34 15 53.5 40t26.5 49.5t8 46.5t1 33v961h467v-839l-11 -267q-10 -70 -27.5 -130.5t-66.5 -120.5q-34 -43 -75 -68.5t-89.5 -41.5 t-100.5 -24.5t-107 -16.5q-92 -4 -181 -8.5t-183 -4.5q-77 0 -155 4.5t-156 8.5q-89 14 -167 36.5t-146 91.5q-38 38 -59.5 85t-32.5 109t-13 140z" />
<glyph unicode="&#x133;" horiz-adv-x="1173" d="M91 0v1065h394v-1065h-394zM93 1212v292h394v-292h-394zM575 -374l2 259q33 -3 56 -3q29 0 45 5q32 6 51 32q4 4 11.5 16t11.5 29q4 24 4 42v1059h401v-1148q-5 -69 -17.5 -119t-68.5 -96q-42 -37 -111.5 -62.5t-189.5 -25.5q-49 0 -97.5 3t-97.5 9zM763 1216v294h398 v-294h-398z" />
<glyph unicode="&#x134;" horiz-adv-x="1707" d="M94 458v178h453v-75q2 -62 9 -92t22 -52q30 -45 107.5 -57.5t188.5 -12.5q30 0 62 1t64 4q10 2 43 5t65 17q34 15 53.5 40t26.5 49.5t8 46.5t1 33v961h467v-839l-11 -267q-10 -70 -27.5 -130.5t-66.5 -120.5q-34 -43 -75 -68.5t-89.5 -41.5t-100.5 -24.5t-107 -16.5 q-92 -4 -181 -8.5t-183 -4.5q-77 0 -155 4.5t-156 8.5q-89 14 -167 36.5t-146 91.5q-38 38 -59.5 85t-32.5 109t-13 140zM959 1691l460 286l453 -292l-59 -124l-394 138l-405 -138z" />
<glyph unicode="&#x135;" horiz-adv-x="957" d="M-92 1276l556 262l562 -266l-59 -142l-66 12l-379 89q-2 0 -23.5 3.5t-36.5 3.5q-17 0 -57 -7l-356 -81l-81 -12zM79 -374l2 259q32 -3 55 -3q28 0 45 5q32 6 51 32q4 4 12 16t12 29q4 24 4 42v1059h400v-1148q-4 -69 -17 -119t-68 -96q-43 -37 -112 -62.5t-191 -25.5 q-48 0 -96 3t-97 9z" />
<glyph unicode="&#x136;" horiz-adv-x="2129" d="M69 0v1504h468v-557h234l626 557h635q-68 -53 -134.5 -106.5t-129.5 -108.5q-66 -56 -131.5 -112.5t-128.5 -113.5q-89 -75 -175.5 -151.5t-176.5 -151.5l964 -760h-661l-684 571h-240v-571h-466zM778 -106h116q33 0 65 -2t62.5 -4.5t59.5 -10t55.5 -23.5t50.5 -43 q10 -15 32.5 -53.5t22.5 -94.5q0 -32 -8.5 -54t-15.5 -35q-28 -51 -73.5 -72.5t-100.5 -31.5q-24 -5 -58 -7t-72 -4t-73.5 -3t-56.5 -1h-6v153h191q13 0 23 4q37 10 52 32q13 19 13 30v3q0 14 -9 23.5t-13 14.5q-24 19 -53 25q-17 4 -43 4q-17 0 -36 -2h-125v152z" />
<glyph unicode="&#x137;" horiz-adv-x="1594" d="M96 0v1504h394v-791h83l388 352h543q-37 -26 -69.5 -50.5t-66.5 -51.5q-53 -45 -104.5 -90.5t-102.5 -92.5q-60 -55 -119.5 -107.5t-119.5 -107.5q35 -26 60.5 -44.5t51 -39.5t59 -52t85.5 -80l90 -83q75 -68 151.5 -134t154.5 -132h-545l-431 431h-108v-431h-394z M561 -106h116q32 0 65 -2q32 -2 62.5 -4.5t59 -10t55 -23.5t50.5 -43q11 -15 33 -53.5t22 -94.5q0 -32 -8 -54t-14 -35q-29 -51 -74.5 -72.5t-100.5 -31.5q-24 -5 -58 -7t-72.5 -4t-73.5 -3t-56 -1h-6v153h191q12 0 23 4q36 10 52 32q12 19 12 30v3q0 14 -8 23.5t-14 14.5 q-23 19 -53 25q-16 4 -42 4q-17 0 -37 -2h-124v152z" />
<glyph unicode="&#x138;" horiz-adv-x="1597" d="M80 0v1504h394v-791h82l388 352h543q-37 -26 -69.5 -50.5t-67.5 -51.5q-53 -45 -104 -90.5t-102 -92.5q-59 -55 -118.5 -107.5t-120.5 -107.5q35 -26 60.5 -44.5t51 -39.5t59.5 -52t85 -80l90 -83q74 -68 150.5 -134t155.5 -132h-545l-430 431h-108v-431h-394z" />
<glyph unicode="&#x139;" d="M114 0v1504h471v-1132h1040v-372h-1511zM730 1723l352 441l199 -189l-439 -365z" />
<glyph unicode="&#x13a;" horiz-adv-x="638" d="M57 1571l352 441l199 -189l-439 -365zM115 0v1504h391v-1504h-391z" />
<glyph unicode="&#x13b;" d="M122 0v1504h470v-1132h1040v-372h-1510zM667 -106h117q32 0 64 -2t62.5 -4.5t59.5 -10t55.5 -23.5t49.5 -43q11 -15 33 -53.5t22 -94.5q0 -32 -8 -54t-14 -35q-28 -51 -74 -72.5t-101 -31.5q-24 -5 -58 -7t-72.5 -4t-73 -3t-56.5 -1h-6v153h191q12 0 24 4q36 10 51 32 q12 19 12 30v3q0 14 -8 23.5t-12 14.5q-24 19 -53 25q-17 4 -43 4q-17 0 -37 -2h-125v152z" />
<glyph unicode="&#x13c;" horiz-adv-x="644" d="M94 0v1504h392v-1504h-392zM106 -106h118q32 0 63 -2q32 -2 63.5 -4.5t60 -10t55 -23.5t50.5 -43q10 -15 32.5 -53.5t22.5 -94.5q0 -32 -9 -54t-15 -35q-28 -51 -73.5 -72.5t-101.5 -31.5q-24 -5 -57.5 -7t-71.5 -4t-73.5 -3t-56.5 -1h-7v153h192q13 0 23 4q37 10 51 32 q13 19 14 30v3q0 14 -9 23.5t-13 14.5q-24 19 -53 25q-17 4 -43 4q-16 0 -36 -2h-126v152z" />
<glyph unicode="&#x13d;" horiz-adv-x="1707" d="M89 0v1504h472v-1132h1039v-372h-1511zM1046 695l2 240h17q15 0 34 1t40.5 6t40.5 19q35 21 45.5 58.5t18.5 79.5h-134v405h451v-508q0 -14 -2 -29q0 -12 -3 -32.5t-10.5 -45.5t-21.5 -51.5t-40 -51.5q-61 -63 -163 -79q-90 -12 -232 -12h-43z" />
<glyph unicode="&#x13e;" horiz-adv-x="1279" d="M136 0v1504h392v-1504h-392zM662 695l3 240h16q15 0 34.5 1t41 6t40.5 19q34 21 44.5 58.5t18.5 79.5h-134v405h452v-508q0 -14 -3 -29q0 -12 -3 -32.5t-10.5 -45.5t-21.5 -51.5t-39 -51.5q-61 -63 -164 -79q-89 -12 -232 -12h-43z" />
<glyph unicode="&#x13f;" d="M110 0v1504h471v-1132h1040v-372h-1511zM1085 856q0 10 2.5 29.5t13.5 42.5q6 15 18.5 35.5t34 39.5t52.5 31.5t74 12.5q81 0 133 -54t52 -135q0 -45 -20 -83q-6 -11 -18.5 -29t-35 -36.5t-53.5 -30t-70 -11.5q-37 0 -70.5 15t-59 40.5t-39.5 59.5t-14 73z" />
<glyph unicode="&#x140;" horiz-adv-x="1067" d="M115 0v1504h391v-1504h-391zM593 742q0 10 2.5 29.5t13.5 42.5q6 15 18.5 35.5t34 39.5t52.5 31.5t74 12.5q81 0 133 -54t52 -135q0 -45 -20 -83q-6 -11 -18.5 -29t-35 -36.5t-53.5 -30t-70 -11.5q-37 0 -70.5 15t-59 40.5t-39.5 59.5t-14 73z" />
<glyph unicode="&#x141;" d="M66 616v272h1108v-272h-1108zM89 0v1504h471v-1132h1040v-372h-1511z" />
<glyph unicode="&#x142;" horiz-adv-x="638" d="M97 616v272h1108v-272h-1108zM328 0v1504h391v-1504h-391z" />
<glyph unicode="&#x143;" horiz-adv-x="2238" d="M94 0v1504h736q124 -151 245 -299t243 -302q108 -139 214.5 -278t215.5 -280l-8 690v469h435v-1504h-740q-134 162 -265 324t-261 328q-96 124 -189.5 248t-186.5 250v-1150h-439zM1036 1723l352 441l199 -189l-439 -365z" />
<glyph unicode="&#x144;" horiz-adv-x="1599" d="M122 -8v1065h390v-188q13 24 29 49q11 17 34.5 44.5t70.5 51.5q35 19 71.5 31t83.5 18t107 9t137 3q18 0 58.5 -1t93.5 -10t114 -30.5t116 -64.5q30 -24 55.5 -52.5t42.5 -60.5q21 -43 32 -94t18 -150v-620h-394v575q0 34 -8 61q-10 41 -30 64.5t-42.5 36.5t-43 17 t-32.5 6q-11 2 -42 4t-66 4t-65.5 3t-39.5 1q-33 0 -54.5 -3t-35.5 -5q-10 -2 -34.5 -9.5t-53 -22.5t-57 -39.5t-42.5 -58.5q-13 -30 -17 -65t-4 -105v-464h-392zM770 1284l352 441l199 -189l-439 -365z" />
<glyph unicode="&#x145;" horiz-adv-x="2242" d="M71 -10v1503h736q124 -150 245 -298.5t243 -302.5q108 -138 214.5 -277.5t215.5 -279.5l-8 689v469h434v-1503h-739q-134 162 -265 323.5t-261 327.5q-96 123 -189.5 248t-187.5 251v-1150h-438zM945 -115h118q32 0 63 -3q33 -2 64 -4t59.5 -9t55 -23.5t50.5 -43.5 q11 -14 33 -53t22 -94q0 -33 -8.5 -55t-15.5 -35q-28 -51 -73 -72t-101 -32q-24 -4 -58 -6t-72 -4t-73.5 -3t-56.5 -1h-7v153h193q12 0 23 4q36 10 51 32q12 19 13 29v3q0 15 -9 24.5t-13 13.5q-24 18 -53 26q-16 4 -42 4q-17 0 -37 -2h-126v151z" />
<glyph unicode="&#x146;" horiz-adv-x="1601" d="M79 -8v1065h390v-188q13 24 29 49q11 17 34.5 44.5t70.5 51.5q35 19 71.5 31t83.5 18t107 9t137 3q18 0 58.5 -1t93.5 -10t114 -30.5t116 -64.5q30 -24 55.5 -52.5t42.5 -60.5q21 -43 32 -94t18 -150v-620h-394v575q0 34 -8 61q-10 41 -30 64.5t-42.5 36.5t-43 17 t-32.5 6q-11 2 -42 4t-66 4t-65.5 3t-39.5 1q-33 0 -54.5 -3t-35.5 -5q-10 -2 -34.5 -9.5t-53 -22.5t-57 -39.5t-42.5 -58.5q-13 -30 -17 -65t-4 -105v-464h-392zM632 -106h118q32 0 63 -2q33 -2 63.5 -4.5t59.5 -10t55.5 -23.5t49.5 -43q10 -15 33 -53.5t23 -94.5 q0 -32 -8.5 -54t-15.5 -35q-28 -51 -73 -72.5t-101 -31.5q-24 -5 -58 -7t-72.5 -4t-73.5 -3t-56 -1h-7v153h193q12 0 23 4q36 10 51 32q12 19 13 30v3q0 14 -9 23.5t-13 14.5q-24 19 -53 25q-16 4 -42 4q-17 0 -37 -2h-126v152z" />
<glyph unicode="&#x147;" horiz-adv-x="2238" d="M116 0v1504h736q124 -151 245 -299t243 -302q108 -139 214.5 -278t215.5 -280l-8 690v469h435v-1504h-740q-134 162 -265 324t-261 328q-96 124 -189.5 248t-186.5 250v-1150h-439zM784 1841l53 121l403 -143l406 143l52 -121l-454 -294z" />
<glyph unicode="&#x148;" horiz-adv-x="1599" d="M122 -8v1065h390v-188q13 24 29 49q11 17 34.5 44.5t70.5 51.5q35 19 71.5 31t83.5 18t107 9t137 3q18 0 58.5 -1t93.5 -10t114 -30.5t116 -64.5q30 -24 55.5 -52.5t42.5 -60.5q21 -43 32 -94t18 -150v-620h-394v575q0 34 -8 61q-10 41 -30 64.5t-42.5 36.5t-43 17 t-32.5 6q-11 2 -42 4t-66 4t-65.5 3t-39.5 1q-33 0 -54.5 -3t-35.5 -5q-10 -2 -34.5 -9.5t-53 -22.5t-57 -39.5t-42.5 -58.5q-13 -30 -17 -65t-4 -105v-464h-392zM455 1402l53 121l403 -143l406 143l52 -121l-454 -294z" />
<glyph unicode="&#x149;" horiz-adv-x="2238" d="M87 695l2 240h17q15 0 34.5 1t41 6t40.5 19q34 21 44.5 58.5t18.5 79.5h-134v405h452v-508q0 -14 -2 -29q0 -12 -3.5 -32.5t-11 -45.5t-21.5 -51.5t-39 -51.5q-61 -63 -164 -79q-90 -12 -232 -12h-43zM675 -8v1065h390v-188q12 24 30 49q11 17 34 44.5t70 51.5 q34 19 71 31t84.5 18t106.5 9t136 3q19 0 59.5 -1t94 -10t114 -30.5t116.5 -64.5q30 -24 55 -52.5t43 -60.5q21 -43 32 -94t17 -150v-620h-394v575q0 34 -7 61q-10 41 -30.5 64.5t-42.5 36.5t-42.5 17t-32.5 6q-11 2 -42 4t-66.5 4t-66 3t-38.5 1q-33 0 -55 -3t-35 -5 q-10 -2 -35 -9.5t-53.5 -22.5t-56.5 -39.5t-42 -58.5q-13 -30 -17.5 -65t-4.5 -105v-464h-392z" />
<glyph unicode="&#x14c;" horiz-adv-x="2242" d="M134 641l16 441q2 16 4 35t6 35q17 90 60.5 161t124.5 118q60 36 116.5 49t125.5 24q138 8 274 13.5t277 5.5q164 0 326 -5.5t328 -13.5q17 -2 35 -4t35 -7q24 -4 62.5 -13.5t81.5 -31t86.5 -60t78.5 -97.5q40 -75 52 -148.5t16 -154.5t6 -161v-54q0 -55 -2 -108t-5 -106 t-7 -108q-10 -83 -30 -152t-75 -137q-43 -53 -97 -85t-112.5 -49.5t-122.5 -25.5t-126 -12q-113 -2 -225 -4.5t-226 -2.5q-130 0 -258 2.5t-258 6.5q-51 2 -100 7t-96.5 15t-93.5 27.5t-91 47.5q-68 47 -105.5 112t-55.5 138.5t-21.5 151.5t-3.5 150zM603 705 q4 -96 12.5 -164t34.5 -104q30 -41 88.5 -57t153.5 -24h614q36 2 71.5 7t65 15t55 28t43.5 47q15 24 22 53t13 84v326q-2 26 -4 47t-10 45q-13 44 -36 69.5t-54.5 41t-69.5 19.5t-82 8h-644q-79 -4 -117 -16t-70 -35q-24 -17 -34.5 -31t-14.5 -25q-13 -24 -18.5 -49 t-7.5 -33q-4 -41 -6.5 -101.5t-4.5 -150.5zM659 1619v393h1059v-393h-1059z" />
<glyph unicode="&#x14d;" horiz-adv-x="1701" d="M98 479q1 105 7 214q7 83 25 149.5t79 120.5q64 55 136.5 73.5t148.5 28.5q94 6 185 11.5t185 5.5q89 0 178.5 -4.5t178.5 -8.5q90 -14 169.5 -37.5t135.5 -90.5q51 -59 65.5 -127t18.5 -141q2 -30 3.5 -56.5t1.5 -55.5q0 -51 -3.5 -102.5t-7.5 -104.5 q-4 -45 -13.5 -87.5t-29.5 -79.5q-14 -30 -33.5 -52t-29.5 -31q-55 -49 -118 -69t-132 -35q-91 -6 -181.5 -12.5t-180.5 -6.5q-97 0 -189 7q-47 2 -92.5 3t-92.5 5q-19 4 -39.5 6t-41.5 6q-64 13 -127.5 41t-108.5 77q-35 36 -53 79t-27.5 88.5t-13 92.5t-3.5 93zM327 1180 v393h1059v-393h-1059zM494 520q0 -43 3.5 -83.5t29.5 -80.5q4 -4 13.5 -17t26.5 -24q28 -17 60 -21t98 -9l76 -6q34 -2 68.5 -3t67.5 -1q13 0 65.5 3t105.5 20q43 15 60 33t25 33q15 32 17.5 70.5t6.5 77.5q2 16 3 34.5t1 34.5q0 17 -4 50.5t-32 75.5q-24 32 -48.5 48 t-52 22.5t-59.5 6.5q-33 0 -68 2q-69 6 -130 6q-32 0 -60.5 -1t-89.5 -9q-46 -6 -81 -17t-63 -49q-30 -45 -34.5 -95t-4.5 -101z" />
<glyph unicode="&#x14e;" horiz-adv-x="2242" d="M104 641l16 441q2 16 4 35t6 35q17 90 60.5 161t124.5 118q60 36 116.5 49t125.5 24q138 8 274 13.5t277 5.5q164 0 326 -5.5t328 -13.5q17 -2 35 -4t35 -7q24 -4 62.5 -13.5t81.5 -31t86.5 -60t78.5 -97.5q40 -75 52 -148.5t16 -154.5t6 -161v-54q0 -55 -2 -108t-5 -106 t-7 -108q-10 -83 -30 -152t-75 -137q-43 -53 -97 -85t-112.5 -49.5t-122.5 -25.5t-126 -12q-113 -2 -225 -4.5t-226 -2.5q-130 0 -258 2.5t-258 6.5q-51 2 -100 7t-96.5 15t-93.5 27.5t-91 47.5q-68 47 -105.5 112t-55.5 138.5t-21.5 151.5t-3.5 150zM573 705 q4 -96 12.5 -164t34.5 -104q30 -41 88.5 -57t153.5 -24h614q36 2 71.5 7t65 15t55 28t43.5 47q15 24 22 53t13 84v326q-2 26 -4 47t-10 45q-13 44 -36 69.5t-54.5 41t-69.5 19.5t-82 8h-644q-79 -4 -117 -16t-70 -35q-24 -17 -34.5 -31t-14.5 -25q-13 -24 -18.5 -49 t-7.5 -33q-4 -41 -6.5 -101.5t-4.5 -150.5zM693 1907v42h247v-2q-10 -14 -11 -38q0 -13 4.5 -25t6.5 -16q11 -24 34 -30t54 -8l191 -7q47 2 80.5 6.5t51.5 15.5q21 13 30 45q4 26 6 59h241q-2 -40 -4 -73q-3 -40 -10 -70.5t-20 -53t-37 -41.5q-36 -30 -76.5 -40t-84.5 -16 q-62 -4 -121.5 -8.5t-122.5 -4.5q-61 0 -121 4.5t-119 8.5q-10 2 -22 3t-23 3q-8 2 -26 7t-41.5 15t-46 28.5t-36.5 46.5q-11 24 -17.5 60t-6.5 89z" />
<glyph unicode="&#x14f;" horiz-adv-x="1701" d="M100 479q1 105 7 214q7 83 25 149.5t79 120.5q64 55 136.5 73.5t148.5 28.5q94 6 185 11.5t185 5.5q89 0 178.5 -4.5t178.5 -8.5q90 -14 169.5 -37.5t135.5 -90.5q51 -59 65.5 -127t18.5 -141q2 -30 3.5 -56.5t1.5 -55.5q0 -51 -3.5 -102.5t-7.5 -104.5 q-4 -45 -13.5 -87.5t-29.5 -79.5q-14 -30 -33.5 -52t-29.5 -31q-55 -49 -118 -69t-132 -35q-91 -6 -181.5 -12.5t-180.5 -6.5q-97 0 -189 7q-47 2 -92.5 3t-92.5 5q-19 4 -39.5 6t-41.5 6q-64 13 -127.5 41t-108.5 77q-35 36 -53 79t-27.5 88.5t-13 92.5t-3.5 93zM392 1440 v42h247v-2q-10 -14 -11 -38q0 -13 4.5 -25t6.5 -16q11 -24 34 -30t54 -8l191 -7q47 2 80.5 6.5t51.5 15.5q21 13 30 45q4 26 6 59h241q-2 -40 -4 -73q-3 -40 -10 -70.5t-20 -53t-37 -41.5q-36 -30 -76.5 -40t-84.5 -16q-62 -4 -121.5 -8.5t-122.5 -4.5q-61 0 -121 4.5 t-119 8.5q-10 2 -22 3t-23 3q-8 2 -26 7t-41.5 15t-46 28.5t-36.5 46.5q-11 24 -17.5 60t-6.5 89zM496 520q0 -43 3.5 -83.5t29.5 -80.5q4 -4 13.5 -17t26.5 -24q28 -17 60 -21t98 -9l76 -6q34 -2 68.5 -3t67.5 -1q13 0 65.5 3t105.5 20q43 15 60 33t25 33q15 32 17.5 70.5 t6.5 77.5q2 16 3 34.5t1 34.5q0 17 -4 50.5t-32 75.5q-24 32 -48.5 48t-52 22.5t-59.5 6.5q-33 0 -68 2q-69 6 -130 6q-32 0 -60.5 -1t-89.5 -9q-46 -6 -81 -17t-63 -49q-30 -45 -34.5 -95t-4.5 -101z" />
<glyph unicode="&#x150;" horiz-adv-x="2242" d="M112 641l16 441q2 16 4 35t6 35q17 90 60.5 161t124.5 118q60 36 116.5 49t125.5 24q138 8 274 13.5t277 5.5q164 0 326 -5.5t328 -13.5q17 -2 35 -4t35 -7q24 -4 62.5 -13.5t81.5 -31t86.5 -60t78.5 -97.5q40 -75 52 -148.5t16 -154.5t6 -161v-54q0 -55 -2 -108t-5 -106 t-7 -108q-10 -83 -30 -152t-75 -137q-43 -53 -97 -85t-112.5 -49.5t-122.5 -25.5t-126 -12q-113 -2 -225 -4.5t-226 -2.5q-130 0 -258 2.5t-258 6.5q-51 2 -100 7t-96.5 15t-93.5 27.5t-91 47.5q-68 47 -105.5 112t-55.5 138.5t-21.5 151.5t-3.5 150zM581 705 q4 -96 12.5 -164t34.5 -104q30 -41 88.5 -57t153.5 -24h614q36 2 71.5 7t65 15t55 28t43.5 47q15 24 22 53t13 84v326q-2 26 -4 47t-10 45q-13 44 -36 69.5t-54.5 41t-69.5 19.5t-82 8h-644q-79 -4 -117 -16t-70 -35q-24 -17 -34.5 -31t-14.5 -25q-13 -24 -18.5 -49 t-7.5 -33q-4 -41 -6.5 -101.5t-4.5 -150.5zM675 1723l352 441l199 -189l-439 -365zM1113 1723l352 441l199 -189l-439 -365z" />
<glyph unicode="&#x151;" horiz-adv-x="1701" d="M94 479q1 105 7 214q7 83 25 149.5t79 120.5q64 55 136.5 73.5t148.5 28.5q94 6 185 11.5t185 5.5q89 0 178.5 -4.5t178.5 -8.5q90 -14 169.5 -37.5t135.5 -90.5q51 -59 65.5 -127t18.5 -141q2 -30 3.5 -56.5t1.5 -55.5q0 -51 -3.5 -102.5t-7.5 -104.5 q-4 -45 -13.5 -87.5t-29.5 -79.5q-14 -30 -33.5 -52t-29.5 -31q-55 -49 -118 -69t-132 -35q-91 -6 -181.5 -12.5t-180.5 -6.5q-97 0 -189 7q-47 2 -92.5 3t-92.5 5q-19 4 -39.5 6t-41.5 6q-64 13 -127.5 41t-108.5 77q-35 36 -53 79t-27.5 88.5t-13 92.5t-3.5 93zM358 1284 l352 441l199 -189l-439 -365zM490 520q0 -43 3.5 -83.5t29.5 -80.5q4 -4 13.5 -17t26.5 -24q28 -17 60 -21t98 -9l76 -6q34 -2 68.5 -3t67.5 -1q13 0 65.5 3t105.5 20q43 15 60 33t25 33q15 32 17.5 70.5t6.5 77.5q2 16 3 34.5t1 34.5q0 17 -4 50.5t-32 75.5 q-24 32 -48.5 48t-52 22.5t-59.5 6.5q-33 0 -68 2q-69 6 -130 6q-32 0 -60.5 -1t-89.5 -9q-46 -6 -81 -17t-63 -49q-30 -45 -34.5 -95t-4.5 -101zM796 1284l352 441l199 -189l-439 -365z" />
<glyph unicode="&#x152;" horiz-adv-x="3303" d="M89 675q0 132 7 270q2 64 5 124.5t18 116.5t43.5 106t79.5 94q51 45 107 70.5t115.5 37.5t121.5 14t125 4q60 2 117.5 3t118.5 1q79 0 158.5 -2t160.5 -6q75 -2 149 -9.5t144 -43.5q43 -24 69.5 -50.5t56.5 -62.5v162h1484v-345h-1078v-252h1010v-317h-1014v-253h1093 v-337h-1499l-2 153q-29 -30 -53 -52t-49.5 -39t-55.5 -29t-68 -21q-43 -8 -125 -14t-190 -6q-94 0 -184 3t-181 5q-11 0 -48 1t-86 4t-106.5 9.5t-108.5 21.5q-32 9 -77.5 27t-91.5 54t-84.5 93.5t-57.5 145.5q-10 46 -17 126.5t-7 192.5zM543 693q0 -62 5 -124.5t42 -117.5 q6 -10 22 -29.5t46 -33.5q45 -24 107 -26t168 -6q69 -2 135 -3t133 -1h156q62 0 90.5 2t60.5 12q55 15 88.5 45t45.5 47q15 24 22.5 49t11 57t3.5 72q0 41 2 92q0 34 2 67.5t2 66.5v30q0 21 -5.5 48t-16 56.5t-29.5 60.5q-26 36 -55.5 52.5t-71.5 24.5t-99 8q-55 0 -132 2 q-73 2 -143 4t-145 2h-29q-26 0 -64.5 -1t-81 -4t-74.5 -7q-55 -11 -86 -24t-48 -30q-24 -24 -35.5 -62t-18 -89t-7.5 -113t-1 -127z" />
<glyph unicode="&#x153;" horiz-adv-x="2664" d="M36 586q0 74 5.5 129.5t17.5 98t29.5 75.5t45.5 61q32 32 68 52t68.5 32t58 17.5t39.5 7.5q59 8 185 15.5t284 7.5q53 0 105 -2.5t108 -6.5q9 0 32.5 -3t53 -9t62.5 -18t62 -33q19 -13 35.5 -30t41.5 -53q3 2 18 23t29 36q43 40 104 60.5t118 28t100 7.5h151q51 0 102 -2 h75q39 0 77 -3q96 -4 181 -25t159 -89q71 -65 91.5 -128.5t24.5 -99.5q4 -40 5 -114t1 -172h-1039q2 -47 11.5 -101t54.5 -84q32 -21 83 -27.5t132 -8.5h112q90 2 143.5 7t83.5 40q12 10 16.5 26t6.5 46l394 -2v-47q0 -28 -8.5 -61.5t-27.5 -70t-58 -70.5 q-63 -55 -177.5 -85t-293.5 -30q-36 0 -71 1t-71 1h-64q-32 0 -64 2q-6 0 -40.5 1.5t-79.5 6.5t-94.5 16.5t-90.5 35.5q-32 18 -53 39.5t-45 51.5q-14 -21 -43.5 -54t-88.5 -58q-34 -13 -72 -20.5t-86.5 -10.5t-107.5 -4t-134 -1h-145q-10 -3 -22 -3q-63 0 -128 7 q-76 6 -148.5 23t-138.5 54q-55 30 -83 59.5t-40 50.5q-39 61 -49.5 155t-10.5 252zM424 532q0 -55 4.5 -98.5t40.5 -86.5q26 -30 56.5 -43.5t65.5 -20t71 -6.5q39 0 75 -2q28 -3 55.5 -4t55.5 -1q14 0 67.5 2.5t113.5 19.5q51 15 71 33t30 37q15 26 20.5 69.5t5.5 111.5 q0 81 -11 121.5t-46 70.5q-40 37 -106 46t-178 9q-97 0 -195 -6q-64 -4 -94 -15t-53 -34q-42 -44 -45.5 -94.5t-3.5 -108.5zM1523 660l660 2q0 17 -2 35.5t-6 32.5q-7 21 -28 49t-70 46q-55 16 -193 16q-110 0 -192 -9t-118 -46q-24 -24 -33 -56.5t-18 -69.5z" />
<glyph unicode="&#x154;" horiz-adv-x="2134" d="M112 0v1504h1365l116 4h23q44 0 85 -4q53 -8 103.5 -26.5t95.5 -54.5q30 -24 48.5 -49.5t25.5 -36.5q23 -42 35.5 -91t18.5 -92.5t7 -75.5t1 -41v-31q0 -26 -3 -63.5t-10 -78.5t-17 -76q-4 -8 -13 -28.5t-24 -39.5q-28 -39 -66 -64.5t-82.5 -42.5t-91.5 -26.5t-87 -15.5 q93 0 177.5 -13t139.5 -83q41 -49 47 -101.5t6 -111.5v-262h-466v203q0 30 -4.5 59.5t-21.5 58.5q-26 37 -65 48t-84 15h-788v-384h-471zM585 756h737q66 0 109.5 4t71.5 20q26 15 39.5 39t21 49.5t8.5 45t1 23.5t-1 22.5t-4 41.5t-11.5 47.5t-23.5 44.5q-29 32 -74 39.5 t-97 11.5h-777v-388zM807 1723l352 441l199 -189l-439 -365z" />
<glyph unicode="&#x155;" horiz-adv-x="1384" d="M107 0v1065h379v-222q24 56 48 97.5t77 77.5q51 32 123.5 47t200.5 15q15 0 47 -1.5t71 -9.5t84 -27.5t85 -55.5q51 -45 71 -102q19 -47 23 -115t6 -177h-366q-6 68 -21 109t-79 59q-10 4 -39 11t-63 7q-72 0 -120 -25t-68 -42q-30 -26 -42.5 -59.5t-20.5 -108.5v-543 h-396zM575 1284l352 441l199 -189l-439 -365z" />
<glyph unicode="&#x156;" horiz-adv-x="2129" d="M113 -8v1504h1365q57 2 115 4h23q45 0 85 -4q53 -9 103.5 -27t95.5 -55q30 -24 49 -49t25 -36q24 -43 37 -91.5t18 -92.5t6 -76t1 -40v-33q0 -26 -3 -63t-9.5 -78.5t-17.5 -74.5q-4 -8 -12.5 -29t-23.5 -40q-28 -38 -66 -63.5t-83 -42.5t-91.5 -26.5t-87.5 -15.5 q94 0 178 -13t139 -83q41 -49 47 -101.5t6 -111.5v-262h-466v201q0 31 -4 60.5t-22 59.5q-26 36 -65 46.5t-83 14.5h-789v-382h-470zM581 748h738q65 0 109 4t72 19q26 14 39.5 39t20.5 50.5t8 45t1 23.5t-1 22t-4 41.5t-11.5 48t-23.5 43.5q-28 32 -73.5 39t-96.5 13h-778 v-388zM843 -106h118q32 0 63 -2q33 -2 63.5 -4.5t59 -10t55.5 -23.5t50 -43q11 -15 33 -53.5t22 -94.5q0 -32 -8 -54t-15 -35q-28 -51 -73.5 -72.5t-100.5 -31.5q-24 -5 -58 -7t-72.5 -4t-73 -3t-56.5 -1h-7v153h192q12 0 24 4q36 10 51 32q12 19 12 30v3q0 14 -8 23.5 t-13 14.5q-24 19 -53 25q-16 4 -42 4q-17 0 -37 -2h-126v152z" />
<glyph unicode="&#x157;" horiz-adv-x="1384" d="M113 0v1065h379v-222q24 56 48.5 97.5t77.5 77.5q51 32 123 47t200 15q15 0 47 -1.5t71.5 -9.5t84.5 -27.5t85 -55.5q51 -45 70 -102q19 -47 23.5 -115t6.5 -177h-366q-6 68 -21 109t-80 59q-10 4 -38.5 11t-63.5 7q-73 0 -120.5 -25t-66.5 -42q-30 -26 -42.5 -59.5 t-21.5 -108.5v-543h-396zM490 -106h117q33 0 64 -2q32 -2 62.5 -4.5t60 -10t56 -23.5t49.5 -43q10 -15 33 -53.5t23 -94.5q0 -32 -9 -54t-15 -35q-28 -51 -74 -72.5t-101 -31.5q-24 -5 -57.5 -7t-72 -4t-73.5 -3t-57 -1h-6v153h191q13 0 24 4q37 10 51 32q13 19 13 30v3 q0 14 -8.5 23.5t-12.5 14.5q-24 19 -53 25q-17 4 -43 4q-17 0 -36 -2h-126v152z" />
<glyph unicode="&#x158;" horiz-adv-x="2134" d="M112 0v1504h1365l116 4h23q44 0 85 -4q53 -8 103.5 -26.5t95.5 -54.5q30 -24 48.5 -49.5t25.5 -36.5q23 -42 35.5 -91t18.5 -92.5t7 -75.5t1 -41v-31q0 -26 -3 -63.5t-10 -78.5t-17 -76q-4 -8 -13 -28.5t-24 -39.5q-28 -39 -66 -64.5t-82.5 -42.5t-91.5 -26.5t-87 -15.5 q93 0 177.5 -13t139.5 -83q41 -49 47 -101.5t6 -111.5v-262h-466v203q0 30 -4.5 59.5t-21.5 58.5q-26 37 -65 48t-84 15h-788v-384h-471zM585 756h737q66 0 109.5 4t71.5 20q26 15 39.5 39t21 49.5t8.5 45t1 23.5t-1 22.5t-4 41.5t-11.5 47.5t-23.5 44.5q-29 32 -74 39.5 t-97 11.5h-777v-388zM618 1841l53 121l403 -143l406 143l52 -121l-454 -294z" />
<glyph unicode="&#x159;" horiz-adv-x="1384" d="M88 0v1065h379v-222q24 56 48 97.5t77 77.5q51 32 123.5 47t200.5 15q15 0 47 -1.5t71 -9.5t84 -27.5t85 -55.5q51 -45 71 -102q19 -47 23 -115t6 -177h-366q-6 68 -21 109t-79 59q-10 4 -39 11t-63 7q-72 0 -120 -25t-68 -42q-30 -26 -42.5 -59.5t-20.5 -108.5v-543 h-396zM238 1402l53 121l403 -143l406 143l52 -121l-454 -294z" />
<glyph unicode="&#x15a;" horiz-adv-x="2129" d="M115 494l471 -2q0 -26 1 -47t9 -40q12 -37 48.5 -53.5t111.5 -23.5q73 -5 143 -7t142 -4h154q77 2 155 4h52q2 -2 6 -2q37 0 70 16q36 12 61.5 44t25.5 70q0 11 -3 28t-18 39q-28 38 -68.5 45.5t-120.5 17.5q-166 4 -331.5 6.5t-330.5 12.5q-53 4 -105.5 7.5t-105.5 8.5 q-17 4 -33 5t-34 5q-10 2 -33.5 6t-53.5 16t-61 30.5t-58 47.5q-36 38 -62.5 109.5t-26.5 186.5q0 4 1 33t4 70.5t10 86t23 81.5q21 53 61 95q66 71 149 92.5t179 31.5q124 4 246.5 8.5t245.5 4.5q136 0 272 -6.5t272 -12.5l83 -13q13 -2 36 -6.5t54 -16t64 -29.5t62 -46 q39 -37 60.5 -79t31 -88t11.5 -96v-33q0 -34 -2 -66l-456 2q-11 42 -21 68.5t-28.5 40.5t-47 21.5t-73.5 11.5q-83 4 -167 8t-168 4q-65 0 -129 -2.5t-131 -4.5q-42 -2 -80.5 -8.5t-65.5 -43.5q-4 -6 -15 -25t-11 -42q0 -24 9.5 -41.5t16.5 -25.5q30 -38 68 -45.5t80 -11.5 l904 -32q47 -4 79.5 -10.5t58 -13.5t46 -18t40.5 -26q28 -21 54 -51t46 -73.5t32 -104.5t12 -144q0 -128 -20 -198t-57 -119q-14 -19 -28 -34t-33 -30q-53 -38 -119 -54.5t-137 -26.5q-140 -8 -276.5 -13.5t-276.5 -5.5q-151 0 -300.5 7.5t-302.5 15.5q-39 6 -77.5 13 t-76.5 19.5t-72 33t-62 50.5q-33 34 -49.5 81t-23.5 98t-8.5 100.5t-1.5 92.5zM800 1723l352 441l199 -189l-439 -365z" />
<glyph unicode="&#x15b;" d="M113 349l415 -2q2 -12 4.5 -25t6.5 -24q14 -30 45.5 -43t39.5 -15q10 -2 37 -5t62 -5t75.5 -3t81.5 -1h138q24 0 46 2t46 12q28 11 49 34.5t21 46.5q0 11 -10.5 31t-39.5 34q-20 8 -64 12t-91.5 5.5t-90.5 1.5h-61q-69 2 -139 3t-141 5q-81 2 -158.5 15t-146.5 62 q-55 38 -80 93q-10 19 -19 52.5t-9 88.5q0 8 2 44.5t10 72.5q5 24 15.5 52.5t32 57.5t57.5 55.5t94 43.5q28 9 57.5 14t64.5 8t80 4t105 4q49 2 99 3t99 1q148 0 243.5 -4.5t160.5 -14.5q94 -17 141.5 -40t78.5 -54q48 -49 58 -101.5t12 -115.5l-410 2q-8 28 -17.5 41.5 t-39.5 25.5q-21 6 -56 8t-84 6q-28 2 -54.5 3t-53.5 1q-30 0 -61 -1t-61 -1h-51q-14 0 -34 -6q-26 -10 -49.5 -32.5t-23.5 -46.5q0 -15 10 -25.5t20.5 -18t20 -11.5t11.5 -4q17 -4 53.5 -8t84 -5t103 -2t111.5 -3q49 -2 93 -2q47 0 96 -2q90 -2 172 -10.5t156 -61.5 q30 -21 50 -45t35 -54q10 -20 19 -54.5t9 -89.5q0 -11 -1 -35.5t-5 -56.5t-15 -68t-30 -66q-32 -53 -109 -93.5t-213 -50.5q-62 -5 -121.5 -6t-121.5 -1q-168 0 -337 7h-38q-26 0 -62 2t-77.5 6t-78.5 12q-75 17 -136 50.5t-97 105.5q-24 47 -28 90.5t-6 94.5zM577 1284 l352 441l199 -189l-439 -365z" />
<glyph unicode="&#x15c;" horiz-adv-x="2129" d="M115 494l471 -2q0 -26 1 -47t9 -40q12 -37 48.5 -53.5t111.5 -23.5q73 -5 143 -7t142 -4h154q77 2 155 4h52q2 -2 6 -2q37 0 70 16q36 12 61.5 44t25.5 70q0 11 -3 28t-18 39q-28 38 -68.5 45.5t-120.5 17.5q-166 4 -331.5 6.5t-330.5 12.5q-53 4 -105.5 7.5t-105.5 8.5 q-17 4 -33 5t-34 5q-10 2 -33.5 6t-53.5 16t-61 30.5t-58 47.5q-36 38 -62.5 109.5t-26.5 186.5q0 4 1 33t4 70.5t10 86t23 81.5q21 53 61 95q66 71 149 92.5t179 31.5q124 4 246.5 8.5t245.5 4.5q136 0 272 -6.5t272 -12.5l83 -13q13 -2 36 -6.5t54 -16t64 -29.5t62 -46 q39 -37 60.5 -79t31 -88t11.5 -96v-33q0 -34 -2 -66l-456 2q-11 42 -21 68.5t-28.5 40.5t-47 21.5t-73.5 11.5q-83 4 -167 8t-168 4q-65 0 -129 -2.5t-131 -4.5q-42 -2 -80.5 -8.5t-65.5 -43.5q-4 -6 -15 -25t-11 -42q0 -24 9.5 -41.5t16.5 -25.5q30 -38 68 -45.5t80 -11.5 l904 -32q47 -4 79.5 -10.5t58 -13.5t46 -18t40.5 -26q28 -21 54 -51t46 -73.5t32 -104.5t12 -144q0 -128 -20 -198t-57 -119q-14 -19 -28 -34t-33 -30q-53 -38 -119 -54.5t-137 -26.5q-140 -8 -276.5 -13.5t-276.5 -5.5q-151 0 -300.5 7.5t-302.5 15.5q-39 6 -77.5 13 t-76.5 19.5t-72 33t-62 50.5q-33 34 -49.5 81t-23.5 98t-8.5 100.5t-1.5 92.5zM620 1691l460 286l453 -292l-59 -124l-394 138l-405 -138z" />
<glyph unicode="&#x15d;" d="M113 349l415 -2q2 -12 4.5 -25t6.5 -24q14 -30 45.5 -43t39.5 -15q10 -2 37 -5t62 -5t75.5 -3t81.5 -1h138q24 0 46 2t46 12q28 11 49 34.5t21 46.5q0 11 -10.5 31t-39.5 34q-20 8 -64 12t-91.5 5.5t-90.5 1.5h-61q-69 2 -139 3t-141 5q-81 2 -158.5 15t-146.5 62 q-55 38 -80 93q-10 19 -19 52.5t-9 88.5q0 8 2 44.5t10 72.5q5 24 15.5 52.5t32 57.5t57.5 55.5t94 43.5q28 9 57.5 14t64.5 8t80 4t105 4q49 2 99 3t99 1q148 0 243.5 -4.5t160.5 -14.5q94 -17 141.5 -40t78.5 -54q48 -49 58 -101.5t12 -115.5l-410 2q-8 28 -17.5 41.5 t-39.5 25.5q-21 6 -56 8t-84 6q-28 2 -54.5 3t-53.5 1q-30 0 -61 -1t-61 -1h-51q-14 0 -34 -6q-26 -10 -49.5 -32.5t-23.5 -46.5q0 -15 10 -25.5t20.5 -18t20 -11.5t11.5 -4q17 -4 53.5 -8t84 -5t103 -2t111.5 -3q49 -2 93 -2q47 0 96 -2q90 -2 172 -10.5t156 -61.5 q30 -21 50 -45t35 -54q10 -20 19 -54.5t9 -89.5q0 -11 -1 -35.5t-5 -56.5t-15 -68t-30 -66q-32 -53 -109 -93.5t-213 -50.5q-62 -5 -121.5 -6t-121.5 -1q-168 0 -337 7h-38q-26 0 -62 2t-77.5 6t-78.5 12q-75 17 -136 50.5t-97 105.5q-24 47 -28 90.5t-6 94.5zM394 1252 l460 286l453 -292l-59 -124l-394 138l-405 -138z" />
<glyph unicode="&#x15e;" horiz-adv-x="2129" d="M115 494l471 -2q0 -26 1 -47t9 -40q12 -37 48.5 -53.5t111.5 -23.5q73 -5 143 -7t142 -4h154q77 2 155 4h52q2 -2 6 -2q37 0 70 16q36 12 61.5 44t25.5 70q0 11 -3 28t-18 39q-28 38 -68.5 45.5t-120.5 17.5q-166 4 -331.5 6.5t-330.5 12.5q-53 4 -105.5 7.5t-105.5 8.5 q-17 4 -33 5t-34 5q-10 2 -33.5 6t-53.5 16t-61 30.5t-58 47.5q-36 38 -62.5 109.5t-26.5 186.5q0 4 1 33t4 70.5t10 86t23 81.5q21 53 61 95q66 71 149 92.5t179 31.5q124 4 246.5 8.5t245.5 4.5q136 0 272 -6.5t272 -12.5l83 -13q13 -2 36 -6.5t54 -16t64 -29.5t62 -46 q39 -37 60.5 -79t31 -88t11.5 -96v-33q0 -34 -2 -66l-456 2q-11 42 -21 68.5t-28.5 40.5t-47 21.5t-73.5 11.5q-83 4 -167 8t-168 4q-65 0 -129 -2.5t-131 -4.5q-42 -2 -80.5 -8.5t-65.5 -43.5q-4 -6 -15 -25t-11 -42q0 -24 9.5 -41.5t16.5 -25.5q30 -38 68 -45.5t80 -11.5 l904 -32q47 -4 79.5 -10.5t58 -13.5t46 -18t40.5 -26q28 -21 54 -51t46 -73.5t32 -104.5t12 -144q0 -128 -20 -198t-57 -119q-14 -19 -28 -34t-33 -30q-53 -38 -119 -54.5t-137 -26.5q-140 -8 -276.5 -13.5t-276.5 -5.5q-151 0 -300.5 7.5t-302.5 15.5q-39 6 -77.5 13 t-76.5 19.5t-72 33t-62 50.5q-33 34 -49.5 81t-23.5 98t-8.5 100.5t-1.5 92.5zM832 -209l349 177l136 -224l-404 -96z" />
<glyph unicode="&#x15f;" d="M113 349l415 -2q2 -12 4.5 -25t6.5 -24q14 -30 45.5 -43t39.5 -15q10 -2 37 -5t62 -5t75.5 -3t81.5 -1h138q24 0 46 2t46 12q28 11 49 34.5t21 46.5q0 11 -10.5 31t-39.5 34q-20 8 -64 12t-91.5 5.5t-90.5 1.5h-61q-69 2 -139 3t-141 5q-81 2 -158.5 15t-146.5 62 q-55 38 -80 93q-10 19 -19 52.5t-9 88.5q0 8 2 44.5t10 72.5q5 24 15.5 52.5t32 57.5t57.5 55.5t94 43.5q28 9 57.5 14t64.5 8t80 4t105 4q49 2 99 3t99 1q148 0 243.5 -4.5t160.5 -14.5q94 -17 141.5 -40t78.5 -54q48 -49 58 -101.5t12 -115.5l-410 2q-8 28 -17.5 41.5 t-39.5 25.5q-21 6 -56 8t-84 6q-28 2 -54.5 3t-53.5 1q-30 0 -61 -1t-61 -1h-51q-14 0 -34 -6q-26 -10 -49.5 -32.5t-23.5 -46.5q0 -15 10 -25.5t20.5 -18t20 -11.5t11.5 -4q17 -4 53.5 -8t84 -5t103 -2t111.5 -3q49 -2 93 -2q47 0 96 -2q90 -2 172 -10.5t156 -61.5 q30 -21 50 -45t35 -54q10 -20 19 -54.5t9 -89.5q0 -11 -1 -35.5t-5 -56.5t-15 -68t-30 -66q-32 -53 -109 -93.5t-213 -50.5q-62 -5 -121.5 -6t-121.5 -1q-168 0 -337 7h-38q-26 0 -62 2t-77.5 6t-78.5 12q-75 17 -136 50.5t-97 105.5q-24 47 -28 90.5t-6 94.5zM609 -209 l349 177l136 -224l-404 -96z" />
<glyph unicode="&#x160;" horiz-adv-x="2129" d="M115 494l471 -2q0 -26 1 -47t9 -40q12 -37 48.5 -53.5t111.5 -23.5q73 -5 143 -7t142 -4h154q77 2 155 4h52q2 -2 6 -2q37 0 70 16q36 12 61.5 44t25.5 70q0 11 -3 28t-18 39q-28 38 -68.5 45.5t-120.5 17.5q-166 4 -331.5 6.5t-330.5 12.5q-53 4 -105.5 7.5t-105.5 8.5 q-17 4 -33 5t-34 5q-10 2 -33.5 6t-53.5 16t-61 30.5t-58 47.5q-36 38 -62.5 109.5t-26.5 186.5q0 4 1 33t4 70.5t10 86t23 81.5q21 53 61 95q66 71 149 92.5t179 31.5q124 4 246.5 8.5t245.5 4.5q136 0 272 -6.5t272 -12.5l83 -13q13 -2 36 -6.5t54 -16t64 -29.5t62 -46 q39 -37 60.5 -79t31 -88t11.5 -96v-33q0 -34 -2 -66l-456 2q-11 42 -21 68.5t-28.5 40.5t-47 21.5t-73.5 11.5q-83 4 -167 8t-168 4q-65 0 -129 -2.5t-131 -4.5q-42 -2 -80.5 -8.5t-65.5 -43.5q-4 -6 -15 -25t-11 -42q0 -24 9.5 -41.5t16.5 -25.5q30 -38 68 -45.5t80 -11.5 l904 -32q47 -4 79.5 -10.5t58 -13.5t46 -18t40.5 -26q28 -21 54 -51t46 -73.5t32 -104.5t12 -144q0 -128 -20 -198t-57 -119q-14 -19 -28 -34t-33 -30q-53 -38 -119 -54.5t-137 -26.5q-140 -8 -276.5 -13.5t-276.5 -5.5q-151 0 -300.5 7.5t-302.5 15.5q-39 6 -77.5 13 t-76.5 19.5t-72 33t-62 50.5q-33 34 -49.5 81t-23.5 98t-8.5 100.5t-1.5 92.5zM620 1841l53 121l403 -143l406 143l52 -121l-454 -294z" />
<glyph unicode="&#x161;" d="M113 349l415 -2q2 -12 4.5 -25t6.5 -24q14 -30 45.5 -43t39.5 -15q10 -2 37 -5t62 -5t75.5 -3t81.5 -1h138q24 0 46 2t46 12q28 11 49 34.5t21 46.5q0 11 -10.5 31t-39.5 34q-20 8 -64 12t-91.5 5.5t-90.5 1.5h-61q-69 2 -139 3t-141 5q-81 2 -158.5 15t-146.5 62 q-55 38 -80 93q-10 19 -19 52.5t-9 88.5q0 8 2 44.5t10 72.5q5 24 15.5 52.5t32 57.5t57.5 55.5t94 43.5q28 9 57.5 14t64.5 8t80 4t105 4q49 2 99 3t99 1q148 0 243.5 -4.5t160.5 -14.5q94 -17 141.5 -40t78.5 -54q48 -49 58 -101.5t12 -115.5l-410 2q-8 28 -17.5 41.5 t-39.5 25.5q-21 6 -56 8t-84 6q-28 2 -54.5 3t-53.5 1q-30 0 -61 -1t-61 -1h-51q-14 0 -34 -6q-26 -10 -49.5 -32.5t-23.5 -46.5q0 -15 10 -25.5t20.5 -18t20 -11.5t11.5 -4q17 -4 53.5 -8t84 -5t103 -2t111.5 -3q49 -2 93 -2q47 0 96 -2q90 -2 172 -10.5t156 -61.5 q30 -21 50 -45t35 -54q10 -20 19 -54.5t9 -89.5q0 -11 -1 -35.5t-5 -56.5t-15 -68t-30 -66q-32 -53 -109 -93.5t-213 -50.5q-62 -5 -121.5 -6t-121.5 -1q-168 0 -337 7h-38q-26 0 -62 2t-77.5 6t-78.5 12q-75 17 -136 50.5t-97 105.5q-24 47 -28 90.5t-6 94.5zM394 1402 l53 121l403 -143l406 143l52 -121l-454 -294z" />
<glyph unicode="&#x162;" horiz-adv-x="2022" d="M120 1154v350h1814v-348h-677v-1156h-473v1154h-664zM784 -209l349 177l136 -224l-404 -96z" />
<glyph unicode="&#x163;" horiz-adv-x="1490" d="M87 784v281h200v240h396v-240h648v-275h-648v-390q0 -36 6 -52t18 -33q19 -24 57.5 -38.5t102.5 -14.5t101.5 22.5t49.5 45.5q8 16 10.5 31t2.5 35q0 19 -2.5 41.5t-2.5 26.5h356v-59q0 -31 -2 -60q-2 -18 -6 -54.5t-19 -78t-46 -85.5t-84 -76q-36 -24 -82 -37.5t-95 -22 t-97 -10.5t-89 -2q-38 0 -75 1t-76 3q-46 2 -91 6.5t-88.5 15t-82 29.5t-73.5 53q-36 37 -51.5 70.5t-19.5 51.5q-7 19 -9 40t-4 40.5t-2 31.5v463h-203zM492 -209l349 177l136 -224l-404 -96z" />
<glyph unicode="&#x164;" horiz-adv-x="2022" d="M115 1154v350h1814v-348h-677v-1156h-473v1154h-664zM567 1841l53 121l403 -143l406 143l52 -121l-454 -294z" />
<glyph unicode="&#x165;" horiz-adv-x="2026" d="M87 784v281h200v240h396v-240h648v-275h-648v-390q0 -36 6 -52t18 -33q19 -24 57.5 -38.5t102.5 -14.5t101.5 22.5t49.5 45.5q8 16 10.5 31t2.5 35q0 19 -2.5 41.5t-2.5 26.5h356v-59q0 -31 -2 -60q-2 -18 -6 -54.5t-19 -78t-46 -85.5t-84 -76q-36 -24 -82 -37.5t-95 -22 t-97 -10.5t-89 -2q-38 0 -75 1t-76 3q-46 2 -91 6.5t-88.5 15t-82 29.5t-73.5 53q-36 37 -51.5 70.5t-19.5 51.5q-7 19 -9 40t-4 40.5t-2 31.5v463h-203zM1408 695l2 240h17q14 0 33.5 1t41 6t40.5 19q35 21 45 58.5t19 79.5h-134v405h451v-508q0 -14 -2 -29q0 -12 -3 -32.5 t-10.5 -45.5t-21.5 -51.5t-39 -51.5q-61 -63 -164 -79q-90 -12 -232 -12h-43z" />
<glyph unicode="&#x166;" horiz-adv-x="2022" d="M120 1154v350h1814v-348h-677v-1156h-473v1154h-664zM473 616v272h1108v-272h-1108z" />
<glyph unicode="&#x167;" horiz-adv-x="1490" d="M102 400v272h1108v-272h-1108zM108 784v281h200v240h396v-240h648v-275h-648v-390q0 -36 6 -52t18 -33q19 -24 57.5 -38.5t102.5 -14.5t101.5 22.5t49.5 45.5q8 16 10.5 31t2.5 35q0 19 -2.5 41.5t-2.5 26.5h356v-59q0 -31 -2 -60q-2 -18 -6 -54.5t-19 -78t-46 -85.5 t-84 -76q-36 -24 -82 -37.5t-95 -22t-97 -10.5t-89 -2q-38 0 -75 1t-76 3q-46 2 -91 6.5t-88.5 15t-82 29.5t-73.5 53q-36 37 -51.5 70.5t-19.5 51.5q-7 19 -9 40t-4 40.5t-2 31.5v463h-203z" />
<glyph unicode="&#x168;" horiz-adv-x="2236" d="M145 473v1031h462v-878q2 -49 7.5 -100t35.5 -93q38 -55 114 -69q64 -12 167 -12h475q75 10 109 21t56 32q37 36 48 89t15 102v908h464v-998q-2 -28 -4.5 -54t-6.5 -54q-4 -24 -12.5 -62t-28.5 -83.5t-56.5 -92.5t-95.5 -83q-83 -51 -167.5 -66t-177.5 -23 q-109 -3 -213.5 -5t-213.5 -2q-124 0 -246 4.5t-246 10.5q-24 4 -45.5 6t-45.5 6q-96 17 -179 58.5t-138 129.5q-43 68 -56 135t-21 142zM646 1602q10 68 20 102t24 64q9 17 28 46t51.5 56.5t78 47t107.5 19.5q55 0 92.5 -13t55.5 -24q43 -19 83.5 -39t89.5 -20q6 0 20 1 t31 5q36 11 50 36.5t29 59.5h191q-10 -64 -23.5 -120.5t-58.5 -107.5q-24 -28 -77 -63t-144 -38q-56 2 -96.5 14t-57.5 21q-45 16 -86.5 34.5t-90.5 18.5q-24 0 -37.5 -3.5t-21.5 -7.5q-24 -8 -37.5 -26.5t-37.5 -62.5h-183z" />
<glyph unicode="&#x169;" d="M122 422v643h394v-586q0 -14 3 -33.5t9.5 -40.5t20.5 -41q24 -32 54.5 -45.5t67.5 -20.5q16 -2 73 -5t112 -3q57 0 126.5 8.5t118.5 44.5q28 21 47 53q24 39 27 79.5t5 52.5v537h394v-1065h-392v185q-30 -53 -56.5 -87.5t-84.5 -61.5q-41 -20 -85 -31t-91.5 -16.5 t-93.5 -5.5h-145q-45 0 -105.5 7.5t-127.5 25.5t-118 55q-43 30 -67.5 63.5t-32.5 48.5q-28 53 -37.5 115t-15.5 124zM373 1163q10 68 20 102t24 64q9 17 28 46t51.5 56.5t78 47t107.5 19.5q55 0 92.5 -13t55.5 -24q43 -19 83.5 -39t89.5 -20q6 0 20 1t31 5q36 11 50 36.5 t29 59.5h191q-10 -64 -23.5 -120.5t-58.5 -107.5q-24 -28 -77 -63t-144 -38q-56 2 -96.5 14t-57.5 21q-45 16 -86.5 34.5t-90.5 18.5q-24 0 -37.5 -3.5t-21.5 -7.5q-24 -8 -37.5 -26.5t-37.5 -62.5h-183z" />
<glyph unicode="&#x16a;" horiz-adv-x="2236" d="M145 473v1031h462v-878q2 -49 7.5 -100t35.5 -93q38 -55 114 -69q64 -12 167 -12h475q75 10 109 21t56 32q37 36 48 89t15 102v908h464v-998q-2 -28 -4.5 -54t-6.5 -54q-4 -24 -12.5 -62t-28.5 -83.5t-56.5 -92.5t-95.5 -83q-83 -51 -167.5 -66t-177.5 -23 q-109 -3 -213.5 -5t-213.5 -2q-124 0 -246 4.5t-246 10.5q-24 4 -45.5 6t-45.5 6q-96 17 -179 58.5t-138 129.5q-43 68 -56 135t-21 142zM591 1619v393h1059v-393h-1059z" />
<glyph unicode="&#x16b;" d="M122 422v643h394v-586q0 -14 3 -33.5t9.5 -40.5t20.5 -41q24 -32 54.5 -45.5t67.5 -20.5q16 -2 73 -5t112 -3q57 0 126.5 8.5t118.5 44.5q28 21 47 53q24 39 27 79.5t5 52.5v537h394v-1065h-392v185q-30 -53 -56.5 -87.5t-84.5 -61.5q-41 -20 -85 -31t-91.5 -16.5 t-93.5 -5.5h-145q-45 0 -105.5 7.5t-127.5 25.5t-118 55q-43 30 -67.5 63.5t-32.5 48.5q-28 53 -37.5 115t-15.5 124zM319 1180v393h1059v-393h-1059z" />
<glyph unicode="&#x16c;" horiz-adv-x="2236" d="M145 473v1031h462v-878q2 -49 7.5 -100t35.5 -93q38 -55 114 -69q64 -12 167 -12h475q75 10 109 21t56 32q37 36 48 89t15 102v908h464v-998q-2 -28 -4.5 -54t-6.5 -54q-4 -24 -12.5 -62t-28.5 -83.5t-56.5 -92.5t-95.5 -83q-83 -51 -167.5 -66t-177.5 -23 q-109 -3 -213.5 -5t-213.5 -2q-124 0 -246 4.5t-246 10.5q-24 4 -45.5 6t-45.5 6q-96 17 -179 58.5t-138 129.5q-43 68 -56 135t-21 142zM654 1866v42h247v-2q-10 -14 -11 -38q0 -13 4.5 -25t6.5 -16q11 -24 34 -30t54 -8l191 -7q47 2 80.5 6.5t51.5 15.5q21 13 30 45 q4 26 6 59h241q-2 -40 -4 -73q-3 -40 -10 -70.5t-20 -53t-37 -41.5q-36 -30 -76.5 -40t-84.5 -16q-62 -4 -121.5 -8.5t-122.5 -4.5q-61 0 -121 4.5t-119 8.5q-10 2 -22 3t-23 3q-8 2 -26 7t-41.5 15t-46 28.5t-36.5 46.5q-11 24 -17.5 60t-6.5 89z" />
<glyph unicode="&#x16d;" d="M143 422v643h394v-586q0 -14 3 -33.5t9.5 -40.5t20.5 -41q24 -32 54.5 -45.5t67.5 -20.5q16 -2 73 -5t112 -3q57 0 126.5 8.5t118.5 44.5q28 21 47 53q24 39 27 79.5t5 52.5v537h394v-1065h-392v185q-30 -53 -56.5 -87.5t-84.5 -61.5q-41 -20 -85 -31t-91.5 -16.5 t-93.5 -5.5h-145q-45 0 -105.5 7.5t-127.5 25.5t-118 55q-43 30 -67.5 63.5t-32.5 48.5q-28 53 -37.5 115t-15.5 124zM403 1451v42h247v-2q-10 -14 -11 -38q0 -13 4.5 -25t6.5 -16q11 -24 34 -30t54 -8l191 -7q47 2 80.5 6.5t51.5 15.5q21 13 30 45q4 26 6 59h241 q-2 -40 -4 -73q-3 -40 -10 -70.5t-20 -53t-37 -41.5q-36 -30 -76.5 -40t-84.5 -16q-62 -4 -121.5 -8.5t-122.5 -4.5q-61 0 -121 4.5t-119 8.5q-10 2 -22 3t-23 3q-8 2 -26 7t-41.5 15t-46 28.5t-36.5 46.5q-11 24 -17.5 60t-6.5 89z" />
<glyph unicode="&#x16e;" horiz-adv-x="2236" d="M145 473v1031h462v-878q2 -49 7.5 -100t35.5 -93q38 -55 114 -69q64 -12 167 -12h475q75 10 109 21t56 32q37 36 48 89t15 102v908h464v-998q-2 -28 -4.5 -54t-6.5 -54q-4 -24 -12.5 -62t-28.5 -83.5t-56.5 -92.5t-95.5 -83q-83 -51 -167.5 -66t-177.5 -23 q-109 -3 -213.5 -5t-213.5 -2q-124 0 -246 4.5t-246 10.5q-24 4 -45.5 6t-45.5 6q-96 17 -179 58.5t-138 129.5q-43 68 -56 135t-21 142zM837 1780q0 115 81.5 200t201.5 85q122 0 203.5 -81.5t81.5 -203.5q0 -120 -81.5 -202t-203.5 -82q-120 0 -201.5 82t-81.5 202z M971 1780q0 -63 43 -106.5t106 -43.5t104 42t41 108q0 63 -41 104t-104 41q-61 0 -105 -41t-44 -104z" />
<glyph unicode="&#x16f;" d="M122 422v643h394v-586q0 -14 3 -33.5t9.5 -40.5t20.5 -41q24 -32 54.5 -45.5t67.5 -20.5q16 -2 73 -5t112 -3q57 0 126.5 8.5t118.5 44.5q28 21 47 53q24 39 27 79.5t5 52.5v537h394v-1065h-392v185q-30 -53 -56.5 -87.5t-84.5 -61.5q-41 -20 -85 -31t-91.5 -16.5 t-93.5 -5.5h-145q-45 0 -105.5 7.5t-127.5 25.5t-118 55q-43 30 -67.5 63.5t-32.5 48.5q-28 53 -37.5 115t-15.5 124zM565 1421q0 115 81.5 200t201.5 85q122 0 203.5 -81.5t81.5 -203.5q0 -120 -81.5 -202t-203.5 -82q-120 0 -201.5 82t-81.5 202zM699 1421 q0 -63 43 -106.5t106 -43.5t104 42t41 108q0 63 -41 104t-104 41q-61 0 -105 -41t-44 -104z" />
<glyph unicode="&#x170;" horiz-adv-x="2236" d="M145 473v1031h462v-878q2 -49 7.5 -100t35.5 -93q38 -55 114 -69q64 -12 167 -12h475q75 10 109 21t56 32q37 36 48 89t15 102v908h464v-998q-2 -28 -4.5 -54t-6.5 -54q-4 -24 -12.5 -62t-28.5 -83.5t-56.5 -92.5t-95.5 -83q-83 -51 -167.5 -66t-177.5 -23 q-109 -3 -213.5 -5t-213.5 -2q-124 0 -246 4.5t-246 10.5q-24 4 -45.5 6t-45.5 6q-96 17 -179 58.5t-138 129.5q-43 68 -56 135t-21 142zM628 1723l352 441l199 -189l-439 -365zM1066 1723l352 441l199 -189l-439 -365z" />
<glyph unicode="&#x171;" d="M122 422v643h394v-586q0 -14 3 -33.5t9.5 -40.5t20.5 -41q24 -32 54.5 -45.5t67.5 -20.5q16 -2 73 -5t112 -3q57 0 126.5 8.5t118.5 44.5q28 21 47 53q24 39 27 79.5t5 52.5v537h394v-1065h-392v185q-30 -53 -56.5 -87.5t-84.5 -61.5q-41 -20 -85 -31t-91.5 -16.5 t-93.5 -5.5h-145q-45 0 -105.5 7.5t-127.5 25.5t-118 55q-43 30 -67.5 63.5t-32.5 48.5q-28 53 -37.5 115t-15.5 124zM374 1284l352 441l199 -189l-439 -365zM812 1284l352 441l199 -189l-439 -365z" />
<glyph unicode="&#x172;" horiz-adv-x="2236" d="M188 473v1031h462v-878q2 -49 7.5 -100t35.5 -93q38 -55 114 -69q64 -12 167 -12h475q75 10 109 21t56 32q37 36 48 89t15 102v908h464v-998q-2 -28 -4.5 -54t-6.5 -54q-4 -24 -12.5 -62t-28.5 -83.5t-56.5 -92.5t-95.5 -83q-83 -51 -167.5 -66t-177.5 -23 q-109 -3 -213.5 -5t-213.5 -2q-124 0 -246 4.5t-246 10.5q-24 4 -45.5 6t-45.5 6q-96 17 -179 58.5t-138 129.5q-43 68 -56 135t-21 142zM1225 -146v401q0 1 1.5 10t5 21t6.5 25.5t9 24.5q10 23 45.5 58.5t112.5 53.5q34 8 78.5 11t91.5 5h89q45 -2 77 -3l-2 -174 q-55 -1 -88.5 -6t-53.5 -17t-30.5 -35.5t-20.5 -61.5h136v-313h-457z" />
<glyph unicode="&#x173;" d="M165 422v643h394v-586q0 -14 3 -33.5t9.5 -40.5t20.5 -41q24 -32 54.5 -45.5t67.5 -20.5q16 -2 73 -5t112 -3q57 0 126.5 8.5t118.5 44.5q28 21 47 53q24 39 27 79.5t5 52.5v537h394v-1065h-392v185q-30 -53 -56.5 -87.5t-84.5 -61.5q-41 -20 -85 -31t-91.5 -16.5 t-93.5 -5.5h-145q-45 0 -105.5 7.5t-127.5 25.5t-118 55q-43 30 -67.5 63.5t-32.5 48.5q-28 53 -37.5 115t-15.5 124zM1101 95q0 1 1.5 10t5 21t6.5 25.5t9 24.5q10 23 45.5 58.5t112.5 53.5q34 8 78.5 11t91.5 5h89q45 -2 77 -3l-2 -174q-55 -1 -88.5 -6t-53.5 -17 t-30.5 -35.5t-20.5 -61.5h136v-313h-457v401z" />
<glyph unicode="&#x174;" horiz-adv-x="3303" d="M72 1504h473q66 -171 130 -340.5t132 -338.5q45 -114 90.5 -225.5t90.5 -225.5l385 1130h569l369 -1130l451 1130h482q-17 -32 -32 -63t-30 -63q-24 -49 -45 -97t-43 -96q-55 -133 -107 -264t-106 -265q-69 -166 -137.5 -329t-141.5 -327h-613l-336 1071l-354 -1071h-616 zM1201 1691l460 286l453 -292l-59 -124l-394 138l-405 -138z" />
<glyph unicode="&#x175;" horiz-adv-x="2449" d="M95 1065h415l242 -775l290 775h370l288 -767l251 767h418l-400 -1065h-529l-213 630l-209 -630h-525zM776 1252l460 286l453 -292l-59 -124l-394 138l-405 -138z" />
<glyph unicode="&#x176;" horiz-adv-x="2340" d="M85 1504h581l505 -614l507 614h600l-868 -978v-526h-471v526zM727 1691l460 286l453 -292l-59 -124l-394 138l-405 -138z" />
<glyph unicode="&#x177;" horiz-adv-x="1599" d="M47 1065h428l307 -775l340 775h427l-41 -81l-579 -1250q-24 -47 -40.5 -71.5t-34.5 -42.5q-41 -40 -120.5 -69.5t-207.5 -29.5q-44 0 -90 2t-91 6v273h62q32 0 64 2q59 5 82.5 17.5t40.5 33.5q16 21 36 57.5t43 87.5h-151zM341 1252l460 286l453 -292l-59 -124l-394 138 l-405 -138z" />
<glyph unicode="&#x178;" horiz-adv-x="2449" d="M102 1504h581l506 -614l506 614h601l-869 -978v-526h-470v526zM667 1648v267h413v-267h-413zM1301 1648v267h416v-267h-416z" />
<glyph unicode="&#x179;" horiz-adv-x="2129" d="M140 0l2 356q128 89 255 178.5t255 183.5q98 70 194.5 141.5t199.5 139.5q69 47 137.5 91t139.5 85l-1146 -10v339h1797v-343q-128 -90 -253.5 -177.5t-253.5 -176.5q-127 -91 -250.5 -183t-251.5 -179l-148 -96l1175 13v-362h-1852zM792 1723l352 441l199 -189 l-439 -365z" />
<glyph unicode="&#x17a;" horiz-adv-x="1490" d="M130 0v281l716 514h-667v270h1232v-313l-675 -475h697v-277h-1303zM577 1284l352 441l199 -189l-439 -365z" />
<glyph unicode="&#x17b;" horiz-adv-x="2129" d="M161 0l2 356q128 89 255 178.5t255 183.5q98 70 194.5 141.5t199.5 139.5q69 47 137.5 91t139.5 85l-1146 -10v339h1797v-343q-128 -90 -253.5 -177.5t-253.5 -176.5q-127 -91 -250.5 -183t-251.5 -179l-148 -96l1175 13v-362h-1852zM898 1833q0 10 2.5 29.5t13.5 42.5 q6 15 18.5 35.5t34 39.5t52.5 31.5t74 12.5q81 0 133 -54t52 -135q0 -45 -20 -83q-6 -11 -18.5 -29t-35 -36.5t-53.5 -30t-70 -11.5q-37 0 -70.5 15t-59 40.5t-39.5 59.5t-14 73z" />
<glyph unicode="&#x17c;" horiz-adv-x="1490" d="M87 0v281l716 514h-667v270h1232v-313l-675 -475h697v-277h-1303zM549 1394q0 10 2.5 29.5t13.5 42.5q6 15 18.5 35.5t34 39.5t52.5 31.5t74 12.5q81 0 133 -54t52 -135q0 -45 -20 -83q-6 -11 -18.5 -29t-35 -36.5t-53.5 -30t-70 -11.5q-37 0 -70.5 15t-59 40.5 t-39.5 59.5t-14 73z" />
<glyph unicode="&#x17d;" horiz-adv-x="2129" d="M140 0l2 356q128 89 255 178.5t255 183.5q98 70 194.5 141.5t199.5 139.5q69 47 137.5 91t139.5 85l-1146 -10v339h1797v-343q-128 -90 -253.5 -177.5t-253.5 -176.5q-127 -91 -250.5 -183t-251.5 -179l-148 -96l1175 13v-362h-1852zM609 1841l53 121l403 -143l406 143 l52 -121l-454 -294z" />
<glyph unicode="&#x17e;" horiz-adv-x="1490" d="M130 0v281l716 514h-667v270h1232v-313l-675 -475h697v-277h-1303zM325 1402l53 121l403 -143l406 143l52 -121l-454 -294z" />
<glyph unicode="&#x17f;" horiz-adv-x="1168" d="M94 790v269h209v95q2 19 3 38.5t3 36.5q4 30 18 85.5t69 112.5q30 32 67 52.5t87.5 33t114 18t146.5 7.5h220v-262h-100q-73 -4 -116.5 -14t-70.5 -33q-31 -26 -37 -71.5t-6 -96.5h351v-269h-353v-792h-398v790h-207z" />
<glyph unicode="&#x192;" horiz-adv-x="1380" d="M69 -558l37 219h83q62 4 100.5 12t64.5 26q28 21 40.5 60.5t18.5 82.5l40 224l139 803h-173l39 226h174l16 78q4 17 7 33.5t7 31.5q9 24 28 70.5t74 93.5q31 28 64.5 44.5t77.5 27t98.5 15t123.5 7.5h184l-38 -220h-83q-62 -4 -100.5 -12t-64.5 -26q-30 -21 -41.5 -60.5 t-17.5 -82.5h293l-37 -223h-296l-139 -803l-40 -227l-15 -78q-4 -17 -7.5 -33t-7.5 -32q-9 -23 -28 -69.5t-74 -93.5q-30 -28 -64 -45t-77.5 -27.5t-98.5 -15t-124 -6.5h-183z" />
<glyph unicode="&#x1fc;" horiz-adv-x="3294" d="M30 0l1037 1504h2132v-339h-1173v-247h1101v-313h-1108v-264h1191v-341h-1625v277h-838l-189 -277h-528zM946 583h641v584h-256zM1416 1723l352 441l199 -189l-439 -365z" />
<glyph unicode="&#x1fd;" horiz-adv-x="2659" d="M75 343q0 64 9 108.5t25.5 75.5t38.5 51t45 36q69 42 142.5 50.5t147.5 10.5h273q30 0 60.5 -1t63.5 -1q46 0 76 -3t55.5 -12.5t51 -27.5t61.5 -47q0 24 2 49v16q0 17 -2 31q0 32 -6 57.5t-32 49.5q-39 37 -88 41t-98 6q-34 0 -65.5 1t-66.5 1q-30 0 -57.5 -1t-56.5 -1 h-34q-28 0 -47 -10q-15 -7 -24.5 -22t-24.5 -49h-402v32q0 17 4 33q4 29 17.5 72.5t67.5 92.5q38 36 85 55.5t98 28.5t105 12.5t110 3.5h298q42 0 90 -2.5t96.5 -10.5t93 -23t80.5 -40q23 -17 38.5 -35.5t31.5 -41.5q13 18 37.5 49.5t80.5 58.5q61 30 131.5 35t140.5 8h291 q24 0 49.5 -1.5t51.5 -1.5q13 0 57.5 -4t100 -20t112 -49t94.5 -90q33 -47 47.5 -106.5t20.5 -122.5q6 -55 7 -106v-16q-2 -62 -5 -114l-1041 -2q0 -36 3 -70t25 -68q21 -37 48.5 -50.5t65.5 -18.5q45 -6 87.5 -7t85.5 -1h90q28 0 53.5 1t55.5 3q6 2 34.5 4t47.5 18 q21 14 32 39.5t22 56.5h396q-2 -53 -8.5 -92.5t-31.5 -86.5q-55 -102 -191 -148t-362 -46q-51 0 -101.5 1t-101.5 1q-41 0 -96.5 1t-114 7.5t-113 20.5t-92.5 41q-21 15 -36 34t-40 66q-11 -19 -20 -31q-17 -24 -44 -49.5t-86 -46.5q-55 -19 -125.5 -30t-191.5 -11h-145 q-85 0 -165 1.5t-170 21.5q-16 4 -63 20.5t-90 50.5q-53 45 -74 115t-21 149zM473 339q0 -10 4 -24t17 -32q28 -30 68 -37.5t117 -9.5q32 -2 62 -2h64q81 0 164 6q2 0 12.5 1t25.5 4t32 7t30 10q21 10 36 31.5t15 47.5q0 32 -23 59q-34 43 -77 48t-85 8h-236 q-24 0 -47.5 -1.5t-46.5 -3.5q-6 0 -31 -2t-44 -12q-36 -19 -46.5 -52t-10.5 -46zM1069 1284l352 441l199 -189l-439 -365zM1504 673h656q-8 45 -18 76t-32.5 48.5t-63 26.5t-113.5 9h-204q-36 0 -72 -2q-53 -4 -96 -34q-19 -17 -30 -33t-15 -22q-4 -13 -6 -27z" />
<glyph unicode="&#x1fe;" horiz-adv-x="2453" d="M63 -43v260l140 88q-15 57 -23.5 94.5t-12 77t-4.5 94.5t-3 151q0 49 -1 100.5t-1 102.5q0 113 20 216t94 192q29 35 62.5 61.5t79.5 47.5t110 36t153 24q164 16 323 17t321 1q83 0 165.5 1.5t166.5 1.5q95 0 162 -7.5t116.5 -22.5t89.5 -36.5t83 -48.5l260 147v-260 l-143 -81q9 -39 16.5 -77t14 -82.5t9.5 -102.5t3 -135v-181q0 -59 -2 -115.5t-12 -110.5t-28.5 -106t-57.5 -101q-38 -57 -100 -99q-24 -17 -64.5 -35t-107.5 -35q-83 -18 -204 -28t-247 -13t-246 -3h-203q-49 0 -99 -1t-101 -1h-46q-41 0 -97.5 4t-120.5 16.5t-113 36.5 q-26 12 -49 29.5t-47 33.5zM601 880q0 -88 5.5 -172t9.5 -167l1041 605q-26 19 -45 27q-21 11 -61.5 14.5t-95.5 3.5h-87q-45 0 -90 -2q-81 0 -163 -2t-165 -9q-60 -4 -103.5 -7.5t-76.5 -12t-57.5 -21.5t-45.5 -36q-31 -34 -48.5 -83t-17.5 -138zM756 362 q39 -10 65.5 -17.5t52 -11t53.5 -4.5t67 -1q75 0 147.5 -2.5t147.5 -2.5q104 3 217 14q32 2 66 4t67 8.5t62 18.5t52 34q31 31 46.5 65.5t21.5 68t6 56.5v36q0 30 -1 61t-3 61q-2 59 -3 117t-5 115zM939 1723l352 441l199 -189l-439 -365z" />
<glyph unicode="&#x1ff;" horiz-adv-x="1809" d="M59 -30v186l134 70q-10 36 -16.5 63.5t-10.5 60t-4 74.5q-2 13 -2 29q0 33 2 77v77q2 49 5 97t13.5 92.5t31 85t56.5 75.5q37 36 77.5 54t86.5 30q43 13 83 19.5t89.5 11.5t111 7.5t146.5 6.5q110 6 226 7h40q39 0 93.5 -4.5t113.5 -14t106 -28.5q19 -8 39 -20t56 -36 l238 130v-179l-144 -81q14 -43 23.5 -72.5t14 -56t4.5 -58.5v-209q0 -55 -3.5 -104t-15 -92.5t-36 -83t-69.5 -74.5q-44 -36 -91 -56t-103 -30q-24 -4 -71.5 -10t-111.5 -11t-138 -9t-151 -4q-108 0 -220 6q-51 2 -101.5 5t-98.5 18q-45 12 -90 34t-87 43zM536 553 q0 -28 2.5 -52t8.5 -75l642 364q-73 9 -144.5 14t-144.5 5q-93 0 -168.5 -10.5t-105.5 -29.5q-32 -17 -61 -71.5t-29 -144.5zM642 1284l352 441l199 -189l-439 -365zM647 303q18 -9 33 -14.5t30.5 -9.5t36.5 -6.5t58 -2.5h221q53 5 115 18t105 55q6 6 12 14.5t14 26.5 q16 42 18 112v22q0 63 -6 149z" />
<glyph unicode="&#x218;" horiz-adv-x="2132" d="M115 494l471 -2q0 -26 1 -47t9 -40q12 -37 48.5 -53.5t111.5 -23.5q73 -5 143 -7t142 -4h154q77 2 155 4h52q2 -2 6 -2q37 0 70 16q36 12 61.5 44t25.5 70q0 11 -3 28t-18 39q-28 38 -68.5 45.5t-120.5 17.5q-166 4 -331.5 6.5t-330.5 12.5q-53 4 -105.5 7.5t-105.5 8.5 q-17 4 -33 5t-34 5q-10 2 -33.5 6t-53.5 16t-61 30.5t-58 47.5q-36 38 -62.5 109.5t-26.5 186.5q0 4 1 33t4 70.5t10 86t23 81.5q21 53 61 95q66 71 149 92.5t179 31.5q124 4 246.5 8.5t245.5 4.5q136 0 272 -6.5t272 -12.5l83 -13q13 -2 36 -6.5t54 -16t64 -29.5t62 -46 q39 -37 60.5 -79t31 -88t11.5 -96v-33q0 -34 -2 -66l-456 2q-11 42 -21 68.5t-28.5 40.5t-47 21.5t-73.5 11.5q-83 4 -167 8t-168 4q-65 0 -129 -2.5t-131 -4.5q-42 -2 -80.5 -8.5t-65.5 -43.5q-4 -6 -15 -25t-11 -42q0 -24 9.5 -41.5t16.5 -25.5q30 -38 68 -45.5t80 -11.5 l904 -32q47 -4 79.5 -10.5t58 -13.5t46 -18t40.5 -26q28 -21 54 -51t46 -73.5t32 -104.5t12 -144q0 -128 -20 -198t-57 -119q-14 -19 -28 -34t-33 -30q-53 -38 -119 -54.5t-137 -26.5q-140 -8 -276.5 -13.5t-276.5 -5.5q-151 0 -300.5 7.5t-302.5 15.5q-39 6 -77.5 13 t-76.5 19.5t-72 33t-62 50.5q-33 34 -49.5 81t-23.5 98t-8.5 100.5t-1.5 92.5zM931 -579l2 148h32q11 0 24 4.5t25 11.5q21 13 27.5 36t13.5 49h-84v251h279v-313q0 -10 -2 -19q0 -8 -2 -20t-6 -28t-13 -31.5t-26 -31.5q-38 -41 -100 -49q-53 -8 -134 -8h-36z" />
<glyph unicode="&#x219;" d="M122 370l415 -2q2 -12 4 -25t6 -24q15 -30 46 -42.5t39 -14.5q11 -2 38 -5t61.5 -5t75.5 -3t81 -1h138q24 0 46.5 2t45.5 12q28 10 49.5 33.5t21.5 47.5q0 11 -11 31t-38 33q-21 8 -65 12.5t-92 5.5t-91 1h-61q-69 2 -139 3.5t-141 5.5q-81 2 -158.5 14.5t-144.5 62.5 q-56 38 -82 93q-10 19 -19 52.5t-9 88.5q0 8 2 44.5t11 71.5q4 24 15 52.5t32 58t57.5 56t93.5 42.5q29 9 58.5 14.5t64 8.5t79.5 4t105 3q49 2 99 3.5t99 1.5q149 0 244 -4.5t160 -15.5q94 -17 142.5 -40.5t77.5 -53.5q49 -49 58.5 -101t12.5 -116l-409 3q-8 28 -18 41.5 t-40 23.5q-21 7 -56.5 9t-84.5 6q-28 2 -54.5 3t-53.5 1q-30 0 -60.5 -1t-61.5 -1h-51q-14 0 -34 -6q-26 -11 -49.5 -33t-23.5 -46q0 -15 10 -25.5t20.5 -18t20.5 -11.5t12 -4q16 -5 52.5 -8t84.5 -4t103.5 -2t110.5 -3q49 -2 94 -2q47 0 95 -2q90 -2 172 -11t156 -62 q30 -21 50.5 -45t34.5 -53q11 -21 19.5 -55t8.5 -89q0 -11 -1 -36t-5 -56.5t-15 -68t-30 -66.5q-32 -53 -108.5 -93.5t-212.5 -51.5q-61 -4 -121 -5t-122 -1q-169 0 -336 6h-39q-26 0 -62 2t-77.5 6.5t-79.5 13.5q-75 17 -136 50t-96 105q-24 47 -28 90.5t-6 94.5zM701 -575 l2 149h32q11 0 23.5 4.5t25.5 10.5q21 13 27 36t14 49h-83v251h278v-313q0 -10 -2 -19q0 -8 -2 -20t-6 -28t-13 -31.5t-26 -31.5q-38 -40 -99 -49q-54 -8 -135 -8h-36z" />
<glyph unicode="&#x21a;" horiz-adv-x="2024" d="M94 1154v350h1814v-348h-677v-1156h-473v1154h-664zM841 -579l2 148h33q10 0 23 4.5t26 11.5q20 13 27 36t13 49h-83v251h279v-313q0 -10 -2 -19q0 -8 -2.5 -20t-6.5 -28t-13 -31.5t-25 -31.5q-39 -41 -100 -49q-53 -8 -134 -8h-37z" />
<glyph unicode="&#x21b;" horiz-adv-x="1490" d="M108 805v281h201v241h396v-241h647v-275h-647v-389q0 -36 5.5 -52t17.5 -33q19 -24 58 -39t102 -15q64 0 101 22.5t50 46.5q8 16 10.5 31t2.5 34t-2 42t-2 27h356v-60q0 -30 -2 -60q-2 -19 -7 -55t-19.5 -78t-45.5 -85.5t-84 -74.5q-36 -24 -82 -38t-95 -22.5 t-96.5 -10.5t-88.5 -2q-38 0 -75.5 1t-75.5 3q-47 2 -92 6.5t-88.5 15t-81.5 30t-73 52.5q-36 37 -52 71t-20 51q-7 19 -9 40.5t-4 40.5t-2 32v462h-203zM596 -553l2 148h32q11 0 24 4.5t25 10.5q21 12 27.5 36t13.5 49h-84v252h280v-313q0 -10 -2 -20q0 -8 -2.5 -19.5 t-6.5 -27.5t-12.5 -32.5t-25.5 -30.5q-38 -41 -101 -49q-53 -8 -134 -8h-36z" />
<glyph unicode="&#x2c6;" horiz-adv-x="666" d="M-366 1252l460 286l453 -292l-59 -124l-394 138l-405 -138z" />
<glyph unicode="&#x2c7;" horiz-adv-x="666" d="M-358 1402l53 121l403 -143l406 143l52 -121l-454 -294z" />
<glyph unicode="&#x2d8;" horiz-adv-x="1083" d="M45 1862v42h247v-2q-10 -14 -11 -38q0 -13 4.5 -25t6.5 -16q11 -24 34 -30t54 -8l191 -7q47 2 80.5 6.5t51.5 15.5q21 13 30 45q4 26 6 59h241q-2 -40 -4 -73q-3 -40 -10 -70.5t-20 -53t-37 -41.5q-36 -30 -76.5 -40t-84.5 -16q-62 -4 -121.5 -8.5t-122.5 -4.5 q-61 0 -121 4.5t-119 8.5q-10 2 -22 3t-23 3q-8 2 -26 7t-41.5 15t-46 28.5t-36.5 46.5q-11 24 -17.5 60t-6.5 89z" />
<glyph unicode="&#x2d9;" horiz-adv-x="397" d="M10 1394q0 10 2.5 29.5t13.5 42.5q6 15 18.5 35.5t34 39.5t52.5 31.5t74 12.5q81 0 133 -54t52 -135q0 -45 -20 -83q-6 -11 -18.5 -29t-35 -36.5t-53.5 -30t-70 -11.5q-37 0 -70.5 15t-59 40.5t-39.5 59.5t-14 73z" />
<glyph unicode="&#x2da;" horiz-adv-x="642" d="M30 1768q0 115 81.5 200t201.5 85q122 0 203.5 -81.5t81.5 -203.5q0 -120 -81.5 -202t-203.5 -82q-120 0 -201.5 82t-81.5 202zM164 1768q0 -63 43 -106.5t106 -43.5t104 42t41 108q0 63 -41 104t-104 41q-61 0 -105 -41t-44 -104z" />
<glyph unicode="&#x2db;" horiz-adv-x="1064" d="M0 74q0 1 1.5 9.5t5 20.5t6.5 26t9 25q10 23 45.5 58.5t112.5 53.5q34 9 78.5 12t91.5 4h89q45 -1 77 -3l-2 -174q-55 -2 -88.5 -6t-53.5 -16.5t-30.5 -36t-20.5 -61.5h136v-313h-457v401z" />
<glyph unicode="&#x2dc;" horiz-adv-x="666" d="M-398 1163q10 68 20 102t24 64q9 17 28 46t51.5 56.5t78 47t107.5 19.5q55 0 92.5 -13t55.5 -24q43 -19 83.5 -39t89.5 -20q6 0 20 1t31 5q36 11 50 36.5t29 59.5h191q-10 -64 -23.5 -120.5t-58.5 -107.5q-24 -28 -77 -63t-144 -38q-56 2 -96.5 14t-57.5 21 q-45 16 -86.5 34.5t-90.5 18.5q-24 0 -37.5 -3.5t-21.5 -7.5q-24 -8 -37.5 -26.5t-37.5 -62.5h-183z" />
<glyph unicode="&#x2dd;" horiz-adv-x="1064" d="M0 1284l352 441l199 -189l-439 -365zM438 1284l352 441l199 -189l-439 -365z" />
<glyph unicode="&#x386;" horiz-adv-x="2342" d="M108 0l834 1504h599l848 -1504h-522l-141 268h-969l-143 -268h-506zM181 1284l352 441l199 -189l-439 -365zM925 586h633l-311 585z" />
<glyph unicode="&#x388;" horiz-adv-x="2344" d="M-120 1284l352 441l199 -189l-439 -365zM505 0v1504h1680v-333h-1223v-251h1157v-315h-1157v-264h1223v-341h-1680z" />
<glyph unicode="&#x389;" horiz-adv-x="2555" d="M-99 1284l352 441l199 -189l-439 -365zM468 0v1504h470v-549h1038v549h464v-1504h-466v586h-1040v-586h-466z" />
<glyph unicode="&#x38a;" horiz-adv-x="1173" d="M-120 1284l352 441l199 -189l-439 -365zM513 0v1504h476v-1504h-476z" />
<glyph unicode="&#x38c;" horiz-adv-x="2555" d="M-120 1284l352 441l199 -189l-439 -365zM342 658l16 441q2 16 4 35t6 35q17 90 60.5 161t124.5 118q60 36 116.5 49t125.5 24q138 8 274 13.5t277 5.5q164 0 326 -5.5t328 -13.5q17 -2 35 -4t35 -7q24 -4 62.5 -13.5t81.5 -31t86.5 -60t78.5 -97.5q40 -75 52 -148.5 t16 -154.5t6 -161v-54q0 -55 -2 -108t-5 -106t-7 -108q-10 -83 -30 -152t-75 -137q-43 -53 -97 -85t-112.5 -49.5t-122.5 -25.5t-126 -12q-113 -2 -225 -4.5t-226 -2.5q-130 0 -258 2.5t-258 6.5q-51 2 -100 7t-96.5 15t-93.5 27.5t-91 47.5q-68 47 -105.5 112t-55.5 138.5 t-21.5 151.5t-3.5 150zM811 722q4 -96 12.5 -164t34.5 -104q30 -41 88.5 -57t153.5 -24h614q36 2 71.5 7t65 15t55 28t43.5 47q15 24 22 53t13 84v326q-2 26 -4 47t-10 45q-13 44 -36 69.5t-54.5 41t-69.5 19.5t-82 8h-644q-79 -4 -117 -16t-70 -35q-24 -17 -34.5 -31 t-14.5 -25q-13 -24 -18.5 -49t-7.5 -33q-4 -41 -6.5 -101.5t-4.5 -150.5z" />
<glyph unicode="&#x38e;" horiz-adv-x="2766" d="M-120 1284l352 441l199 -189l-439 -365zM447 1504h581l505 -614l507 614h600l-868 -978v-526h-471v526z" />
<glyph unicode="&#x38f;" horiz-adv-x="2555" d="M-10 1286l352 441l199 -189l-439 -365zM364 0h825v294h-825v-294zM368 730q0 -61 3.5 -130.5t21.5 -133.5t54.5 -121.5t101.5 -96.5q45 -26 89.5 -42.5t91.5 -24.5t95 -13.5t100 -5.5q126 -4 250 -6h16v145h-79q-94 10 -151.5 27t-87.5 64q-26 39 -34 114t-13 179 q2 100 4.5 167.5t6.5 112.5q2 11 7.5 38.5t17.5 53.5q4 10 15 26t34 35q30 26 68.5 38.5t114.5 18.5h632q42 -6 80 -10t68 -20.5t53.5 -45t34.5 -77.5q8 -28 10 -51.5t4 -50.5v-359q-6 -62 -13.5 -93t-19.5 -59q-17 -33 -43 -52.5t-54.5 -30.5t-64 -17t-69.5 -8h-102v-145 h41q108 2 219 4q61 2 123 9.5t120 22.5t111 43.5t95 75.5q53 59 72.5 120t29.5 134q4 49 8 94.5t6 92.5t2 94v48q-2 71 -6 143q-5 71 -16.5 136t-52.5 128q-32 53 -75 86.5t-86.5 52.5t-80.5 27.5t-61 12.5q-14 2 -32.5 4.5t-34.5 4.5q-162 9 -321 13t-321 4q-136 0 -270 -4 t-269 -13q-68 -8 -123.5 -20t-112.5 -44q-79 -41 -121.5 -104t-59.5 -141q-4 -14 -6 -30t-5 -32zM1618 0h825v294h-825v-294z" />
<glyph unicode="&#x390;" horiz-adv-x="642" d="M-272 1240v230h311v-230h-311zM136 0v1065h394v-1065h-394zM196 1286l183 535l251 -113l-291 -490zM620 1225v230h317v-230h-317z" />
<glyph unicode="&#x391;" horiz-adv-x="2342" d="M87 0l834 1504h599l848 -1504h-522l-141 268h-969l-143 -268h-506zM904 586h633l-311 585z" />
<glyph unicode="&#x392;" horiz-adv-x="2132" d="M96 0v1504h1389q51 0 104 -2t105 -12t100.5 -29.5t87.5 -54.5q43 -34 76.5 -101t33.5 -185q0 -61 -7.5 -107t-20.5 -79t-31 -56.5t-41 -42.5q-37 -30 -77.5 -43.5t-80.5 -25.5q55 -8 107.5 -19.5t99.5 -47.5q51 -37 79.5 -102t28.5 -199q0 -108 -27.5 -170t-62.5 -100 q-8 -10 -25 -27.5t-44 -37.5q-35 -23 -74.5 -37t-89 -20t-114.5 -6q-21 -2 -45 -2q-46 0 -99 2h-1372zM549 339h902q45 8 76.5 22.5t49.5 57.5q2 6 5 19t3 33q0 26 -8 45t-20 37q-36 47 -81 54q-34 5 -72 5h-855v-273zM551 912h813q36 0 65 4q43 4 73 47q6 8 17 28.5 t11 49.5q0 43 -28 77q-30 43 -68.5 49t-87.5 8h-795v-263z" />
<glyph unicode="&#x393;" horiz-adv-x="1809" d="M153 0v1504h1510v-374h-1039v-1130h-471z" />
<glyph unicode="&#x394;" horiz-adv-x="2449" d="M98 0h503l613 1156l631 -1156h515l-848 1504h-611zM520 6h1421v269h-1421v-269z" />
<glyph unicode="&#x395;" horiz-adv-x="1916" d="M177 0v1504h1680v-333h-1223v-251h1157v-315h-1157v-264h1223v-341h-1680z" />
<glyph unicode="&#x396;" horiz-adv-x="2129" d="M140 0l2 356q128 89 255 178.5t255 183.5q98 70 194.5 141.5t199.5 139.5q69 47 137.5 91t139.5 85l-1146 -10v339h1797v-343q-128 -90 -253.5 -177.5t-253.5 -176.5q-127 -91 -250.5 -183t-251.5 -179l-148 -96l1175 13v-362h-1852z" />
<glyph unicode="&#x397;" horiz-adv-x="2233" d="M116 0v1504h470v-549h1038v549h464v-1504h-466v586h-1040v-586h-466z" />
<glyph unicode="&#x398;" horiz-adv-x="2238" d="M113 641q0 -73 3.5 -150.5t21.5 -151t55 -138.5t105 -112q45 -30 91 -47.5t93.5 -27.5t96.5 -15t100 -7q130 -4 258 -6.5t258 -2.5q115 0 228 2h14v371h-565q-96 8 -155 24t-89 57q-26 36 -34 104t-13 164q2 90 4.5 150.5t6.5 101.5q2 8 7.5 33.5t18.5 48.5q4 10 14.5 24 t34.5 32q32 24 70 35.5t117 15.5h583v372q-160 5 -321 5q-140 0 -276.5 -5.5t-274.5 -13.5q-69 -11 -125 -24t-117 -49q-81 -47 -124 -118t-61 -161q-4 -16 -6 -34.5t-4 -35.5zM746 618h707v258h-707v-258zM784 -15h17q110 -2 225 -2q130 0 258 2.5t258 6.5q51 2 100 7 t97 15t93.5 27.5t90.5 47.5q69 47 106 112t55 138.5t21.5 151.5t3.5 150l-15 441q-3 16 -5 35t-6 35q-17 90 -60.5 161t-124.5 118q-59 36 -116 49t-125 24q-139 8 -275 13.5t-276 5.5q-163 0 -322 -5v-372h584q79 -4 117 -16t70 -35q24 -17 34.5 -31t14.5 -25 q12 -24 18 -49t8 -33q4 -41 6 -101.5t4 -150.5q-4 -96 -13 -164t-34 -104q-30 -41 -88 -57t-155 -24h-566v-371z" />
<glyph unicode="&#x399;" horiz-adv-x="744" d="M139 0v1504h476v-1504h-476z" />
<glyph unicode="&#x39a;" horiz-adv-x="2219" d="M136 0v1504h468v-557h234l628 557h634q-69 -53 -135 -106.5t-129 -108.5q-66 -56 -131.5 -112.5t-128.5 -113.5q-90 -75 -176 -151.5t-176 -151.5l963 -760h-660l-683 571h-242v-571h-466z" />
<glyph unicode="&#x39b;" horiz-adv-x="2449" d="M77 0l803 1504h611l848 -1504h-516l-630 1156l-614 -1156h-502z" />
<glyph unicode="&#x39c;" horiz-adv-x="2768" d="M92 0v1504h743l546 -986l547 986h734v-1504h-447v1138l-657 -1138h-369l-657 1144v-1144h-440z" />
<glyph unicode="&#x39d;" horiz-adv-x="2238" d="M136 0v1504h736q124 -151 245 -299t243 -302q108 -139 214.5 -278t215.5 -280l-8 690v469h435v-1504h-740q-134 162 -265 324t-261 328q-96 124 -189.5 248t-186.5 250v-1150h-439z" />
<glyph unicode="&#x39e;" horiz-adv-x="1601" d="M94 6v329h1420v-329h-1420zM94 1203v315h1420v-315h-1420zM217 622v309h1176v-309h-1176z" />
<glyph unicode="&#x39f;" horiz-adv-x="2242" d="M112 641l16 441q2 16 4 35t6 35q17 90 60.5 161t124.5 118q60 36 116.5 49t125.5 24q138 8 274 13.5t277 5.5q164 0 326 -5.5t328 -13.5q17 -2 35 -4t35 -7q24 -4 62.5 -13.5t81.5 -31t86.5 -60t78.5 -97.5q40 -75 52 -148.5t16 -154.5t6 -161v-54q0 -55 -2 -108t-5 -106 t-7 -108q-10 -83 -30 -152t-75 -137q-43 -53 -97 -85t-112.5 -49.5t-122.5 -25.5t-126 -12q-113 -2 -225 -4.5t-226 -2.5q-130 0 -258 2.5t-258 6.5q-51 2 -100 7t-96.5 15t-93.5 27.5t-91 47.5q-68 47 -105.5 112t-55.5 138.5t-21.5 151.5t-3.5 150zM581 705 q4 -96 12.5 -164t34.5 -104q30 -41 88.5 -57t153.5 -24h614q36 2 71.5 7t65 15t55 28t43.5 47q15 24 22 53t13 84v326q-2 26 -4 47t-10 45q-13 44 -36 69.5t-54.5 41t-69.5 19.5t-82 8h-644q-79 -4 -117 -16t-70 -35q-24 -17 -34.5 -31t-14.5 -25q-13 -24 -18.5 -49 t-7.5 -33q-4 -41 -6.5 -101.5t-4.5 -150.5z" />
<glyph unicode="&#x3a0;" d="M89 0h472v1130h1039v374h-1511v-1504zM89 1130h1039v-1130h472v1504h-1511v-374z" />
<glyph unicode="&#x3a1;" horiz-adv-x="2022" d="M106 0v1504h1261q32 2 64 2t62 -2q74 -2 127.5 -13t93 -28.5t67 -40t51.5 -50.5q34 -39 52.5 -78.5t28.5 -80t13 -85t5 -91.5q3 -30 4 -56t1 -56q0 -7 -1 -61.5t-13.5 -126.5t-45 -148.5t-93.5 -124.5q-43 -32 -96.5 -50t-109.5 -25t-113 -10t-103 -3h-779v-376h-476z M579 746h673q35 0 64.5 1t53 9t43.5 25.5t35 47.5q8 17 17 43.5t9 66.5q0 2 -1 20.5t-7 42.5t-15 51t-26 44q-26 28 -66.5 36.5t-83.5 12.5h-696v-400z" />
<glyph unicode="&#x3a3;" horiz-adv-x="1599" d="M108 -34h1383v309h-877l470 341v264l-448 327h855v311h-1383v-311l646 -459l-646 -473v-309z" />
<glyph unicode="&#x3a4;" horiz-adv-x="2022" d="M115 1154v350h1814v-348h-677v-1156h-473v1154h-664z" />
<glyph unicode="&#x3a5;" horiz-adv-x="2340" d="M81 1504h581l505 -614l507 614h600l-868 -978v-526h-471v526z" />
<glyph unicode="&#x3a6;" horiz-adv-x="2344" d="M113 641q0 -73 3.5 -150.5t21.5 -151t55 -138.5t105 -112q45 -30 91 -47.5t93.5 -27.5t96.5 -15t100 -7q130 -4 258 -6.5t258 -2.5q115 0 227 2.5t224 4.5q62 4 126 12t122.5 25.5t112.5 49t97 85.5q55 69 75 137.5t30 151.5q4 55 7 108t5 106q3 53 3 108v54 q-3 81 -7 161q-4 81 -16 154.5t-52 148.5q-35 59 -78 97.5t-86.5 60t-82 31t-62.5 13.5q-17 5 -35 7t-35 4q-166 8 -328 13.5t-326 5.5q-140 0 -276.5 -5.5t-274.5 -13.5q-69 -11 -125 -24t-117 -49q-81 -47 -124 -118t-61 -161q-4 -16 -6 -34.5t-4 -35.5zM581 705 q2 90 4.5 150.5t6.5 101.5q2 8 7.5 33.5t18.5 48.5q4 10 14.5 24t34.5 32q32 24 70 35.5t117 15.5h644q44 -4 82 -8t69.5 -19.5t54.5 -41t36 -69.5q8 -24 10.5 -45.5t5.5 -46.5v-326q-7 -55 -14.5 -84t-22.5 -53q-17 -30 -43 -47.5t-55.5 -27.5t-65 -15t-71.5 -7h-612 q-96 8 -155 24t-89 57q-26 36 -34 104t-13 164zM986 -164h394v1814h-394v-1814z" />
<glyph unicode="&#x3a7;" horiz-adv-x="2453" d="M87 0l773 762l-707 742h605l488 -526l474 526h626l-721 -748l760 -756h-637l-504 543l-516 -543h-641z" />
<glyph unicode="&#x3a8;" horiz-adv-x="1599" d="M96 813q6 -55 16 -106t41 -102q43 -65 105.5 -96.5t135.5 -44.5q17 -4 34 -5t34 -6q93 -4 186.5 -7t186.5 -3q15 0 94 2t162 2q71 6 134.5 18t124.5 51q45 28 73 63t42.5 69.5t21 64t11.5 45.5q2 21 4 41.5t4 41.5v686h-352v-620q-4 -37 -11 -77t-35 -68q-17 -14 -43 -23 t-83 -17h-269q-93 0 -150 11t-86 51q-24 32 -27 71t-5 76v596h-349v-714zM632 -17h325v1504h-325v-1504z" />
<glyph unicode="&#x3a9;" horiz-adv-x="2344" d="M134 0h825v294h-825v-294zM138 730q0 -61 3.5 -130.5t21.5 -133.5t54.5 -121.5t101.5 -96.5q45 -26 89.5 -42.5t91.5 -24.5t95 -13.5t100 -5.5q126 -4 250 -6h16v145h-79q-94 10 -151.5 27t-87.5 64q-26 39 -34 114t-13 179q2 100 4.5 167.5t6.5 112.5q2 11 7.5 38.5 t17.5 53.5q4 10 15 26t34 35q30 26 68.5 38.5t114.5 18.5h632q42 -6 80 -10t68 -20.5t53.5 -45t34.5 -77.5q8 -28 10 -51.5t4 -50.5v-359q-6 -62 -13.5 -93t-19.5 -59q-17 -33 -43 -52.5t-54.5 -30.5t-64 -17t-69.5 -8h-102v-145h41q108 2 219 4q61 2 123 9.5t120 22.5 t111 43.5t95 75.5q53 59 72.5 120t29.5 134q4 49 8 94.5t6 92.5t2 94v48q-2 71 -6 143q-5 71 -16.5 136t-52.5 128q-32 53 -75 86.5t-86.5 52.5t-80.5 27.5t-61 12.5q-14 2 -32.5 4.5t-34.5 4.5q-162 9 -321 13t-321 4q-136 0 -270 -4t-269 -13q-68 -8 -123.5 -20 t-112.5 -44q-79 -41 -121.5 -104t-59.5 -141q-4 -14 -6 -30t-5 -32zM1388 0h825v294h-825v-294z" />
<glyph unicode="&#x3aa;" horiz-adv-x="744" d="M36 1593v230h311v-230h-311zM186 0v1504h476v-1504h-476zM488 1595v230h317v-230h-317z" />
<glyph unicode="&#x3ab;" horiz-adv-x="2340" d="M102 1504h581l505 -614l507 614h600l-868 -978v-526h-471v526zM816 1593v230h311v-230h-311zM1268 1595v230h317v-230h-317z" />
<glyph unicode="&#x3ac;" horiz-adv-x="2134" d="M136 479q0 -46 3 -93t12 -92.5t25.5 -88.5t49.5 -79q40 -49 100 -77t119 -41q19 -4 38 -6t37 -6q45 -4 86.5 -5t86.5 -3q85 -7 174 -7q84 0 167.5 6.5t168.5 12.5q64 15 122.5 35t109.5 69q11 8 28 31t33 52q16 37 26 79.5t12 87.5q4 53 7 104t3 103q0 30 -1 56t-3 56 q-4 73 -18 141t-61 127q-51 66 -126 90t-157 38q-83 4 -166 8.5t-166 4.5q-88 0 -171 -5.5t-171 -11.5q-72 -10 -139 -28.5t-127 -73.5q-57 -53 -73 -120.5t-23 -149.5q-6 -110 -6 -214zM543 520q0 51 4 101t32 95q26 38 59 48.5t75 17.5q56 8 83 9t56 1q57 0 121 -6 q33 -2 62 -2q30 0 55.5 -6.5t49 -22.5t45.5 -48q26 -42 29.5 -75.5t3.5 -50.5q0 -16 -1 -34.5t-3 -34.5q-4 -39 -6.5 -77.5t-14.5 -70.5q-8 -15 -24.5 -33t-54.5 -33q-51 -16 -99 -19.5t-60 -3.5q-33 0 -64 1t-62 3l-71 6q-61 4 -91.5 8.5t-54.5 21.5q-17 11 -26 24t-13 17 q-24 40 -27 80.5t-3 83.5zM770 1284l352 441l199 -189l-439 -365zM1260 358l10 12l262 -362h494l-477 569l432 496h-497l-195 -262z" />
<glyph unicode="&#x3ad;" horiz-adv-x="1490" d="M89 287q0 4 1.5 24.5t5.5 46.5t15 53.5t29 48.5q17 14 40 26t47.5 19t50 11t45.5 6q-53 15 -86.5 28t-56 28.5t-35.5 36.5t-19 54q-4 16 -7.5 35.5t-4.5 36.5t-1 30v17q0 51 9.5 86t22.5 57q30 53 70.5 77.5t97.5 35.5q17 4 34 5t33 3l187 13h10l458 -6q30 -2 64.5 -6.5 t69 -14t67 -23t55.5 -33.5q30 -26 45.5 -60t22.5 -65.5t9 -56.5t2 -36v-65h-303q-2 61 -14 85.5t-39 38.5q-26 12 -51.5 14t-31.5 4q-43 2 -83.5 3.5t-83.5 1.5q-55 0 -112.5 -3.5t-114.5 -7.5q-35 -4 -59.5 -13t-38.5 -38q-2 -4 -7.5 -18t-5.5 -36q0 -6 2.5 -24t12.5 -33 q17 -30 45 -36.5t63 -8.5h311v-206h-313q-43 0 -74.5 -6.5t-53.5 -41.5q-12 -20 -13 -37.5t-1 -27.5q0 -37 10.5 -55t21.5 -26q8 -6 21 -10.5t26.5 -6.5t24.5 -2h13q85 -6 166 -6q69 0 134.5 3t134.5 5q6 0 22.5 1t37 8.5t36.5 22.5t22 44q5 17 5 36v14q-3 24 -3 29h309v-87 q0 -45 -10 -88.5t-31.5 -80.5t-62.5 -65q-42 -30 -88 -38.5t-95 -12.5q-97 -4 -192.5 -7.5t-190.5 -3.5q-84 0 -166.5 1t-163.5 6q-62 6 -119.5 18.5t-104.5 52.5q-36 33 -49 70t-19 86q-5 37 -5 70zM555 1284l352 441l199 -189l-439 -365z" />
<glyph unicode="&#x3ae;" d="M122 -8v1065h390v-188q12 24 29 49q10 17 33.5 44.5t71.5 51.5q34 19 71 31t84 18t106.5 9t136.5 3q19 0 59.5 -1t93.5 -10t114 -30.5t116 -64.5q30 -24 55.5 -52.5t42.5 -60.5q20 -43 31 -94t18 -150v-1051h-394v1006q0 34 -7 61q-10 41 -30.5 64.5t-43 36.5t-42.5 17 t-33 6q-10 2 -41 4t-66 4t-66 3t-40 1q-32 0 -54 -3t-35 -5q-11 -2 -35.5 -9.5t-53 -22.5t-56.5 -39.5t-42 -58.5q-13 -30 -17 -65t-4 -105v-464h-392zM557 1284l352 441l199 -189l-439 -365z" />
<glyph unicode="&#x3af;" horiz-adv-x="642" d="M134 0v1065h394v-1065h-394zM148 1284l352 441l199 -189l-439 -365z" />
<glyph unicode="&#x3b1;" horiz-adv-x="2134" d="M136 479q0 -46 3 -93t12 -92.5t25.5 -88.5t49.5 -79q40 -49 100 -77t119 -41q19 -4 38 -6t37 -6q45 -4 86.5 -5t86.5 -3q85 -7 174 -7q84 0 167.5 6.5t168.5 12.5q64 15 122.5 35t109.5 69q11 8 28 31t33 52q16 37 26 79.5t12 87.5q4 53 7 104t3 103q0 30 -1 56t-3 56 q-4 73 -18 141t-61 127q-51 66 -126 90t-157 38q-83 4 -166 8.5t-166 4.5q-88 0 -171 -5.5t-171 -11.5q-72 -10 -139 -28.5t-127 -73.5q-57 -53 -73 -120.5t-23 -149.5q-6 -110 -6 -214zM543 520q0 51 4 101t32 95q26 38 59 48.5t75 17.5q56 8 83 9t56 1q57 0 121 -6 q33 -2 62 -2q30 0 55.5 -6.5t49 -22.5t45.5 -48q26 -42 29.5 -75.5t3.5 -50.5q0 -16 -1 -34.5t-3 -34.5q-4 -39 -6.5 -77.5t-14.5 -70.5q-8 -15 -24.5 -33t-54.5 -33q-51 -16 -99 -19.5t-60 -3.5q-33 0 -64 1t-62 3l-71 6q-61 4 -91.5 8.5t-54.5 21.5q-17 11 -26 24t-13 17 q-24 40 -27 80.5t-3 83.5zM1260 358l10 12l262 -362h494l-477 569l432 496h-497l-195 -262z" />
<glyph unicode="&#x3b2;" horiz-adv-x="1809" d="M118 281q0 -2 2 -2q10 -62 36.5 -116.5t75.5 -91.5q53 -43 107.5 -55t113.5 -18q120 -6 235 -10.5t232 -4.5q100 0 200.5 2.5t200.5 6.5q75 10 144 27t126 75q45 46 61 100t22 121q7 51 7 100q0 6 -1 35t-6.5 65t-18.5 75.5t-39 69.5q-19 24 -46.5 40t-57.5 25.5 t-60.5 15t-56.5 9.5q63 19 105 38t69.5 41.5t43 52.5t23.5 75q6 26 9 53t4 51.5t2.5 41.5t1.5 23q0 75 -12.5 124t-28.5 79q-36 77 -85 111t-119 51q-19 5 -40.5 7t-40.5 6l-228 16h-13l-554 -8q-36 -4 -78.5 -10t-84 -19t-80.5 -32.5t-67 -48.5q-37 -36 -56 -84t-27.5 -94 t-10.5 -81t-2 -48v-1589h366q4 1583 18 1616.5t48 52.5q31 17 61.5 21.5t38.5 6.5q51 2 101 3t99 1q71 0 140 -4t138 -10q42 -4 72 -16t48 -55q2 -8 8 -27.5t6 -48.5q0 -10 -2 -35t-16 -48q-21 -43 -54 -51.5t-78 -10.5h-376v-294h380q51 0 90.5 -9.5t65.5 -58.5 q15 -30 16 -53.5t1 -38.5q0 -51 -13.5 -77.5t-25.5 -37.5q-10 -11 -26 -16t-33 -8t-28.5 -4t-14.5 -1q-104 -7 -204 -7q-82 0 -162.5 3.5t-161.5 7.5q-8 0 -29.5 2t-45 11.5t-43.5 31.5t-26 63q-7 28 -7 56v13q2 34 2 44q-361 -183 -361 -247z" />
<glyph unicode="&#x3b3;" horiz-adv-x="1599" d="M61 1065l512 -1065h386l521 1065h-409l-300 -760l-309 760h-401zM567 162v-718h396v718h-396z" />
<glyph unicode="&#x3b4;" horiz-adv-x="1811" d="M115 415q0 -47 3.5 -93.5t12.5 -92.5t27.5 -88.5t52.5 -79.5q45 -49 109 -76.5t127 -39.5q21 -4 41.5 -6t39.5 -8q47 -4 93 -5t92 -3q92 -6 190 -6q89 0 179.5 6t183.5 14q68 14 130.5 34.5t117.5 69.5q11 8 30 30.5t35 52.5q18 36 27.5 78.5t14.5 87.5q5 53 8 104t3 102 q0 30 -1 56.5t-3 56.5q-5 73 -20 140.5t-66 128.5q-40 53 -127.5 82.5t-176.5 45.5q-90 4 -179.5 8t-178.5 4q-94 0 -184.5 -5t-183.5 -11q-77 -11 -149.5 -29t-136.5 -74q-62 -53 -80 -120.5t-24 -150.5q-7 -109 -7 -213zM272 1256l727 -433l123 -54l480 2l-111 156 l-577 331h739v246h-1381v-248zM512 456q0 50 4 100.5t33 95.5q28 39 63.5 49t82.5 17q59 8 87.5 9t60.5 1q62 0 130 -6q37 -2 68 -2q32 0 59.5 -6.5t52.5 -22.5t48 -48q28 -43 32.5 -75.5t4.5 -49.5t-1 -35.5t-4 -35.5q-4 -38 -6 -76.5t-17 -69.5q-9 -15 -26 -33t-60 -34 q-53 -17 -105 -20t-64 -3q-35 0 -69 1t-69 3l-75 7q-66 4 -98 8t-61 22q-16 10 -26 22.5l-14 17.5q-26 41 -28.5 81t-2.5 83z" />
<glyph unicode="&#x3b5;" horiz-adv-x="1490" d="M89 287q0 4 1.5 24.5t5.5 46.5t15 53.5t29 48.5q17 14 40 26t47.5 19t50 11t45.5 6q-53 15 -86.5 28t-56 28.5t-35.5 36.5t-19 54q-4 16 -7.5 35.5t-4.5 36.5t-1 30v17q0 51 9.5 86t22.5 57q30 53 70.5 77.5t97.5 35.5q17 4 34 5t33 3l187 13h10l458 -6q30 -2 64.5 -6.5 t69 -14t67 -23t55.5 -33.5q30 -26 45.5 -60t22.5 -65.5t9 -56.5t2 -36v-65h-303q-2 61 -14 85.5t-39 38.5q-26 12 -51.5 14t-31.5 4q-43 2 -83.5 3.5t-83.5 1.5q-55 0 -112.5 -3.5t-114.5 -7.5q-35 -4 -59.5 -13t-38.5 -38q-2 -4 -7.5 -18t-5.5 -36q0 -6 2.5 -24t12.5 -33 q17 -30 45 -36.5t63 -8.5h311v-206h-313q-43 0 -74.5 -6.5t-53.5 -41.5q-12 -20 -13 -37.5t-1 -27.5q0 -37 10.5 -55t21.5 -26q8 -6 21 -10.5t26.5 -6.5t24.5 -2h13q85 -6 166 -6q69 0 134.5 3t134.5 5q6 0 22.5 1t37 8.5t36.5 22.5t22 44q5 17 5 36v14q-3 24 -3 29h309v-87 q0 -45 -10 -88.5t-31.5 -80.5t-62.5 -65q-42 -30 -88 -38.5t-95 -12.5q-97 -4 -192.5 -7.5t-190.5 -3.5q-84 0 -166.5 1t-163.5 6q-62 6 -119.5 18.5t-104.5 52.5q-36 33 -49 70t-19 86q-5 37 -5 70z" />
<glyph unicode="&#x3b6;" horiz-adv-x="1597" d="M115 1329h1336v309h-1336v-309zM118 354q0 -56 2 -113.5t16.5 -106.5t45.5 -86.5t88 -49.5q28 -4 56 -4h19q39 2 452 136q28 10 51 10h4q26 -2 45 -13.5t30 -41.5q6 -14 8 -29t4 -35v-70q-6 -45 -11.5 -69t-18.5 -46q-15 -30 -35 -52t-45.5 -39t-54 -33.5t-58.5 -28.5 l-70 -30v-281l19 8q91 41 185 79q51 26 103.5 53.5t101 59.5t93.5 74.5t79 97.5q47 71 62.5 129t25.5 125q2 45 5 85.5t5 80.5q2 41 2 43v-6l-2 -10q-2 0 -4 41q-4 59 -14 110.5t-41 96.5q-30 32 -65.5 46.5t-72.5 16.5h-12q-28 0 -55 -4q-32 -6 -490 -153q-17 -8 -30 -8 q-51 0 -51 132q0 122 42 356q5 10 13 23.5t28 35.5q28 28 58.5 50.5t96.5 51.5l725 339l-275 126q-115 -45 -235 -92q-115 -47 -227.5 -97t-225.5 -103q-57 -33 -103 -61.5t-95 -75.5q-68 -63 -104.5 -131t-49.5 -143q-4 -13 -5 -28t-3 -27z" />
<glyph unicode="&#x3b7;" d="M122 -8v1065h390v-188q12 24 29 49q10 17 33.5 44.5t71.5 51.5q34 19 71 31t84 18t106.5 9t136.5 3q19 0 59.5 -1t93.5 -10t114 -30.5t116 -64.5q30 -24 55.5 -52.5t42.5 -60.5q20 -43 31 -94t18 -150v-1051h-394v1006q0 34 -7 61q-10 41 -30.5 64.5t-43 36.5t-42.5 17 t-33 6q-10 2 -41 4t-66 4t-66 3t-40 1q-32 0 -54 -3t-35 -5q-11 -2 -35.5 -9.5t-53 -22.5t-56.5 -39.5t-42 -58.5q-13 -30 -17 -65t-4 -105v-464h-392z" />
<glyph unicode="&#x3b8;" horiz-adv-x="1279" d="M92 754q0 -94 5 -184.5t11 -183.5q11 -77 29.5 -149.5t73.5 -136.5q53 -62 120 -80t151 -24q109 -6 213 -6q47 0 93.5 3t92.5 12.5t88.5 27.5t78.5 52q49 45 76.5 109t40.5 127q4 21 6 42t7 39q4 47 5.5 93t3.5 93q6 91 6 190q0 89 -6.5 179.5t-13.5 182.5 q-14 68 -34.5 130.5t-69.5 117.5q-8 11 -30.5 30t-52.5 35q-36 19 -79 28.5t-87 14.5q-54 4 -104.5 7t-101.5 3q-31 0 -57.5 -1t-56.5 -3q-73 -4 -140.5 -19.5t-127.5 -66.5q-66 -55 -89 -135t-39 -169q-4 -90 -8 -179.5t-4 -178.5zM110 526l1065 2v394l-1065 -2v-394z M384 709q0 75 6 158q2 43 2 80q0 39 6.5 73.5t22.5 64t48 57.5q43 34 75.5 39.5t49.5 5.5q16 0 35 -2.5t36 -4.5q38 -4 76.5 -7.5t69.5 -20.5q15 -10 33 -30.5t34 -73.5q16 -63 19.5 -126.5t3.5 -78.5q0 -42 -1 -82.5t-4 -83.5l-6 -91q-4 -80 -8 -119t-22 -71 q-10 -21 -22.5 -32.5t-17.5 -16.5q-41 -32 -81 -35t-83 -3q-51 0 -101.5 4t-94.5 41q-39 34 -49.5 76.5t-16.5 97.5q-8 73 -9 108t-1 73z" />
<glyph unicode="&#x3b9;" horiz-adv-x="642" d="M134 0v1065h394v-1065h-394z" />
<glyph unicode="&#x3ba;" horiz-adv-x="1594" d="M96 0v1065h394v-352h83l388 352h543q-37 -26 -69.5 -50.5t-66.5 -51.5q-53 -45 -104.5 -90.5t-102.5 -92.5q-60 -55 -119.5 -107.5t-119.5 -107.5q35 -26 60.5 -44.5t51 -39.5t59 -52t85.5 -80l90 -83q75 -68 151.5 -134t154.5 -132h-545l-431 431h-108v-431h-394z" />
<glyph unicode="&#x3bb;" d="M98 -2l475 1065h151q-24 51 -116 246t-110 216h390l671 -1446l41 -81h-427l-340 775l-307 -775h-428z" />
<glyph unicode="&#x3bc;" d="M113 -426h393v426q43 -6 77 -6q41 -2 60 -2q77 0 136.5 3t106.5 9t84.5 18t70.5 31q47 24 71 51.5t34 44.5q17 26 29 49v-188h390v1065h-392v-463q0 -71 -4 -106t-17 -65q-14 -34 -42 -58.5t-57 -39.5t-53 -22.5t-35 -9.5q-12 -2 -35 -5t-54 -3q-9 0 -40 1t-66 3t-66 4 t-42 4q-12 2 -32.5 6.5t-42.5 17.5t-42.5 36t-30.5 64q-6 28 -8 61v575h-393v-1501z" />
<glyph unicode="&#x3bd;" d="M61 1065h443l342 -760l334 760h452l-531 -1065h-520z" />
<glyph unicode="&#x3be;" horiz-adv-x="1279" d="M100 419q0 -43 2 -89.5t16 -91.5t40.5 -84t75.5 -67q34 -18 67.5 -29t68.5 -16.5t71 -9.5t73 -4q26 0 55 -2h72q30 -4 60 -7q28 -2 50 -10.5t39 -24.5t25 -43q7 -13 9.5 -26t2.5 -30v-56q-4 -34 -10 -50.5t-16 -32.5q-13 -16 -31 -28t-40.5 -17.5t-48 -8.5t-51.5 -5h-61 v-224h14q82 2 165 2q44 3 91 8t89.5 16t82 30t71.5 50q40 41 54 83.5t23 91.5q2 34 4 66l4 64q0 15 2 24l-2 -2l-2 33q-4 49 -12.5 94.5t-38.5 89.5q-24 37 -56 60t-63.5 36t-59.5 18t-45 7q-12 2 -26 4t-27 2q-32 2 -62 2v6h-90q-24 0 -44 2q-62 4 -100 14q-43 8 -64 32 q-18 24 -25 64t-11 100q2 53 4 89.5t4 62.5q2 4 5.5 20t14.5 28q2 9 10.5 16t24.5 19q24 14 51.5 21.5t85.5 9.5h398v226l-273 9q-28 0 -53 3t-46 9.5t-40.5 17.5t-30.5 27q-13 15 -18 32t-9 51v58q2 14 3 27t7 28q11 28 28 43t39.5 24.5t50 11.5t59.5 4h262v226h-30 q-309 -5 -430 -9q-12 -2 -25 -3t-27 -3q-16 -2 -43.5 -8.5t-60 -19.5t-64 -36t-57.5 -60q-30 -44 -38.5 -89t-10.5 -94q-2 -34 -4 -34v6l-2 7q0 -2 2 -34t4 -63t6 -65q6 -51 22 -91l8 -22q-6 -2 -14 -6q-60 -31 -91 -73t-43 -96q-5 -10 -6 -21.5t-4 -20.5z" />
<glyph unicode="&#x3bf;" horiz-adv-x="1701" d="M94 479q1 105 7 214q7 83 25 149.5t79 120.5q64 55 136.5 73.5t148.5 28.5q94 6 185 11.5t185 5.5q89 0 178.5 -4.5t178.5 -8.5q90 -14 169.5 -37.5t135.5 -90.5q51 -59 65.5 -127t18.5 -141q2 -30 3.5 -56.5t1.5 -55.5q0 -51 -3.5 -102.5t-7.5 -104.5 q-4 -45 -13.5 -87.5t-29.5 -79.5q-14 -30 -33.5 -52t-29.5 -31q-55 -49 -118 -69t-132 -35q-91 -6 -181.5 -12.5t-180.5 -6.5q-97 0 -189 7q-47 2 -92.5 3t-92.5 5q-19 4 -39.5 6t-41.5 6q-64 13 -127.5 41t-108.5 77q-35 36 -53 79t-27.5 88.5t-13 92.5t-3.5 93zM490 520 q0 -43 3.5 -83.5t29.5 -80.5q4 -4 13.5 -17t26.5 -24q28 -17 60 -21t98 -9l76 -6q34 -2 68.5 -3t67.5 -1q13 0 65.5 3t105.5 20q43 15 60 33t25 33q15 32 17.5 70.5t6.5 77.5q2 16 3 34.5t1 34.5q0 17 -4 50.5t-32 75.5q-24 32 -48.5 48t-52 22.5t-59.5 6.5q-33 0 -68 2 q-69 6 -130 6q-32 0 -60.5 -1t-89.5 -9q-46 -6 -81 -17t-63 -49q-30 -45 -34.5 -95t-4.5 -101z" />
<glyph unicode="&#x3c0;" horiz-adv-x="1707" d="M118 817h256v-817h335v820h480v245h-1071v-248zM543 817h471v-817h334v820h266v245h-1071v-248z" />
<glyph unicode="&#x3c1;" horiz-adv-x="1384" d="M113 524q0 -73 4.5 -145t8.5 -145q16 -73 40.5 -136.5t95.5 -107.5q64 -41 135.5 -54t147.5 -15q32 -2 60.5 -3t61.5 -1q53 0 107.5 2t109.5 6q49 4 93.5 12t83.5 22q32 13 55.5 28t31.5 23q53 45 74.5 96.5t35.5 106.5q9 75 15.5 147.5t6.5 143.5q0 79 -6 154 q-2 39 -3 75t-8 74q-5 15 -7 32t-6 35q-12 51 -42 101.5t-82 87.5q-38 28 -84 42.5t-93.5 22.5t-97.5 11t-99 3q-110 0 -226 -6q-87 -4 -158.5 -19.5t-129.5 -64.5q-57 -53 -76.5 -111.5t-31.5 -120.5q-6 -75 -11.5 -148.5t-5.5 -147.5zM122 -370h297v947h-297v-947z M419 553q0 26 1.5 48.5t10.5 71.5q8 38 18.5 65.5t50.5 51.5q49 24 101.5 27t107.5 3q45 0 87.5 -2.5t85.5 -22.5q4 -3 18 -11.5t25 -21.5q18 -20 22.5 -47t9.5 -81l8 -61q2 -28 3 -54.5t1 -54.5q0 -11 -4 -53.5t-22 -84.5q-14 -35 -33.5 -48.5t-35.5 -19.5 q-35 -13 -75.5 -14.5t-80.5 -5.5q-17 -2 -36.5 -3t-38.5 -1q-17 0 -52 4t-79 26q-35 19 -52 38t-24.5 41.5t-7.5 50.5q0 26 -2 53q-6 55 -7 106z" />
</font>
</defs>
</svg>
