<?xml version="1.0" standalone="no"?>
<!DOCTYPE svg PUBLIC "-//W3C//DTD SVG 1.1//EN" "http://www.w3.org/Graphics/SVG/1.1/DTD/svg11.dtd" >
<svg xmlns="http://www.w3.org/2000/svg" xmlns:xlink="http://www.w3.org/1999/xlink" version="1.1">
<metadata></metadata>
<defs>
<font id="present_boldbold" horiz-adv-x="1114" >
<font-face units-per-em="2048" ascent="1638" descent="-410" />
<missing-glyph horiz-adv-x="647" />
<glyph horiz-adv-x="0" />
<glyph horiz-adv-x="682" />
<glyph unicode=" "  horiz-adv-x="647" />
<glyph unicode="&#x09;" horiz-adv-x="647" />
<glyph unicode="&#xa0;" horiz-adv-x="647" />
<glyph unicode="!" horiz-adv-x="647" d="M209 49v144q0 6 5 12t13 10q10 4 19.5 6t21.5 2h82h4h6q14 -2 26.5 -6t25.5 -12q12 -8 18 -18.5t6 -26.5v-160q0 -4 -3 -8t-7 -6q-6 -4 -12 -5t-15 -4l-82 -2q-2 2 -4 2h-4q-4 2 -6 2.5t-4 0.5q-4 0 -9 1t-9 3q-14 2 -26.5 8t-23.5 12q-12 10 -17 20.5t-5 22.5v2v0z M242 371v69.5v100.5v59.5v61.5q-2 31 -2 61.5v62.5q-2 59 -3 118t-4 116q-2 55 -3 98t-5 74v6v4q-2 10 2 18.5t13 14.5q8 6 17 9t19 3h82l13 -2h12q16 -4 30.5 -13t28.5 -22q12 -12 19.5 -28.5t7.5 -38.5v-4v-4v-5v-4q-2 -14 -4 -27.5t-4 -25.5q-2 -14 -4 -27.5t-4 -27.5 t-3 -28.5t-4 -26.5q-2 -14 -3 -28.5t-1 -29.5q-8 -94 -13 -182t-7 -172q-2 -82 -2 -140.5v-91.5q0 -8 -4 -14t-13 -8h-81q-8 -2 -15.5 0t-15.5 6t-17.5 10t-17.5 15q-8 8 -11 18t-3 23v2v0z" />
<glyph unicode="&#x22;" horiz-adv-x="759" d="M162 807l-33 418q0 16 5 30.5t13 24.5q10 10 21.5 16.5t24.5 8.5h81q12 0 23.5 -7.5t21.5 -19.5t15.5 -33.5t5.5 -52.5l-33 -385q0 -16 -3 -28.5t-7 -18.5q-6 -6 -11 -9t-10 -1h-81q-6 0 -12.5 4t-10.5 12q-6 6 -8 16.5t-2 22.5v2v0zM436 807l-33 418q0 16 5.5 29.5 t13.5 23.5q10 10 20.5 15t22.5 5h82h2h4q10 -2 21.5 -9t19.5 -19q10 -12 15 -31.5t5 -46.5l-32 -385q0 -14 -3.5 -26.5t-7.5 -20.5q-2 -4 -5 -6t-5 -4q-4 -2 -6 -2t-6 2h-82q-6 2 -10 6t-8 10t-7.5 16.5t-5.5 22.5v2v0z" />
<glyph unicode="#" horiz-adv-x="1226" d="M225 0l66 387h-242v80h258l31 227h-225v80h241l66 404h82h112l-65 -404h192l66 404h82h112l-65 -404h211v-80h-227l-31 -227h192v-80h-209l-65 -387h-82h-113l66 387h-193l-65 -387h-82h-113v0v0zM502 467h192l31 227h-193l-30 -227v0z" />
<glyph unicode="$" horiz-adv-x="1226" d="M580 -18q-2 2 -6.5 1t-6.5 -1q-4 0 -7 -1t-7 -1q-20 -4 -44 -5.5t-46 -1.5l-82 -2h-10h-11q-43 4 -82.5 14.5t-76.5 24.5q-37 16 -59.5 50t-28.5 83q-2 4 -3 9.5t-1 9.5v4v4v2v4q0 16 5 20.5t13 0.5h82q10 -4 23.5 -13.5t27.5 -23.5t42 -27.5t67 -23.5q35 -8 77.5 -12.5 t90.5 -6.5q10 0 21 1t22 3v502h82l-7 -2h-82h-4q-84 6 -150.5 16.5t-113.5 24.5q-49 14 -73.5 49t-24.5 92v6l2 9v6v8q6 66 35.5 121t83.5 100q53 43 116.5 81t135.5 69v98q0 4 2 9t8 9q4 4 9 7.5t11 5.5l6 2h82h7q4 0 9 -1t7 -3q4 -2 5 -6.5t1 -8.5v-90h3h3h82q45 0 84 -8 t72 -25q33 -14 56.5 -44.5t37.5 -73.5q4 -8 5 -14.5t3 -12.5v-5t2 -7v-4.5v-4.5q0 -14 -5 -19t-15 -3h-82q-6 2 -12.5 4t-10.5 6q-6 4 -12 9t-12 12l-4 2l-2 4q-4 4 -8.5 7t-6.5 7q-4 2 -7 6t-7 6q-8 6 -14.5 12.5l-12.5 12.5q-18 14 -37.5 25.5t-40.5 19.5q-12 6 -25 10 t-30 6h-1h-1h-1h-1v-432q115 -14 192.5 -33.5t116.5 -46.5t58.5 -64.5t19.5 -84.5q0 -49 -16.5 -96t-50.5 -93q-33 -45 -71 -82.5t-79 -68.5q-25 -18 -48.5 -33.5t-45.5 -28.5q-23 -12 -41.5 -20t-34.5 -12v-144q0 -8 -3 -15t-9 -13q-2 -4 -5 -6.5t-5 -4.5q-4 -2 -6.5 -3 t-6.5 -3l-8 -4h-82h-4l-14 4q-2 4 -3 7.5t-1 7.5v125v0zM727 139q23 10 42 24.5t38 33.5q35 33 57.5 67.5t32.5 71.5q0 6 1 12t3 12v7.5t2 5.5v7v5q0 35 -17.5 67.5t-51.5 59.5q-20 16 -47 29.5t-60 21.5v-424v0zM580 713v364q-20 -10 -39 -24.5t-37 -30.5 q-37 -33 -60.5 -68.5t-33.5 -72.5q-2 -6 -4.5 -12.5t-2.5 -12.5v-11v-9q0 -37 11.5 -60.5t31.5 -34.5q20 -10 54.5 -17t79.5 -11v0z" />
<glyph unicode="%" horiz-adv-x="1904" d="M532 -16q41 68 82 137t84 141q23 35 44.5 71t43.5 73q20 35 43 71.5t43 73.5q41 70 82 139.5t82 138.5q41 70 80 140.5t78 140.5q2 4 5 9t5 7t4 3t4 1q0 2 2.5 3.5t4.5 1.5l6 2h82h4q8 0 15 -4.5t13 -10.5t10.5 -15t4.5 -20v-9t-2 -11t-5.5 -11t-7.5 -9 q-84 -131 -157.5 -249t-134.5 -223q-63 -106 -123 -207.5t-119 -197.5q-8 -14 -17.5 -29.5t-19.5 -31.5q-8 -14 -17.5 -30t-19.5 -32q-8 -14 -17 -28.5t-18 -24.5q-4 -6 -8 -12.5t-8 -14.5q-6 -6 -10 -13t-8 -15q-14 -27 -24.5 -37.5t-19.5 -3.5l-81 -2q-8 8 -12.5 18 t-4.5 25v4v6q0 8 1 13t3 9l8 13v0v0zM1065 291q0 96 26.5 167.5t77.5 121.5q53 47 115 71.5t135 24.5h82q59 0 110.5 -16.5t94.5 -49.5t64.5 -97t21.5 -161q0 -76 -16.5 -132t-49.5 -97q-33 -39 -67.5 -66.5t-73.5 -44.5q-20 -8 -40.5 -12t-41.5 -6q-20 -4 -36.5 -6 t-30.5 -2l-82 -2q-66 2 -118 21.5t-93 57.5q-39 41 -58.5 96.5t-19.5 129.5v2v0zM1276 274q6 -68 23.5 -113.5t43.5 -68.5q20 -16 45 -26.5t52 -14.5q35 6 61.5 23.5t46.5 46.5q25 37 37 83t12 101q0 72 -10 129.5t-33 95.5q-16 33 -44.5 51.5t-67.5 26.5q-41 -8 -72 -26.5 t-49 -46.5q-25 -39 -36 -86.5t-11 -106.5v-8v-8v-10.5v-8.5v-8v-8q0 -6 1 -10.5t1 -8.5h-82v2h82v0zM113 854q0 96 26.5 168t77.5 121q53 47 115.5 71.5t134.5 24.5h82q59 0 110.5 -16.5t94.5 -46.5q43 -33 64.5 -97.5t21.5 -160.5q0 -76 -16.5 -132.5t-49.5 -97.5 q-33 -39 -67.5 -66.5t-71.5 -43.5q-20 -8 -41 -14.5t-41 -10.5q-20 -2 -36.5 -4t-31.5 -2h-82q-68 0 -120 20.5t-93 59.5q-39 41 -58 97t-19 128v2v0zM324 838q6 -68 23.5 -113t43.5 -68q20 -18 45 -28.5t51 -14.5q35 6 61.5 23.5t47.5 46.5q25 37 37 83t12 101 q0 72 -10 129.5t-33 96.5q-16 33 -45 52t-68 25q-41 -6 -71.5 -24.5t-48.5 -46.5q-25 -39 -36 -88t-11 -109v-15v-18v-8v-8q0 -6 1 -10t1 -8h-82v2h82v0z" />
<glyph unicode="&#x26;" horiz-adv-x="1564" d="M1087 354v0v0q29 37 48.5 73t33.5 69q12 35 19.5 60.5t7.5 45.5v4v4v2v4l-2 11q-2 8 -4 15t-4 13q0 4 -1 6.5t-1 6.5v5v5q0 10 2 16t4 11q4 4 8 6t10 2h82q4 0 8.5 -1t10.5 -3q4 -2 9 -5.5t11 -7.5q10 -8 21.5 -21t19.5 -30q10 -14 14.5 -31.5t4.5 -35.5q0 -31 -13.5 -67 t-38.5 -77q-27 -41 -66.5 -86t-92.5 -92q59 -49 105 -83t77 -54t57.5 -30.5t50.5 -10.5q10 0 17.5 -1t11.5 -5q4 -2 7 -7.5t3 -11.5t-1 -12t-5 -12q-2 -8 -7 -15.5l-9 -13.5l-17.5 -17.5t-19.5 -15.5t-22.5 -10t-24.5 -4l-82 -2q-14 2 -31.5 6t-36.5 14q-20 8 -42.5 23.5 t-47.5 36.5l-141 116q-27 -18 -56.5 -34.5t-62.5 -32.5q-45 -20 -91 -37.5t-93 -30.5q-31 -8 -60.5 -12t-58.5 -8t-56.5 -7t-56.5 -3l-82 -2q-57 2 -105 11t-89 29q-39 20 -63.5 55.5t-32.5 84.5q-2 4 -2 9v7v8v9q0 55 23.5 106t72.5 96t103.5 86t113.5 80q16 10 31.5 20.5 t29.5 20.5q8 4 16.5 9t16.5 12q6 4 14.5 9t16.5 11q-37 41 -62.5 80t-42.5 72q-16 35 -24 65.5t-8 57.5q0 51 23.5 93t70.5 74q47 35 106.5 66t128.5 57q6 2 12.5 3t12.5 3q4 0 7 1.5l7 3.5q2 0 6.5 1t6.5 3q6 0 12 1t14 3q6 0 12.5 1t12.5 1t12 1t14 1q6 2 12.5 2h12.5h82 q45 0 83 -9.5t68 -27.5q31 -18 46.5 -43t15.5 -57q0 -16 -3 -35t-13 -39q-8 -20 -23.5 -43t-36.5 -45q-31 -37 -66.5 -72t-76.5 -65q-43 -31 -88 -61.5t-92 -59.5l296 -322v0zM936 225q-10 10 -19.5 18.5t-19.5 18.5l-17.5 17.5t-19.5 17.5q-18 18 -34.5 35.5t-32.5 34.5 q-6 4 -10.5 9t-8.5 9l-8 8l-8 8q-20 23 -42 45.5t-44 45.5q-14 16 -30.5 33.5t-33.5 35.5q-2 -2 -5 -4t-7 -4q-4 -4 -9 -8t-12 -8q-63 -49 -107 -95.5t-67 -89.5t-34 -74.5t-11 -54.5q0 -8 1 -15t3 -15q4 -8 7.5 -16.5t9.5 -16.5q12 -20 31.5 -38t46.5 -34 q20 -10 44.5 -17.5t53.5 -11.5q31 4 66.5 11.5t74.5 21.5q53 18 112.5 51t129.5 80v2v0zM731 758q14 10 27.5 20t25.5 21q25 20 46.5 40.5t39.5 41.5q18 23 34 44t26 42q10 23 16 42t6 38q0 33 -9 57t-25 39q-10 10 -21.5 16t-26.5 10q-6 -2 -13 -3t-15 -5q-18 -8 -36 -17 t-34 -22q-16 -12 -31.5 -27.5t-29.5 -31.5q-6 -6 -11.5 -12.5t-9.5 -12.5q-2 -2 -4 -6t-4 -6q-2 -4 -3 -7t-3 -7q-6 -8 -9 -17.5t-8 -19.5q-2 -4 -3 -9t-1 -10v-11v-9q0 -20 6.5 -45t18.5 -49q10 -18 22.5 -40t28.5 -44v0z" />
<glyph unicode="'" horiz-adv-x="1105" d="M162 807l-33 418q0 16 5 30.5t13 24.5q10 10 21.5 16.5t24.5 8.5h81q12 0 23.5 -7.5t21.5 -19.5t15.5 -33.5t5.5 -52.5l-33 -385q0 -16 -3 -28.5t-7 -18.5q-6 -6 -11 -9t-10 -1h-81q-6 0 -12.5 4t-10.5 12q-6 6 -8 16.5t-2 22.5v2v0z" />
<glyph unicode="(" horiz-adv-x="647" d="M467 -307q-86 84 -151.5 173t-112.5 181q-45 96 -68.5 196.5t-23.5 205.5q0 84 15 170t48 174t84 177t121 177q16 18 31.5 37.5t31.5 40.5q16 20 35 39.5t39 40.5h82l33 -48q-55 -59 -99.5 -119.5t-78.5 -121.5q-35 -61 -61.5 -124t-45.5 -126q-6 -18 -10 -36.5t-8 -37.5 q-4 -20 -7.5 -38.5t-5.5 -37.5q-6 -37 -8 -73.5t-2 -73.5q-2 -113 18.5 -217.5t61.5 -202.5q41 -94 95.5 -176t117.5 -145l-49 -35h-82v0v0z" />
<glyph unicode=")" horiz-adv-x="647" d="M16 -258q66 72 118 146.5t91 150.5q39 78 64.5 156.5t40.5 160.5q4 23 7 45.5t5 44.5q2 23 3 46.5t1 46.5q0 102 -18.5 199.5t-57.5 191.5q-39 92 -94 174t-127 151l47 52h82q86 -94 150.5 -189.5t109.5 -191.5q45 -98 67.5 -196.5t24.5 -199.5q0 -59 -8 -119.5 t-24 -119.5q-14 -59 -39 -119.5t-58 -120.5q-25 -43 -53.5 -87t-62.5 -89q-33 -45 -72 -90t-82 -90l-82 -2l-33 49v0v0z" />
<glyph unicode="*" horiz-adv-x="888" d="M338 952q-43 23 -76 40.5t-57 29.5q-25 10 -40 20.5t-22 18.5l-6 8l-2 8q-2 4 0 9.5t4 11.5q4 6 9.5 13t13.5 15l10 11l10 6l4 2h82h6q10 0 23.5 -9.5t30.5 -27.5q6 -8 14 -15.5t16 -15.5q-2 10 -3 19.5t-3 17.5q-4 23 -6 41.5t-2 32.5q0 16 3 26.5t9 14.5t18.5 7t28.5 3 h82q14 0 23.5 -2t15.5 -6t9.5 -12.5t3.5 -20.5q0 -10 -1 -24.5t-4 -32.5q-2 -6 -3 -14.5t-1 -16.5q0 -10 -1 -19.5t-3 -19.5q4 2 6 5t5 5q4 2 6 5.5t4 5.5q18 20 33.5 30.5t29.5 12.5h82q4 0 9.5 -1t9.5 -6q4 -2 9 -7t9 -11q8 -10 11 -19.5t1 -15.5q-2 -8 -6 -15t-14 -13 q-12 -8 -29.5 -19.5t-40.5 -21.5t-47 -24.5t-53 -31.5q29 -18 53.5 -32.5t46.5 -24.5q23 -12 41.5 -21.5t30.5 -19.5q8 -8 12 -15.5t6 -13.5q2 -8 -1 -16t-11 -19q-4 -6 -8 -10l-8 -8l-13 -10h-82q-12 -2 -25 5t-30 26l-17 17t-22 19q0 -4 1 -7t3 -7q0 -4 1 -7t1 -7 q2 -12 3 -23.5t4 -21.5q2 -10 3 -19.5t1 -17.5q0 -14 -3.5 -24.5t-7.5 -18.5q-6 -8 -16 -11.5t-27 -3.5h-82q-16 0 -28.5 3.5t-18.5 9.5t-9 16t-3 25q0 10 1 20t3 25q2 6 3 13t3 13q0 8 1 16.5t3 16.5v1v3q-6 -6 -12 -11t-10 -9q-20 -16 -35.5 -25.5t-26.5 -9.5h-81 q-4 0 -8.5 2t-8.5 4l-7 7t-7 9q-8 10 -12.5 17.5t-6.5 13.5t-1 12.5t5 12.5q6 10 20.5 19t37.5 20q23 10 55.5 27.5t77.5 39.5v2v0z" />
<glyph unicode="+" horiz-adv-x="1306" d="M330 702q31 -2 60.5 -7t60.5 -5q31 -2 61.5 -2h60.5h8.5h8.5h32.5t32.5 2q14 0 30.5 2t35.5 2h32.5t32.5 2h34h34h32.5t35.5 4h32.5h32.5h113q16 0 28.5 -6t22.5 -18q8 -12 15.5 -23.5t11.5 -27.5l2 -9v-10q0 -10 -1 -19t-8 -16q-2 -6 -11 -9t-17 -3q-43 -8 -107.5 -13 t-144.5 -7q-82 -4 -165 -4h-173h-111h-45h-45h-45h-43h-12l-8 4q-10 6 -20.5 12t-18.5 16q-10 12 -17.5 24.5t-13.5 24.5l-6 19q0 2 -1 5t-1 5v3v7q0 8 3 17.5t7 15.5q6 6 17.5 9t25.5 3v2h111v0zM758 952q-4 -31 -9.5 -61.5t-5.5 -61.5q-4 -31 -4 -62.5t-2 -61.5v-10.5 v-6.5v-34.5t2 -35.5q0 -14 1 -30.5t1 -34.5v-33.5t2 -34.5q0 -16 -1 -33.5t-1 -33.5v-35.5t2 -34.5v-33.5t-2 -33.5l-2 -115q0 -16 -6 -29.5t-16 -23.5q-12 -8 -24.5 -15.5t-26.5 -9.5l-9 -2h-10q-10 0 -19.5 1t-15.5 7q-6 4 -8 12.5t-2 16.5q-8 45 -11 110.5t-5 149.5 q-2 82 0 168t4 176l2 115v45v45q2 23 2 46v46v10l4 8q6 12 12 21.5t17 19.5q12 10 24.5 17.5t24.5 11.5l16 6q4 0 6 1t7 1h3h5q10 0 18 -3t14 -9q6 -4 8.5 -16.5t2.5 -26.5h4l-2 -113v0z" />
<glyph unicode="," horiz-adv-x="647" d="M-16 -258q72 86 124 166t85 153q33 78 49 134.5t16 93.5v4v4l-2 2v4q0 8 2 14.5t4 10.5q4 4 7 6t10 2h81q4 0 9.5 -1t11.5 -5l6 -3l6 -3q2 -2 5 -3.5t5 -3.5q4 -4 8.5 -8t10.5 -8q4 -4 8 -9t8 -11q8 -10 14.5 -21.5t10.5 -21.5v-4.5t2 -2.5q0 -2 1 -4t1 -4v-4t2 -4v-4v-4 q0 -20 -11.5 -51t-33.5 -70q-8 -12 -16.5 -25.5t-16.5 -27.5q-16 -27 -35.5 -52.5t-42.5 -52.5q-14 -18 -29.5 -36.5t-31.5 -36.5q-8 -10 -16.5 -18.5t-14.5 -16.5q-8 -10 -16 -18.5t-17 -16.5l-9 -9t-9 -12l-9 -9l-9 -9t-9.5 -8t-9.5 -10q-4 -4 -9 -8.5t-9 -8.5 q-8 -6 -16.5 -10t-14.5 -6q-6 -4 -12 -5t-13 -1l-82 -2q-2 2 -7 3t-7 3l-8 8q2 6 4 11t6 9q2 2 4 5.5t4 5.5q4 4 7.5 6t7.5 6l-4 -2v0z" />
<glyph unicode="-" horiz-adv-x="872" d="M178 403q23 -2 44.5 -5t43.5 -3q23 -2 45.5 -2h44.5h7.5h5.5h24.5t24.5 2q10 0 22.5 1t24.5 1h24.5t24.5 2h24.5h24.5h24.5t24.5 2h24.5h25.5h81q12 0 21.5 -4t17.5 -12q6 -8 11.5 -16.5t7.5 -18.5l2 -6v-6q0 -8 -1 -14.5t-5 -10.5q-2 -4 -8.5 -6t-12.5 -2q-33 -6 -80 -9 t-106 -5t-120.5 -2h-127.5h-82h-32.5h-32.5h-33h-33h-8l-6 2q-8 4 -15.5 8t-13.5 12q-8 8 -13 16.5t-10 16.5l-4 12q0 2 -1 4t-1 5v2v4q0 6 2 12t7 10q4 4 12 6t18 2v2h82v0z" />
<glyph unicode="." horiz-adv-x="647" d="M201 -43v176q0 4 3 8t9 6q6 4 13 5.5t16 3.5h82h4h6q2 -2 5 -2h5q4 0 9 -1t12 -3q16 -4 29.5 -10.5t25.5 -14.5t18 -18.5t6 -22.5v-176q0 -4 -3 -8t-9 -6q-6 -4 -13 -5.5t-16 -3.5l-81 -2q-2 2 -5.5 2h-5.5q-4 2 -6 2h-4q-6 0 -11 1t-9 3q-14 4 -28.5 10.5t-27.5 12.5 q-12 8 -18 18.5t-6 22.5v2v0z" />
<glyph unicode="/" horiz-adv-x="872" d="M63 63q45 82 90.5 169t90.5 180q45 92 88 187t86 189q12 29 24.5 57.5t26.5 57.5q12 27 24.5 55.5t24.5 57.5q25 57 48.5 112.5t45.5 110.5q4 10 9.5 17.5t11.5 13.5q4 6 9 11t11 7l11 4l10 2h82q10 0 20 -5t19 -15q10 -10 14 -22.5t4 -26.5v-8l-2 -9l-2 -8l-2 -8 q-33 -61 -71 -138t-81 -167q-43 -92 -87 -186.5t-89 -190.5q-31 -68 -61.5 -132.5t-61.5 -127.5t-58.5 -122.5t-53.5 -113.5q-2 -6 -6.5 -10t-6.5 -10q-4 -4 -7 -8t-7 -6q-8 -6 -15 -9.5t-16 -3.5l-82 -2q-10 2 -19 6t-17 15q-2 2 -4.5 4t-4.5 4q-4 6 -6 13t-2 16v8l4 12 l2 8l6 10v2v0z" />
<glyph unicode="0" horiz-adv-x="1374" d="M80 549q0 133 43 255t131 232q86 111 207 167.5t276 56.5h94q113 0 197 -41t141 -121q55 -82 84 -196t29 -261q0 -176 -48 -305t-142 -209q-96 -82 -217 -120t-269 -38l-96 -2q-94 2 -166 30t-119 87q-45 57 -77.5 122.5t-47.5 137.5q-6 25 -10 51.5t-6 53.5t-3 50t-1 46 v4v0zM326 604q4 -135 34.5 -234.5t85.5 -168.5q55 -68 116 -106t124 -50h1h5q2 -2 3 -2h1q84 10 146.5 46t103.5 101q45 76 67.5 183.5t22.5 249.5q-6 147 -38.5 253.5t-86.5 174.5q-49 57 -101 88.5t-112 42.5q-94 -10 -159.5 -52.5t-104.5 -113.5q-43 -80 -68.5 -172 t-35.5 -191q0 -2 -1 -6t-1 -6q-2 -4 -2 -7v-7v-8.5v-6.5v-3v-5v0z" />
<glyph unicode="1" horiz-adv-x="1443" d="M799 1022q-82 -63 -144.5 -112.5t-103.5 -82.5q-53 -43 -94 -64.5t-66 -21.5h-96q-27 0 -51.5 4.5t-44.5 14.5q-23 10 -32 20.5t-7 20.5v4t2 6l3 2t5 4t4 5t8 5q2 0 7.5 2t9.5 5q33 12 70.5 27.5t74.5 35.5q41 18 81 38.5t83 45.5q12 6 22.5 12t22.5 15q10 4 22.5 11 t20.5 13q12 8 23.5 14.5t21.5 12.5t22.5 13t22.5 13q14 10 28.5 19.5t28.5 19.5q14 6 28.5 16.5t29.5 18.5q27 20 51.5 37.5t46.5 36.5q18 10 30.5 20.5t18.5 12.5h96l15 -2v-7.5t-2 -13.5q-2 -6 -3 -13t-5 -18q-6 -33 -12.5 -92t-10.5 -141q-6 -82 -9 -171t-5 -183v-31.5 v-30.5v-15v-13v-17.5v-13.5q0 -72 1 -137.5t3 -124.5q4 -59 8 -103.5t8 -77.5v-5t2 -7v-6v-4v-7t4 -5v-5.5v-5.5v-6l2 -8q0 -10 -1 -18.5t-7 -12.5q-2 -4 -9 -7t-13 -3l-97 -2q-2 2 -5 2h-5q-4 2 -7 2h-5q-6 4 -13.5 5t-17.5 3q-37 14 -58.5 27.5t-31.5 26.5 q-10 14 -16 28.5t-6 28.5l51 940v0z" />
<glyph unicode="2" horiz-adv-x="1443" d="M178 856q18 84 64.5 150.5t117.5 117.5q70 53 149 85t161 44q12 2 22 3t23 1h10t14 3h10.5h12.5h94q76 0 144.5 -20.5t127.5 -59.5t91 -101.5t41 -148.5v-6l2 -9v-8v-8q0 -78 -36 -151.5t-104 -141.5q-70 -70 -145.5 -130t-157.5 -111q-53 -33 -103 -63t-98 -56 q-51 -23 -90 -44.5t-71 -35.5q-16 -10 -29.5 -17.5t-17.5 -11.5q-8 -2 -6 -6t10 -8q6 -2 10 -3l12 -3q6 -4 17.5 -5t21.5 -3q14 -2 32.5 -3.5t41.5 -1.5q23 -2 48.5 -2h53.5h1h3h3h1q27 0 54.5 1t56.5 3q51 0 101.5 2.5t99.5 4.5q47 6 86 9t69 5h5.5t7.5 4h4h6h4t4 2h5h5h95 q18 0 30.5 -4t18.5 -8q8 -4 10 -10.5t0 -10.5q-2 -6 -6 -9t-8 -9q-4 -2 -11.5 -5t-17.5 -5q-16 -2 -32.5 -6.5t-33.5 -8.5q-16 -2 -30.5 -6t-28.5 -6q-66 -14 -144.5 -22.5t-168.5 -12.5q-86 -6 -234.5 -8t-351.5 -2h-96q-20 0 -37 5t-29 13q-12 12 -19 22.5t-10 25.5l-2 6 v6q0 10 2.5 17t8.5 14q4 8 12 12t18 6q182 76 337 160t284 172q127 90 190.5 193.5t63.5 221.5q0 82 -20.5 141.5t-63.5 96.5q-33 31 -71 49.5t-79 24.5v0h-2q-57 -8 -108 -34t-98 -65q-47 -41 -76 -94t-37 -119q-2 -6 -2 -10v-10v-9v-9q0 -37 5 -64t17 -45 q12 -16 26.5 -29.5t31.5 -17.5q4 -2 9 -5t11 -5q6 0 10.5 -1t10.5 -1h-97h17.5h13.5l14 2h95h12l16 -2l6 -6q0 -4 -1 -6l-1 -3q-4 -2 -6 -4t-4 -6q-4 -4 -11 -10t-17 -10q-10 -6 -21.5 -12.5t-24.5 -12.5q-6 -2 -13 -4t-13 -4t-13.5 -3t-15.5 -5q-6 -2 -13 -3t-13 -1 q-8 -2 -15.5 -2.5t-13.5 -0.5h-96q-35 0 -64 13.5t-49 38.5q-25 27 -35 61.5t-10 79.5v21.5t2 19.5q0 12 2 23.5t6 21.5v2v0z" />
<glyph unicode="3" horiz-adv-x="1290" d="M821 672q104 -8 176 -23.5t117 -38.5t67.5 -68.5t22.5 -115.5v-6v-4v-8v-5q0 -80 -42 -155.5t-126 -143.5q-86 -68 -179 -117.5t-193 -80.5q-31 -10 -63 -17.5t-64 -13.5q-31 -4 -64 -8t-59 -4l-95 -2q-45 2 -87 10t-76 23q-35 14 -61.5 36.5t-43.5 55.5q-4 10 -7 17 t-9 13q-2 4 -3 9.5t-1 9.5q0 10 2 17t8 9q4 4 10 5.5t15 1.5h94q8 0 17 -1t20 -6q10 -2 21 -9t20 -15q27 -16 56.5 -27.5t65.5 -21.5q25 -4 49.5 -9.5t51.5 -7.5v0h2v0v0h10h10q4 2 10.5 2h12.5q80 10 153.5 39t141.5 78t104.5 123t38.5 176q0 47 -16.5 86t-48.5 70 q-29 27 -71 42t-97 17q-23 -2 -45.5 -3t-47.5 -7q-39 -6 -82.5 -15.5t-91.5 -21.5h-94q-10 4 -18 11t-17 18q-6 8 -8 19t-2 22v10t2 10q0 4 1 10.5t3 12.5h6.5t6.5 2h8h8h8t8 2h10.5h10.5q23 0 48.5 2t55.5 4q29 2 59.5 5t61.5 9q59 10 113.5 29.5t103.5 50.5q49 29 76 78 t31 115v6v4v4v4q0 55 -14.5 97t-47.5 71q-25 23 -50.5 36t-55.5 19q-8 -2 -16.5 -4t-16.5 -4q-23 -4 -43 -11t-43 -18q-35 -16 -67.5 -40.5t-65.5 -55.5q-35 -31 -63.5 -66.5t-55.5 -78.5q-2 -10 -8 -14.5t-12 -10.5q-4 -2 -8.5 -3t-6.5 -1q-6 -2 -9 -2h-7h-94h-11l-8 2 q-12 2 -24.5 8t-24.5 17q-8 8 -14 20t-6 29q0 6 1 13t3 18q6 8 10 16t14 18q37 45 82 80t96 64q53 27 105.5 46t109.5 30q18 4 37 6t35 4q8 0 17.5 1t19.5 1q8 2 17.5 2h17.5h94q76 0 142.5 -14.5t119.5 -47.5q55 -31 83 -75.5t28 -102.5v-6v-6q0 -76 -24.5 -134.5 t-71.5 -96.5q-45 -41 -112 -71t-157 -48v0z" />
<glyph unicode="4" horiz-adv-x="1443" d="M836 338l-373 -14h-94q-47 -2 -88 3t-76 15q-37 12 -53.5 35.5t-16.5 58.5q-2 12 0 22.5t4 24.5q6 14 12.5 28.5t14.5 31.5l371 710q6 8 9 13.5t7 9.5q6 4 11 5t14 1h94l10 -2l12 -2q6 -2 10.5 -6t12.5 -8q4 -6 9 -10.5t9 -8.5q12 -12 19.5 -25.5t11.5 -27.5v-12l2 -11 l-2 -16l-4 -14l-371 -537q-12 -16 -22.5 -31.5t-18.5 -27.5q-6 -12 -11 -22.5t-5 -20.5q0 -12 7 -21.5t21 -15.5q14 -8 40 -10t61 -2l373 -15l18 482q0 6 3 11t11 11q6 4 17.5 6t21.5 2h94l13 -2h14q14 -4 27.5 -12t21.5 -21q12 -10 18.5 -27.5t6.5 -37.5v-11.5v-11.5 q0 -4 -1 -10t-3 -10q-8 -57 -13.5 -106.5t-5.5 -94.5q-2 -45 -2 -86v-82v0v0h11.5t13.5 2q4 0 10 1t10 1q16 0 31.5 2t30.5 4h15t11 3h12.5h10.5h96q18 0 28.5 -4.5t12.5 -8.5q6 -4 -4 -15t-29 -28q-4 -6 -21.5 -11t-51.5 -9q-31 -4 -65 -8.5t-69 -6.5h-6h-6h-7h-7h-13.5 h-13.5v-352q0 -8 -4 -18.5t-12 -14.5q-6 -4 -14.5 -8t-20.5 -6l-94 -2q-2 2 -5 2h-3q-2 2 -4 2h-5h-14q-16 8 -31.5 15.5t-27.5 17.5q-14 10 -20.5 22.5t-6.5 26.5l21 295v0z" />
<glyph unicode="5" horiz-adv-x="1388" d="M526 1155l-34 -401q31 8 59.5 15t54.5 13q51 12 99.5 16.5t91.5 4.5h96q86 0 153.5 -18.5t118.5 -59.5q51 -39 76 -97.5t25 -133.5q0 -10 -1 -21.5t-3 -21.5t-3.5 -21.5t-7.5 -23.5q-23 -78 -79 -152t-146 -143q-90 -68 -186.5 -116t-196.5 -81q-29 -6 -56.5 -12 t-54.5 -8q-27 -4 -52 -7.5t-52 -3.5l-96 -2q-33 2 -66 7.5t-63 11.5q-33 8 -60.5 20t-54.5 29l-14 10l-15 12q-12 16 -19 26.5t-7 22.5q-2 8 5 12.5t23 8.5h97q6 0 15 -2t20 -4q12 -2 23 -5t26 -10q27 -8 56.5 -16t59.5 -12q18 -4 38 -5t40 -5q90 6 177 33.5t169 76.5 q92 59 146.5 135t70.5 170q2 8 3.5 18.5t3.5 18.5v11.5t2 9.5v9v9q-2 66 -24.5 115t-72.5 82q-37 27 -81 41t-91 18h-2v0q-12 -2 -24.5 -3t-24.5 -5q-31 -4 -62.5 -12.5t-60.5 -20.5q-31 -12 -58.5 -27.5t-53.5 -35.5q-39 -27 -63.5 -39.5t-33.5 -10.5h-96q-10 2 -15 9.5 t-5 21.5v9.5v9.5v10v10l39 608h96q31 -4 63.5 -8t69.5 -6q33 -2 67.5 -4t71.5 -2h-96h22.5h20.5h24.5h24.5q86 -2 167 1t155 11q76 6 126 18.5t78 26.5h97q2 -2 4 -5t4 -3q2 -2 3 -4t3 -4q4 -2 5 -8t1 -13v-4v-2q-2 -2 -2 -5v-5t-2 -4l-2 -2l-3 -6t-1 -4 q-10 -16 -24.5 -30.5t-34.5 -27.5q-23 -12 -48.5 -18t-54.5 -6h-96l-492 16v0z" />
<glyph unicode="6" horiz-adv-x="1320" d="M498 766q12 4 23 7t26 5q12 4 23.5 6t21.5 4q12 2 22.5 4.5t22.5 4.5q8 2 19.5 3t21.5 3q10 0 20.5 1t22.5 1q10 2 21.5 2h19.5h92q80 0 148.5 -17.5t125.5 -48.5q59 -33 88 -83t29 -117v-5.5v-5.5q-2 -4 -2 -7v-7v-5v-7q-2 -4 -2 -6v-6q-16 -104 -65.5 -188.5 t-128.5 -151.5q-82 -63 -169 -106.5t-182 -63.5q-23 -4 -45 -9.5t-43 -7.5q-20 -2 -40.5 -3t-41.5 -1l-92 -2q-78 2 -146.5 20.5t-125.5 55.5q-57 39 -85 97t-28 140q0 43 17.5 94.5t54.5 114.5q33 61 78 127t98 135q20 27 42.5 54.5t47.5 56.5q23 27 46.5 53.5t45.5 50.5 q70 76 134.5 140.5t123.5 118.5q59 51 99.5 77.5t60.5 26.5h92q12 0 24.5 -7t24.5 -20q10 -14 19.5 -28.5t15.5 -28.5q4 -6 5 -10t3 -6q0 -4 1 -8.5t3 -8.5q2 -10 3.5 -16t1.5 -12l-3 -15l-10 -8h-92h-8h-2v0v0h-2v0q-16 -6 -30.5 -13t-29.5 -16q-6 -2 -12 -7t-10 -7 q-6 -4 -12.5 -8t-10.5 -8q-12 -8 -22 -16.5t-19 -16.5q-6 -2 -9 -5t-7 -5q-2 -4 -6 -7.5t-8 -7.5q-6 -6 -13.5 -12t-11.5 -10q-25 -20 -48.5 -41t-43.5 -39q-23 -18 -43.5 -36.5t-42.5 -37.5q-20 -18 -39.5 -37.5l-38.5 -38.5l-4 -4l-4 -4q-2 -4 -4 -6t-6 -4v0zM301 346 q0 -68 23.5 -120t68.5 -87q45 -33 97.5 -54.5t109.5 -25.5v0v0q68 4 132.5 28t121.5 63q70 45 106.5 112.5t45.5 155.5v6l2 10v6v6q0 63 -18.5 111.5t-57.5 85.5q-37 33 -77 57.5t-85 32.5q-10 4 -19.5 5t-17.5 3q-72 -8 -140.5 -27.5t-129.5 -49.5q-74 -37 -114 -116 t-48 -202v0z" />
<glyph unicode="7" horiz-adv-x="1435" d="M1126 1180l-753 -50h-99q-29 -2 -53 4.5t-47 20.5t-40 30.5t-30 33.5q-8 8 -11 15t-9 15q-2 6 -3 14.5t-1 14.5q0 8 2 14t8 11q4 6 10 8t17 2h98h4h4q2 -2 4 -2h6q4 -2 10.5 -4t14.5 -4q35 -12 80 -21.5t104 -15.5q59 -4 122 -8.5t128 -4.5h68h65q35 0 68 1t63 3h27.5 t26.5 5h23h22h18t17 2h12h10h4t8 2h5.5h7.5h98h13h12q27 0 46 -4.5t29 -10.5q12 -8 18.5 -16t6.5 -21v-12t-2 -10q-2 -2 -3 -5t-1 -5q-2 -4 -4 -7.5t-4 -5.5l-11 -12l-10 -10q-16 -14 -33.5 -28.5t-34.5 -31.5q-18 -16 -35.5 -32.5t-33.5 -32.5q-94 -98 -183.5 -221 t-175.5 -269q-84 -145 -144 -296.5t-97 -307.5q-2 -16 -9.5 -25t-19.5 -9l-98 -3q-6 2 -12.5 3.5t-10.5 5.5q-8 2 -14 7t-10 9q-12 10 -24.5 26.5t-24.5 34.5q-6 10 -11.5 20.5t-7.5 18.5q-4 8 -7 18.5t-3 20.5l-2 13v12q0 37 25.5 98.5t78.5 145.5q51 86 112.5 175 t135.5 185q20 27 42 52.5t42 54.5q23 27 45.5 52t44.5 50q35 43 71 82t68 76q10 12 21.5 23t21.5 24q23 23 43.5 44t40.5 38v0z" />
<glyph unicode="8" horiz-adv-x="1388" d="M565 694l-6 -2h-98h-6q-61 0 -110.5 18.5t-82.5 55.5q-37 35 -54.5 78t-17.5 92v13v16v7t5 7q0 2 1 6t1 6q12 55 51 106.5t104 98.5q66 47 166 70.5t236 23.5h96h24.5h24.5h10h15q4 -2 10 -2h14q78 -8 133.5 -30.5t92.5 -59.5q37 -39 55 -80t20 -88v-5v-3v-4v-4l-2 -15 q-8 -49 -30.5 -95t-65.5 -89q-41 -41 -96.5 -66.5t-126.5 -37.5q94 0 167.5 -22.5t125.5 -72.5q51 -45 76.5 -100t25.5 -119v-6v-8q-4 -2 -4 -6v-8v-6.5v-6.5q-2 -4 -2 -7v-7q-14 -72 -61.5 -135.5t-127.5 -122.5q-82 -57 -199.5 -85t-273.5 -30l-96 -2q-4 2 -6 2h-2h-4h-6 h-4h-2h-5.5h-5.5q-127 0 -215 22.5t-145 63.5q-53 43 -80 95.5t-27 113.5v15.5t2 19.5q0 6 1 14.5t6 18.5q14 59 47.5 114.5t87.5 106.5q55 51 121.5 87t146.5 52v2h96v0zM334 332q0 -55 18.5 -99.5t55.5 -74.5q37 -33 76.5 -54.5t82.5 -35.5q20 -8 41 -11.5t41 -9.5h4h4 q0 -2 3.5 -2h5.5v0h2v0v0q12 0 24.5 2t24.5 6q55 8 106 30.5t99 55.5q47 35 77.5 82t42.5 109v5t2 7v6v6v8.5t3 6.5v8v6v5v7q-2 2 -2.5 5t-0.5 6v10v14q-6 41 -29.5 80t-64.5 76q-35 29 -92 47t-137 20q-10 0 -23.5 -1t-25.5 -3q-10 -4 -24.5 -6t-24.5 -4q-16 -2 -29.5 -5 t-26.5 -7q-43 -14 -83 -38t-76 -57q-37 -35 -55.5 -86t-18.5 -114v0zM469 963v-14.5v-10.5v-5t2 -5v-7v-6q4 -31 20.5 -61.5t45.5 -56.5q25 -25 65.5 -40.5t99.5 -21.5q51 6 97.5 22.5t85.5 47.5q49 35 73.5 80t24.5 96q0 57 -19.5 99t-60.5 71q-31 25 -69.5 38t-85.5 19 q-53 -6 -100.5 -24.5t-92.5 -46.5q-43 -29 -64.5 -73t-21.5 -101v0z" />
<glyph unicode="9" horiz-adv-x="1374" d="M1087 586q-39 -37 -80.5 -63.5t-88.5 -49.5q-45 -20 -94.5 -35.5t-96.5 -25.5q-16 -2 -31.5 -4t-29.5 -2q-8 0 -15.5 -1.5t-13.5 -1.5h-17.5h-13.5h-94q-84 0 -157.5 20.5t-135.5 63.5q-61 43 -92 110t-31 155q4 90 50.5 173t134.5 156q90 74 186 123t203 74q18 4 39.5 8 t44.5 6q10 0 20 1t23 1q8 2 19 2h20h96q63 0 121.5 -14t109.5 -43t88 -76t62 -112q2 -10 3 -18.5t3 -18.5v-9.5t4 -9.5v-12v-8q0 -49 -12.5 -102.5t-38.5 -108.5q-23 -57 -55.5 -115.5t-71.5 -120.5q-31 -47 -66 -95t-71 -95l-78 -90t-80 -84q-66 -72 -130.5 -129.5 t-125.5 -102.5q-59 -47 -104.5 -69.5t-73.5 -22.5l-94 -2l-13 2l-8 2q-10 6 -19.5 13.5t-19.5 15.5q-10 10 -18 19.5t-13 19.5q-4 6 -8 13t-6 16q-2 6 -3 12t-1 10q0 10 2 14.5t10 8.5l94 -4q4 6 15.5 1.5t25.5 -10.5l-96 -2q14 -2 57.5 15.5t110.5 54.5q70 41 145.5 100.5 t155.5 136.5q35 33 68 68t65 72q33 41 65 82t62 86v2h94v0zM360 791q0 -55 13.5 -102.5t44.5 -82.5q29 -35 75 -60.5t109 -35.5q10 -4 23.5 -7t27.5 -5h3h6q66 4 126 27.5t117 66.5q66 49 105 106.5t53 116.5v4t4 8v5.5v7.5v4t2 6v7v5q0 90 -21.5 151.5t-64.5 98.5 q-43 35 -90 56.5t-96 27.5h-2h-2h-1h-1q-76 -6 -146 -30.5t-133 -73.5q-76 -51 -114 -127t-38 -174v0z" />
<glyph unicode=":" horiz-adv-x="647" d="M209 70v143q0 6 5 12t13 11q10 4 19.5 6t21.5 2h82h4h6q14 -2 26.5 -6.5t25.5 -12.5q12 -8 18 -18t6 -27v-160q0 -4 -3 -8t-7 -6q-6 -4 -12 -5t-15 -3l-82 -2q-2 2 -4 2h-4q-4 2 -6 2h-4q-4 0 -9 1t-9 3q-14 2 -26.5 8t-23.5 13q-12 10 -17 20t-5 23v2v0zM209 809v145 q0 6 4 12.5t12 10.5q10 4 19.5 6t21.5 2h82h6h8q14 -2 26.5 -7t25.5 -13q10 -8 16 -18.5t6 -26.5v-160q0 -8 -3 -12.5t-7 -8.5l-12 -4t-15 -2h-82h-9h-9t-9 2t-9 4q-14 4 -26.5 10.5t-23.5 14.5q-12 10 -17 20.5t-5 22.5v2v0z" />
<glyph unicode=";" horiz-adv-x="647" d="M-49 -242q20 20 35.5 40t27.5 40q14 20 27.5 41t26.5 41q31 51 55 100.5t39 96.5q16 47 23.5 83t7.5 56q0 10 2 17.5t6 11.5t9 6t11 2h82q4 0 9 -1t12 -3q6 -2 12 -5t12 -8q4 -2 7 -4t7 -6q2 -2 6.5 -4t6.5 -6l12 -12t12 -13q2 -2 4.5 -5t4.5 -5l3 -6l3 -6q4 -6 5 -10 t1 -9q0 -12 -12.5 -36.5t-36.5 -65.5q-25 -39 -55.5 -80t-67.5 -86q-8 -10 -16.5 -19t-14.5 -18q-8 -10 -16 -19t-17 -18q-16 -18 -32.5 -35.5t-32.5 -33.5q-6 -4 -11.5 -9.5l-9.5 -9.5l-8 -8l-8 -8q-20 -18 -35.5 -25.5t-21.5 -3.5l-82 -2q-4 6 -1 17.5t13 29.5l-4 -2v0z M209 481v146q0 6 4 12t12 10q10 4 19.5 6t21.5 2h82h6h8q14 -2 26.5 -7t25.5 -13q10 -8 16 -18.5t6 -26.5v-160q0 -8 -3 -12t-7 -8l-12 -4t-15 -2h-82h-9h-9t-9 2t-9 4q-14 4 -26.5 10t-23.5 14q-12 10 -17 20.5t-5 22.5v2v0z" />
<glyph unicode="&#x3c;" horiz-adv-x="1306" d="M1182 1020l-625 -402l592 -452l-133 -74h-166l-688 551l753 453h166l101 -76v0v0z" />
<glyph unicode="=" horiz-adv-x="1306" d="M412 406h393q57 2 104 2t84 2q35 2 63.5 4t51.5 4q20 2 35.5 4t25.5 4t17.5 3t15.5 1h8h11q2 -2 8 -5t12 -3q2 -2 3 -5t3 -5q2 -4 3 -8.5t1 -8.5v-65v-5v-3q-2 -4 -2 -8v-3q-2 -6 -3 -11t-5 -9q-4 -12 -9 -22.5t-15 -20.5q-6 -8 -14.5 -15.5t-16.5 -9.5h-3t-3 -2h-4h-5 h-11h-13q-25 0 -62.5 1t-87.5 5q-25 0 -51 1t-55 1q-27 2 -55.5 3t-59.5 1q-20 2 -40.5 3.5t-39.5 1.5q-23 2 -43 2h-41q-43 2 -85 4t-83 2h-80.5h-74.5q-39 0 -75 -1t-64 -3q-31 0 -52.5 -3t-34.5 -8q-4 0 -8 3.5t-4 5.5q-4 4 -5 9t-1 9l-2 68q2 2 2 4v2q2 0 2 2v4v3v3 q2 2 2 4v2q0 8 1 13.5t5 13.5q2 2 3 5t1 5q2 2 2 5t2 3l7 8h6l22.5 4.5t24.5 2.5q14 2 27.5 2h25.5h25.5h25.5t24.5 -1t24.5 -3h11h8h13h16h13h15h13.5t17.5 -2h13h16v0v0zM434 805h393q57 2 104.5 2t82.5 2q37 2 65.5 4t48.5 4q23 2 37.5 4t26.5 4q8 2 16.5 3t14.5 1h9h9 q4 -2 9 -5t14 -3q2 -2 2 -5t2 -5q2 -4 3 -8t1 -8v-66v-5v-3q-2 -4 -2 -7v-3q-2 -6 -2 -11.5t-4 -9.5q-6 -12 -11.5 -22.5t-13.5 -20.5q-8 -8 -16.5 -15t-16.5 -9h-3t-3 -2h-2h-6h-11h-12q-27 0 -63.5 1t-87.5 5q-25 0 -51.5 1t-53.5 1q-29 2 -57.5 3t-58.5 1q-18 2 -39 3 t-41 1q-20 2 -42 2h-40l-86 4t-84 2h-80h-74q-39 0 -74.5 -1t-66.5 -3q-31 0 -52.5 -3t-33.5 -7q-4 0 -7 3l-5 5q-4 4 -5 9t-1 9l-3 68q2 2 3 4v2q2 0 2 2v4v3v3q2 2 2 5v2q2 8 3 13t5 13q0 2 1 5t1 5q2 2 3 5.5t3 3.5l4 8h6q10 2 23.5 4t25.5 2q14 2 27.5 2h26.5h24.5h24.5 t25.5 -1t25.5 -3h8h8h15.5h13.5h15.5h13.5h15t15 -2h15.5h13.5h2v0z" />
<glyph unicode="&#x3e;" horiz-adv-x="1306" d="M162 1020v0l100 76h166l754 -453l-686 -551h-168l-133 74l591 452l-624 402v0z" />
<glyph unicode="?" horiz-adv-x="985" d="M354 49v144q0 6 5.5 12t13.5 10q10 4 19 6t22 2h82h4h6q14 -2 26.5 -6t24.5 -12t18.5 -18.5t6.5 -26.5v-160q0 -4 -3.5 -8t-7.5 -6q-6 -4 -12 -5t-14 -4l-82 -2q-2 2 -4 2h-4q-4 2 -6.5 2.5t-4.5 0.5q-4 0 -9 1t-9 3q-14 2 -26.5 8t-22.5 12q-12 10 -17.5 20.5t-5.5 22.5 v2v0zM145 516q0 43 18.5 78t57.5 61q39 27 82 51.5t92 47.5l8 4l11 4q49 23 94 49.5t88 54.5q41 29 62.5 69t21.5 91v9v9v4.5v6.5q-2 2 -2 4v4q-6 35 -22.5 64.5t-45.5 50.5q-20 16 -42.5 26t-49.5 15q-2 0 -4 -1t-4 -1t-4 -1.5t-4 -1.5q-14 -2 -28.5 -8t-29.5 -12 q-27 -12 -53 -31.5t-53 -46.5t-49.5 -60.5t-44.5 -74.5q-2 -8 -5 -14t-8 -11l-12 -14l-14 -10l-12 -4h-82q-8 0 -17.5 4t-15.5 12q-8 10 -13.5 19.5t-9.5 19.5q-2 4 -3 8t-1 8q0 2 -1 4.5t-1 4.5v2v4q0 45 33 87t98 81q66 39 139.5 60.5t153.5 27.5h4t6 2h5.5h5.5h81h6.5 h6.5h5h5q80 0 137.5 -16.5t89.5 -47.5q33 -33 52.5 -67.5t25.5 -71.5v-11v-9v-4.5t2 -4.5v-6v-4v-4v0v-4v-2q0 -55 -21.5 -95t-62.5 -67t-87 -50.5t-95 -41.5l-6 -4h-4q-49 -20 -92 -42t-84 -46q-39 -25 -59.5 -60.5t-20.5 -85.5v-8v-6q0 -35 11 -61.5t36 -42.5 q16 -12 34.5 -18.5t37.5 -10.5q23 4 43 13t40 24q27 18 40.5 47t13.5 65q0 6 2 12.5t4 8.5q4 4 8 5t8 1h82q4 0 8 -1t9 -3q4 -2 8 -3t10 -3q10 -6 19.5 -15.5t17.5 -19.5l8 -12t6 -11q2 -6 3 -12t1 -12q0 -33 -22.5 -57.5t-67.5 -42.5t-95 -28.5t-103 -10.5h-82h-7h-6 q-55 0 -105 12t-97 35q-45 23 -69 57.5t-24 83.5v2v0z" />
<glyph unicode="@" horiz-adv-x="1726" d="M1049 870l16 82h82h145l-129 -516q-2 -6 -3 -12t-1 -10v-8.5v-8.5q0 -20 5 -34.5t16 -24.5q2 -2 4 -3t4 -3q0 -2 2 -3t4 -1q12 4 23.5 8t21.5 12q31 18 58.5 50t54.5 77q25 43 38 98.5t13 122.5v4v5v2v4v12q-6 115 -45 203t-111 149t-150.5 100t-162.5 54q-14 4 -28.5 5 t-28.5 3h-3.5h-3.5h-4h-4q-2 -2 -4 -2h-4q-12 -2 -24.5 -3t-24.5 -5q-82 -20 -156 -69.5t-141 -127.5q-68 -80 -101.5 -184.5t-33.5 -235.5q0 -133 42 -240.5t124 -191.5q76 -76 167 -117t197 -47q27 2 53.5 5.5t53.5 9.5q37 8 75.5 20t77.5 31q6 4 14.5 7t16.5 7t15.5 8 t15.5 9h82l32 -48q-39 -27 -77.5 -45t-79.5 -28q-41 -12 -82 -21.5t-82 -13.5h-16.5h-16.5h-8t-8 -2h-8.5h-8.5l-82 -2q-141 2 -267 48t-236 140q-111 96 -166.5 214t-55.5 257q0 133 49.5 253t149.5 227q100 109 220 162t259 53h82q23 0 45.5 -1t46.5 -6q23 -2 47.5 -6 t49.5 -10q80 -20 154.5 -60t144.5 -102q70 -61 109.5 -152t47.5 -212v-4v-2v-4.5v-4.5v-4t2 -2v-4v-4v-8v-8v-13q0 -82 -20.5 -149.5t-61.5 -120.5t-86 -90t-94 -55q-12 -4 -24.5 -7.5t-24.5 -7.5q-12 -2 -24.5 -3t-22.5 -1h-82q-31 0 -56.5 8.5t-47.5 24.5 q-10 8 -18.5 18.5t-16.5 24.5l-15.5 -15.5t-17.5 -11.5q-18 -12 -35.5 -21t-34.5 -16q-18 -6 -34.5 -9t-32.5 -3h-82q-39 0 -71 14.5t-56 45.5q-27 29 -39 70.5t-12 94.5v17.5t2 17.5q0 10 1 19.5t3 19.5q14 76 38.5 137.5t59.5 108.5t73 81t77 54q14 8 28.5 14.5t28.5 8.5 q16 4 29.5 6t27.5 2h82q25 0 47.5 -6t40.5 -21q18 -14 30.5 -33.5t18.5 -46.5h-81v2v0zM743 549l-2 -10v-9v-10v-8q0 -39 8.5 -68.5t26.5 -50.5q10 -12 21.5 -20t23.5 -13q4 0 7 1t8 4q2 2 6 3t6 3q33 16 63.5 49t57.5 82q29 49 45 116.5t18 153.5q0 31 -7 54.5t-19 37.5 l-12.5 12.5t-16.5 8.5v0v0q-12 -4 -24.5 -10.5t-24.5 -14.5q-31 -20 -59.5 -50t-55.5 -71q-27 -39 -44 -88t-26 -104h-81v2h81v0z" />
<glyph unicode="A" horiz-adv-x="1904" d="M1087 961l-262 -457l353 12h82q35 -2 59 -5t37 -7q6 -2 10 -5t8 -5q2 -4 3 -6.5t-1 -6.5q-2 -6 -11 -12t-24 -10q-14 -6 -30.5 -8t-34.5 -2l-500 -29q-18 -27 -37.5 -58.5t-42.5 -66.5q-12 -16 -23 -33.5t-24 -34.5q-12 -18 -24.5 -35.5t-24.5 -33.5q-6 -8 -12 -17.5 t-13 -17.5q-8 -10 -14 -18.5t-12 -16.5q-14 -18 -26.5 -34.5t-24.5 -33.5q-43 -49 -83 -92t-79 -80t-71 -55t-56 -18l-82 -2h-4h-2l-4 2h-4q-16 4 -31.5 12t-30.5 20q-14 12 -24.5 25.5t-20.5 28.5q-4 10 -8 19t-6 20q-4 8 -6 16t-2 14v11l8 4h82q4 2 7 0t9 -4q4 -4 10 -8.5 t15 -10.5v0l2 -2v0v0q16 6 35.5 16.5t40.5 26.5q37 27 76.5 59.5t78.5 75.5q23 25 46.5 50.5t43.5 52.5q23 27 43.5 54.5t40.5 53.5q4 6 9.5 13.5t11.5 15.5q4 6 9 13t9 14q8 10 15.5 22t15.5 25l-139 -9h-82q-27 -2 -49.5 5.5t-38.5 21.5q-18 14 -30.5 29.5t-21.5 34.5 q-4 8 -7 16t-5 16t-3 15.5t-1 13.5q0 8 1 14t3 11q4 4 7 6t7 2h82l11 -2q4 -2 7 -3t7 -5l8 -9l8 -4q23 -14 46.5 -25.5t50.5 -15.5q27 -6 64.5 -10t88.5 -8q14 -2 28.5 -3t29.5 -1q8 10 15 21.5t13 23.5q6 10 13.5 21.5t15.5 23.5q14 23 27.5 46.5t27.5 47.5q8 12 15.5 25.5 t15.5 27.5t16 27.5t17 28.5q10 18 20 36.5t21 36.5q10 16 21 35t22 37q23 35 45 71t47 68l-2 4l-2 4q-12 23 -30.5 43.5t-43.5 40.5t-57.5 33t-73.5 19q-8 0 -15.5 2t-13.5 4q-6 4 -8 8t-2 8v2v2q0 2 2 4l4 4q2 0 6 2.5t8 4.5q8 4 20.5 6t29.5 2h82q37 0 72.5 -3t68.5 -9 q35 -6 63.5 -15.5t53.5 -21.5t57.5 -61.5t75.5 -133.5t88 -175t92 -189q2 -2 3 -5.5t3 -7.5q0 -2 1 -5t3 -5t3 -5t3 -5q0 -4 1 -6t3 -4q41 -88 82 -169t80 -155q41 -74 75 -121t60 -65q10 -8 17.5 -14.5t13.5 -10.5q4 -6 7 -10t3 -8q0 -2 -1 -6.5t-5 -6.5q-2 -4 -7 -7 t-11 -7q-12 -8 -32.5 -18.5t-49.5 -22.5l-6 -2l-6 -2l-9 -2h-82h-6q-2 2 -4 2h-4q-2 2 -4 2h-4t-4 1l-2 1h-4h-4q-37 23 -83 99.5t-100 207.5q-49 121 -133 285t-201 369v0z" />
<glyph unicode="B" horiz-adv-x="1679" d="M354 1153q-2 0 -4 -1t-4 -1q-2 -2 -4 -3t-4 -1q-27 -8 -54.5 -21.5t-56.5 -31.5l-15 -7.5t-13 -5.5t-12.5 -3t-12.5 -1h-82q-14 0 -25.5 4t-21.5 13q-8 10 -13 19t-7 20v4v6q0 8 2 15t6 16q4 6 12 11t18 7q6 2 12.5 4t14.5 4q6 0 12.5 2t12.5 4t12 3t12 3q6 0 13.5 1 t13.5 4h4t4 2h4h4q4 0 8.5 1t8.5 3q18 4 36.5 7t36.5 5q18 4 40 9t42 11q0 2 -1 4.5t-1 4.5q-2 0 -2 2v4v12q0 14 3 23.5t12 15.5q6 4 15 7t19 5h82h4h4q2 -2 4.5 -2h4.5h4h4q2 -2 4 -2h4q12 -4 23.5 -9t21.5 -11q4 -2 9 -6.5t10 -6.5q4 -4 8 -7t6 -7l6 -14v-2h7t5 2h7.5 h5.5q31 4 65.5 5t73.5 1h82h16h17q8 -2 16 -2h16q16 0 34 -1t36 -3q76 -6 146.5 -21.5t136.5 -40.5t105.5 -64.5t53.5 -94.5v-7v-6q0 -39 -16 -75.5t-51 -69.5q-33 -33 -70 -59.5t-78 -49.5q-25 -14 -49 -24.5t-47 -20.5q-23 -8 -41 -16t-35 -12h-82h9.5t9.5 2h9h11h9.5 t11.5 2h9h11h82h16.5h16.5q8 -2 17.5 -2h17.5q16 -2 34.5 -3t36.5 -6q59 -8 111.5 -28.5t101.5 -48.5q49 -31 74 -77t25 -112q-4 -88 -64.5 -162.5t-177.5 -134.5q-117 -57 -243 -95t-265 -52q-27 -4 -52.5 -5t-51.5 -3q-27 -2 -51.5 -3.5t-49.5 -1.5l-82 -2 q-35 2 -68.5 3.5t-64.5 5.5q-33 2 -62.5 7t-58.5 9q-25 4 -45 11t-36 16q-16 10 -28.5 19t-23.5 17q-6 6 -10 12.5t-8 12.5l-4 12t-2 13q0 6 2 12t6 10t10 7t15 3h81h7l6 -2q4 -2 8 -3t8 -3q2 0 4 -1t4 -1q0 -2 2 -2h4q8 -4 17.5 -7t17.5 -5q4 0 7 -1t6 -1q4 35 7 88t5 123 q2 37 3 74.5t3 76.5q0 37 1 77t3 81q2 84 3 163t3 154q2 63 3 112.5t1 84.5v0zM598 1194q-4 -33 -8 -71t-8 -79q-2 -20 -4.5 -42.5t-2.5 -45.5l-4 -46t-4 -48q-2 -41 -5 -84t-7 -86q-2 -20 -3 -42.5t-3 -43.5q-2 -23 -3 -44t-3 -44q-4 -55 -9.5 -110.5t-9.5 -108.5 q-2 -27 -5 -53.5t-5 -52.5q-4 -25 -6 -49.5t-6 -49.5q47 -8 92 -13t88 -9q33 -2 64.5 -4t62.5 -5q115 4 203 27t149 64q68 47 105 112.5t41 151.5v4v4v2v4q0 66 -32 111t-93 69q-53 23 -113.5 35t-128.5 15h-3h-1h-3h-3h-12.5h-10.5q-6 -2 -12 -2.5t-12 -0.5 q-31 -2 -61.5 -5t-59.5 -7q-31 -4 -58.5 -9t-56.5 -11h-82q-8 0 -15 3t-13 9t-9.5 13t-3.5 16v2v4q0 10 3 17t10 16q6 8 17 12t26 4q121 0 224 12.5t187 38.5q84 25 127 77t43 130q0 66 -31.5 110t-95.5 68q-59 23 -122.5 36t-131.5 17q-18 -2 -36.5 -3t-36.5 -3 q-29 -2 -56.5 -6t-52.5 -8h-82v2h82v0z" />
<glyph unicode="C" horiz-adv-x="1679" d="M80 307q2 35 9 70t22 74q14 39 33.5 78.5t43.5 78.5q47 78 107.5 152t136.5 145q76 72 155 130.5t161 103.5q35 18 68.5 33.5t66.5 29.5q35 12 67.5 21.5t65.5 15.5q14 4 29.5 5t31.5 3t32.5 3t33.5 1h82h8h8h9h12q51 -2 97 -13t89 -28q43 -16 64.5 -40.5t21.5 -59.5 q0 -18 -2 -31.5t-6 -21.5q-2 -8 -7.5 -11.5t-9.5 -3.5h-82q-6 0 -12 2.5t-14 8.5q-8 4 -15.5 10t-15.5 14q-6 4 -12 9.5t-12 9.5t-12.5 8t-10.5 6q-31 10 -61.5 17.5t-59.5 11.5q-20 4 -39.5 6t-38.5 2q-129 -6 -239.5 -54.5t-206.5 -138.5q-104 -98 -174 -205.5 t-107 -224.5q-4 -12 -7 -23.5t-7 -21.5q-2 -12 -5 -23.5t-5 -21.5t-4 -20.5t-2 -20.5q-2 -10 -2 -19v-20q0 -82 32.5 -138t98.5 -89q61 -31 133.5 -46t154.5 -20h16.5t16.5 2q8 0 16.5 1.5t16.5 1.5q16 2 30.5 3t30.5 3q14 2 29.5 5t30.5 5q84 12 166 31.5t159 46.5 q78 27 141.5 54.5t110.5 57.5l6 4l7 5l12 4l12 2h82q8 0 14.5 -3t12.5 -8q4 -4 7 -10t3 -12v-6l-2 -6q-2 -6 -6 -11.5t-8 -9.5t-10.5 -7t-14.5 -7q-61 -31 -125.5 -59.5t-136.5 -53.5q-70 -27 -142.5 -47t-144.5 -37q-57 -10 -112.5 -19t-110.5 -18q-55 -8 -108.5 -12 t-102.5 -4l-82 -2q-111 2 -204 21.5t-167 54.5q-74 39 -110.5 103.5t-36.5 156.5v8v6v2v0z" />
<glyph unicode="D" horiz-adv-x="1679" d="M322 1139q-45 -12 -77 -24.5t-50 -22.5q-27 -14 -43.5 -21.5t-20.5 -7.5h-82q-8 4 -17 8t-16 10q-8 6 -12 13.5t-8 15.5q-4 4 -5 9t-3 9t-3 9.5t-1 7.5v8l2 6q8 4 16 7t23 10q14 4 30.5 10t36.5 12q10 2 19.5 5t19.5 5q4 2 9 3t12 3q4 0 9 1.5t11 3.5q10 2 18.5 4t18.5 4 q8 0 17.5 2t17.5 4q18 4 33.5 5t29.5 1q4 4 7 9t5 7l3 11v2v2q0 4 1 8t3 10q0 6 3 14.5t9 18.5h4t4 2h2h4h4t4 2h4.5h4.5h82q18 0 33.5 -4t29.5 -12t27.5 -15.5t25.5 -17.5l11 -6l10 -6l4 -4l2 -3h2v0h9t9 3h9.5h9.5h82h20h21q133 0 256 -15.5t233 -46.5q111 -31 195 -92.5 t141 -155.5q10 -16 17.5 -33.5t11.5 -35.5t7 -37t3 -39q0 -14 -1 -27.5t-3 -27.5q-2 -8 -3 -15.5t-1 -13.5q-2 -8 -3 -15.5t-3 -13.5q-8 -33 -19.5 -66.5t-27.5 -66.5q-8 -16 -16.5 -31.5t-14.5 -29.5q-8 -14 -16.5 -28.5t-16.5 -27.5q-8 -14 -15 -26.5t-16 -22.5 q-8 -12 -15 -21.5t-13 -19.5q-39 -49 -101.5 -95t-150.5 -89t-181.5 -78t-189.5 -59q-49 -12 -98 -21.5t-97 -13.5q-47 -6 -92 -10t-86 -4l-82 -2q-61 2 -112 10t-92 22q-41 16 -63.5 46t-27.5 69l5 6h2t2 2h4h4h82q10 0 22.5 -3t30.5 -7t36.5 -9t39.5 -12q2 0 4 -1t4 -1 q2 -2 4 -3t4 -1l15 1041v0zM582 1178l-97 -1098l7 -2q193 4 342 48t256 126q115 88 181 184t87 203q2 10 3 21.5t3 21.5v11t2 12v9v11q0 94 -38 177t-114 157q-70 68 -172 104.5t-237 40.5q-6 0 -13.5 -1t-15.5 -1q-14 -2 -27.5 -2t-29.5 -2q-33 -2 -68 -8t-69 -14h-82v2h82 v0z" />
<glyph unicode="E" horiz-adv-x="1679" d="M1679 242q10 -4 17.5 -9.5t11.5 -9.5q4 -6 5 -11t-1 -9t-5 -9.5t-9 -9.5q-4 -6 -11.5 -11t-15.5 -9q-14 -8 -31.5 -16.5t-40.5 -16.5q-20 -8 -41.5 -16.5t-44.5 -14.5q-31 -10 -59.5 -19t-56.5 -15q-27 -8 -45.5 -12.5t-28.5 -6.5q-39 -14 -80 -24.5t-84 -20.5 q-43 -6 -85 -12t-83 -13q-14 -2 -27.5 -3t-27.5 -3q-14 0 -27.5 -1t-25.5 -3q-27 -2 -53.5 -3t-53.5 -1l-82 -2q-123 2 -229.5 19.5t-196.5 50.5q-90 35 -137 87t-51 122v5v5q-2 4 -2 7v5v12.5v12.5v7v5q-2 4 -2 7v5v12.5v14.5q0 41 12 91t37 114q25 63 86 149t160 193 q121 115 232.5 192.5t211.5 116.5q102 41 188.5 60.5t159.5 19.5h82q31 0 59.5 -3t55.5 -7t49.5 -10.5t42.5 -14.5l8 -4l13 -6q10 -6 19 -13.5t17 -17.5q4 -4 9.5 -9t9.5 -9q4 -6 8 -11.5t8 -9.5q8 -10 14.5 -20.5t12.5 -20.5q4 -8 7 -16t3 -15l-4 -10l-8 -2h-82h-8l-11 4 q-49 20 -97 35.5t-95 24.5q-37 8 -74 12t-74 6q-84 -2 -161.5 -22.5t-149.5 -57.5q-80 -43 -147.5 -98t-120.5 -127q-2 -2 -4 -5t-4 -5q-4 -4 -6.5 -6t-4.5 -7l-8 -12t-8 -10q-27 -39 -54.5 -79t-51.5 -81q-25 -41 -43.5 -82t-28.5 -82q-2 -12 -5 -23t-5 -22 q-2 -12 -2 -23.5v-21.5q0 -25 3 -48t11 -46q8 -25 20.5 -47.5t30.5 -44.5q33 -45 80 -75t109 -46q55 -14 111 -22.5t114 -10.5q43 2 85 5t83 8q49 6 93 13t81 15q18 2 40.5 6t49.5 13q27 8 53.5 17t52.5 17q4 2 7.5 3.5t7.5 3.5q2 0 6 1t6 3q4 0 7 1t7 3q2 0 6.5 1t6.5 3 q35 12 65.5 23.5t57.5 21.5q29 10 48 18.5t31 10.5v2h82v0zM387 565v47q66 2 125 5.5t115 7.5q55 4 107 9t102 11q84 8 155.5 15.5t128.5 15.5q59 6 102.5 10t69.5 4h82q10 0 19.5 -1t15.5 -3l12 -10l4 -10l2 -9q0 -4 -1 -9t-3 -9q-2 -6 -3 -11t-3 -10q-4 -8 -9 -15t-11 -13 t-11.5 -12.5t-9.5 -10.5q-6 -6 -11 -9t-9 -7q-4 -2 -8.5 -3t-8.5 -1q-8 -2 -21 -3t-30 -1h-82h-32.5h-38.5h-69t-77 2q-39 0 -81 1t-83 3h-15t-13 2h-15.5h-15.5h-15.5t-13.5 2h-15h-13q-55 2 -105.5 3t-93.5 3q-45 2 -76 3t-47 1v2v0z" />
<glyph unicode="F" horiz-adv-x="1452" d="M307 1112h-4h-4t-4 1t-4 1h-6h-6q-4 -2 -7.5 -2h-7.5h-8h-6q-4 -2 -7 -2h-7q-8 -2 -15.5 -2h-13.5h-82q-16 0 -30.5 2t-26.5 8t-17.5 17.5t-5.5 27.5v13q0 4 1 8t3 8q0 4 5 5t18 3q12 2 27.5 3t33.5 1h82h12h13q6 -2 13 -2h13h11.5h9.5q4 -2 9 -2h11v74h82l6 -2h-82l6 2 h7l6 2h82q20 0 38.5 -7t36.5 -24q16 -14 26.5 -29.5t14.5 -31.5q20 0 45 1t54 3q35 2 70.5 4t72.5 4q37 0 76 2l78 4q31 2 59.5 3t58.5 3q29 0 57.5 1t55.5 3q29 2 53.5 3.5t46.5 3.5q25 0 44.5 1t37.5 3h82v0h4h2h3q6 0 12 -2t8 -7q4 -2 5 -8t1 -12t-1 -12t-3 -13 q-2 -8 -5 -14t-7 -12q-8 -14 -20.5 -28.5t-28.5 -27.5q-16 -12 -37 -18t-43 -6h-82h-10h-9q-29 4 -56.5 7t-55.5 5q-27 4 -54.5 7t-56.5 5q-63 6 -128.5 11.5t-133.5 9.5q-25 2 -52.5 4t-54.5 4q-29 0 -57.5 2t-58.5 4q0 -18 -1 -35.5t-1 -35.5q-2 -18 -2 -36v-36 q-2 -37 -2 -74v-71q-2 -70 -1 -140.5t3 -140.5t5 -138.5t7 -135.5q0 -25 1 -47.5t3 -45.5q0 -23 1 -46t3 -46q2 -10 3 -19t3 -18q2 -8 3 -16t1 -16q0 -18 -4 -31.5t-12 -22.5q-8 -8 -18.5 -12t-22.5 -4l-82 -2q-2 2 -5 2t-5 2q-4 0 -6 1t-6 1q-6 2 -12.5 3t-12.5 3 q-10 4 -19.5 9.5t-19.5 11.5q-4 2 -9 5t-9 5q-4 4 -7.5 6t-7.5 4q-6 4 -11 9t-9 12q-4 6 -6 11t-2 9q4 66 7 132.5t5 133.5q4 66 7 132.5t7 132.5q6 133 16.5 266t22.5 266v2v0zM483 580v32l9 1q10 1 28 3t43 3.5t55 3.5q31 2 68 3t78 3t83 4t87 4q39 2 77 4l76 4q37 4 72 7 t66 7h82l12 -8q2 -4 3 -9t1 -11v-4v-2q-2 -2 -2 -4.5v-4.5v-4v-2q-2 -2 -2 -4v-4q-2 -10 -8 -19.5t-13 -19.5q-8 -8 -17 -12t-21 -4q-8 -2 -18.5 -3t-20.5 -1h-82h-21.5h-23.5h-56.5t-62.5 2t-64.5 4t-66.5 4q-10 0 -21.5 1t-21.5 3q-10 0 -20.5 1t-20.5 3q-20 2 -42 3 t-42 3q-20 0 -40 1t-38 3q-37 4 -65.5 5.5t-49.5 1.5v2v0z" />
<glyph unicode="G" horiz-adv-x="1792" d="M1581 1016q-8 -2 -20.5 3t-28.5 13q-14 10 -35.5 19.5t-46.5 21.5q-12 4 -25.5 9t-29.5 12q-14 4 -30.5 9t-33.5 9q-27 6 -55.5 10t-61.5 6q-41 -2 -86 -9t-94 -17q-61 -14 -129.5 -41t-144.5 -64q-18 -8 -40 -23.5t-48 -35.5q-14 -10 -27.5 -20.5t-26.5 -22.5 q-14 -12 -27 -24.5t-28 -24.5q-43 -39 -82 -86t-73 -101q-35 -51 -56.5 -108t-27.5 -117q-2 -8 -3.5 -16t-1.5 -17q-2 -8 -2 -15v-13q0 -76 30 -133.5t87 -94.5q53 -33 114.5 -53t133.5 -24q23 2 45.5 4t44.5 6q35 6 71 14t72 21q66 20 128.5 48.5t123.5 67.5 q61 37 115.5 84t103.5 105l3 10v12q0 10 -1.5 19.5t-3.5 17.5q-2 4 -3 9.5t-1 11.5q-2 4 -3 9t-3 11l-2 8l-2 11q-2 10 -5 21t-7 24q-2 12 -4 23t-2 20v8l2 10q6 4 12 7t12 5t13.5 3t15.5 4h82h8h10q12 0 23.5 -1.5t21.5 -5.5q10 -2 17.5 -5t11.5 -7q4 -18 7 -36.5t7 -39.5 q4 -20 8.5 -40.5t8.5 -43.5q2 -10 4 -21l4 -22q0 -10 2 -21l4 -22q2 -10 4 -21l4 -22q0 -10 2 -21l4 -22q8 -51 14.5 -102t12.5 -98q4 -49 7 -88t3 -72q0 -16 -1 -31.5t-3 -28.5q-2 -12 -4 -20t-6 -14l-82 -2q-29 2 -50.5 25.5t-37.5 70.5q-14 45 -26.5 97t-22.5 110 q-2 4 -3 9t-1 11q-2 4 -3 9.5t-1 9.5q-4 23 -8.5 42t-8.5 40q0 2 -1 5t-1 5t-1 5t-1 5l-1 -1l-1 -1l-1 -1l-1 -1q-18 -14 -35.5 -28.5t-34.5 -26.5q-14 -10 -27.5 -20.5t-25.5 -20.5q-14 -10 -27.5 -19.5t-27.5 -19.5q-27 -18 -56.5 -34.5t-62.5 -31.5q-27 -14 -60.5 -29.5 t-70.5 -27.5q-39 -12 -78 -22.5t-80 -16.5q-33 -6 -65.5 -12t-63.5 -11q-31 -4 -59.5 -6t-52.5 -2l-82 -2q-8 2 -15.5 2h-13.5h-5h-7q-2 2 -5 2h-5q-14 0 -34 2t-46 6q-27 4 -55.5 10.5t-57.5 14.5q-39 12 -75 31.5t-68 46.5q-33 27 -49.5 62.5t-16.5 80.5q0 41 2 78t8 74 q4 18 7.5 36.5t9.5 37.5q4 16 10 34.5t14 36.5q18 43 45 89t64 91q37 47 85 96.5t109 104.5q47 47 113 93t148 91t174 79t194 59q33 8 63.5 14t57.5 8q29 4 55.5 6t51.5 2h81q63 0 114.5 -9t90.5 -27q41 -20 68.5 -42t46.5 -45q4 -4 6 -9t6 -9q2 -6 5 -11t5 -9 q4 -8 6.5 -17.5t2.5 -17.5t-2 -14.5t-7 -12.5q-2 -6 -8 -10t-12 -6h-82v2v0z" />
<glyph unicode="H" horiz-adv-x="1679" d="M274 612q2 8 3.5 20.5t1.5 29.5v16t2 18v18.5v20.5v21.5v23.5q-2 12 -2 25.5v25.5q0 27 -1.5 54.5t-3.5 54.5q-2 43 -5 85t-7 83t-9 73.5t-11 57.5q4 6 8 11t10 7q6 4 13.5 5.5t15.5 1.5h82h7h5q4 -2 7 -2h5q6 -2 12.5 -3.5t14.5 -3.5q10 -4 21.5 -10t21.5 -12 q6 -2 11 -6t9 -6q4 -4 8.5 -7.5t8.5 -7.5t7 -8t5 -8l4 -14l-49 -564q18 -2 40.5 -3t47.5 -1h51.5h55.5h20h21q12 -2 22 -2h23h3h3h1h3h129t123 2q59 2 105 6t77 13h82v0h2q4 0 9 -3t9 -8q4 -6 6.5 -11t2.5 -9q0 -6 -4.5 -12t-14.5 -11q-8 -6 -22.5 -8t-36.5 -2 q-96 -12 -190.5 -22.5t-186.5 -16.5q-92 -8 -183.5 -14t-181.5 -12q-2 -25 -5 -56.5t-5 -72.5t-3 -84t-1 -88q-2 -47 -2 -92.5v-88.5v-73.5v-53.5q-2 0 -4 -1l-2 -1q-2 -2 -4 -2h-4h-4t-2 -2h-4.5h-4.5l-82 -2q-2 2 -4 2h-2q-2 2 -4 2h-4l-12 -2q-12 4 -23.5 10.5 t-21.5 14.5t-17.5 19.5t-11.5 25.5q2 10 3 21.5t3 25.5q0 10 1 25.5t3 33.5q2 16 3 34t3 36q0 18 1 37.5t4 38.5q4 43 5 85t3 81t3 66.5t1 43.5h-4t-4 2h-4.5h-4.5h-5h-5h-6h-6h-12h-13h-9h-9h-11h-10q-10 0 -20 1t-21 3q-29 2 -55 9.5t-49 19.5q-25 12 -35 37t-10 59v4v7 q2 2 2 5v5v7v5v7v7h82q4 -2 7 -3t7 -1q4 -2 8.5 -3t8.5 -3t9 -4t9 -2q6 -2 11 -4t12 -4q12 -4 25.5 -8t27.5 -9q14 -2 29.5 -5t29.5 -3h1h1h1h1h1h3v2v0zM1274 0q4 51 8 109.5t6 126.5t3 137t1 139v19.5v17.5v19.5v17.5q0 115 -1 220t-5 200q-2 96 -5 154.5t-7 78.5l8 8 q4 2 9 3t12 1h81h5.5h5.5q4 -2 7 -2h5q6 0 13 -1t16 -3q16 -2 29.5 -8t25.5 -12q12 -8 19.5 -15.5t7.5 -17.5v-102.5v-143.5v-83v-85q-2 -43 -2 -86v-88q-2 -55 -3.5 -107.5t-1.5 -103.5q-2 -49 -3 -98t-3 -96q-2 -94 -8 -150.5t-12 -79.5l-4 -14l-13 -4h-82q-6 2 -12 3 t-12 5q-4 2 -8 3t-6 1q-4 2 -7.5 3t-7.5 3l-10 4l-8 4q-6 4 -12.5 7.5t-10.5 7.5q-6 2 -10 5t-8 3v0v0z" />
<glyph unicode="I" horiz-adv-x="561" d="M145 1243v0v8l-2 4v7l7 30q4 8 7 10.5t9 2.5h82q6 0 14 -2.5t17 -10.5q10 -4 19 -13l17 -17q2 -4 4.5 -5.5t4.5 -1.5q0 -4 2 -6t4 -2q2 -4 4 -6t4 -2q2 -4 4 -6t4 -6q4 -2 6 -6t6 -4q2 -4 5.5 -8.5t5.5 -8.5q6 -4 11 -9t9 -13q4 -4 5 -19.5t3 -38.5v-23.5t2 -25.5v-27.5 v-31.5v-40v-44q-2 -23 -2 -46.5v-45.5q-2 -49 -3 -97.5t-1 -103.5l-2 -19v-18q-2 -47 -3 -93t-1 -91q-2 -47 -2 -89v-81v-44.5v-39.5q0 -20 1 -38t3 -32v-12l2 -15v-16l2 -14v-4v-13l-6 -22q-2 -4 -6 -9l-8 -10l-6 -8l-5 -4h-81h-7h-4h-8l-8 4q-8 8 -16.5 10.5t-14.5 8.5 q-4 4 -7 8t-7 4l-4 8t-4 6l-6 8l-2 13q-2 10 -3.5 33.5t-1.5 58.5v68.5v85.5v17v21v18.5v22.5v64v67v70v70q-2 111 -4 211t-6 192t-12 143.5t-21 63.5v4v0z" />
<glyph unicode="J" horiz-adv-x="1452" d="M98 113q4 -12 7.5 -23.5t9.5 -21.5q2 -6 5 -12.5t5 -10.5q4 -6 7 -12t5 -13q16 -25 32.5 -50t37.5 -52q20 -25 41.5 -44t42.5 -34q33 -16 70.5 -31.5t82.5 -29.5q39 -12 79 -20.5t79 -10.5q55 4 107.5 22.5t101.5 47.5q59 37 102 101.5t70 158.5q14 47 26.5 99t20.5 110 q10 57 16.5 115.5t12.5 119.5q8 94 12 184.5t6 176.5q2 84 3 147.5t1 108.5q-2 0 -4 -1l-2 -1h-4h-4q-14 -2 -30.5 -4.5t-32.5 -2.5q-16 -2 -34 -4l-36 -4q-14 -2 -27.5 -3t-27.5 -1q-14 -2 -27.5 -3t-28.5 -3q-29 -2 -58.5 -4t-57.5 -2h-9.5h-9.5q-6 -2 -11 -2h-9h-82 h-17.5h-19.5q-47 0 -92 2t-88 8t-79 17.5t-65 27.5l-2 8v9l-4 10l-4 12q-2 4 -4 9t-4 12q-2 6 -2 12v12v6v8v7l4 8h82q33 -8 76 -15.5t96 -13.5t108.5 -12t112.5 -10q80 -8 155.5 -13.5t145.5 -9.5q12 0 22.5 -1t20.5 -1t19.5 -1t17.5 -1q4 29 5 42l1 13h82v-6l-2 -6v-4h-82 l-4 4v12v23q4 2 8 3t10 1h4.5t6.5 2h5h5h82h4h4q2 -2 4 -2h4h4h4q2 -2 4.5 -2h4.5q16 -2 30.5 -9.5t28.5 -17.5q12 -8 19.5 -20.5t9.5 -28.5h3h3h1h3h6t6 2h5h5h82q14 0 24.5 -2t18.5 -6t9.5 -12.5t-5.5 -20.5l-8 -4t-8 -2q-4 -2 -9 -2h-9h-82h-9.5h-11.5t-12 1t-12 3v-23.5 t2 -21.5v-23.5v-23.5v-48.5v-45.5v-15.5v-13.5v-15v-16v-28.5v-28.5q-4 -205 -39 -395.5t-101 -366.5q-63 -174 -202.5 -285.5t-352.5 -156.5h-5t-5 -2h-6h-6l-82 -2q-6 2 -11 2h-10q-20 0 -42.5 1t-45.5 5q-23 2 -46 7t-46 9q-51 12 -98 30.5t-92 43.5t-75 52.5t-44 62.5 q0 6 -1 10t-3 8l-4 8l-4 8q0 2 -1 4.5t-3 2.5q0 2 -1 4t-3 4l-11 12q0 6 -1 10t-3 6q0 4 -1 7.5t-3 7.5q-2 6 -3 13t-1 15q0 12 4 25.5t10 28.5q6 16 17.5 35.5t27.5 44.5v2h82v0z" />
<glyph unicode="K" horiz-adv-x="1564" d="M307 1257q16 -2 33.5 -6t32.5 -10q8 -2 15 -6t13 -6q8 -4 14.5 -7t12.5 -8q10 -6 17.5 -12t15.5 -10q6 -6 12 -9t12 -7l-47 -717q23 14 48.5 30.5t54.5 36.5q59 43 122.5 94.5t127.5 110.5q33 31 65.5 63.5l65.5 65.5q35 35 65.5 69t59.5 66q35 41 66.5 81t57.5 79 q29 41 50.5 78t35.5 72h82q16 -2 28.5 -13.5t21.5 -27.5q8 -18 14 -37t8 -37v-12.5v-12.5v-5t2 -7v-5v-5v-11.5v-11.5q-2 -4 -2 -8v-8q-2 -8 -3 -14.5t-3 -10.5q-18 -20 -45 -46.5t-62 -59.5t-73.5 -68t-79.5 -69q-4 -4 -8 -8.5t-9 -6.5q-6 -4 -10 -7t-8 -7l-8 -8t-8 -6 q-6 -4 -10.5 -7.5t-8.5 -7.5q-37 -33 -73.5 -61.5t-71.5 -54.5q-37 -27 -68 -47.5t-55 -36.5q23 -27 52.5 -55.5t64.5 -59.5q35 -33 71.5 -64.5t75.5 -66.5q4 -4 9 -8.5t12 -8.5q4 -4 9 -8t9 -8q10 -8 20.5 -16.5t20.5 -16.5q72 -59 139.5 -111.5t128.5 -97.5t98 -66.5 t48 -21.5l4 -6l2 -6l2 -4v-6q0 -10 -6 -21.5t-23 -19.5q-14 -10 -30.5 -17.5t-34.5 -13.5q-8 -4 -15.5 -5t-15.5 -3h-7t-7 -2h-5.5h-7.5l-82 -2q-2 2 -5 2h-5q-4 2 -6 2h-4l-12 4q-20 16 -39 30.5t-37 28.5q-8 8 -17.5 15.5t-19.5 13.5q-8 8 -16.5 15.5t-16.5 15.5 q-55 43 -105 89t-98 91q-45 47 -90 90t-88 84q-23 23 -46 42.5t-46 37.5q-14 10 -27.5 21.5t-27.5 21.5q-20 -14 -40 -29.5t-38 -29.5q-25 -18 -46.5 -32t-43.5 -20l-8 -4h-4v-37.5v-42.5v-21v-24q-2 -10 -2 -21v-24q0 -33 -1 -63.5t-4 -59.5q-2 -14 -3 -27.5t-1 -25.5 q-2 -8 -3 -18.5t-3 -18.5q-2 -4 -5 -5t-7 -3t-9 -3t-9 -1l-82 -2q-2 2 -4.5 2h-4.5q-2 2 -4 2h-4h-4h-4q-2 2 -4 2h-4q-12 4 -23.5 10t-21.5 15q-4 2 -7 5t-6 5q-4 4 -6 8t-2 10q4 27 7.5 76t5.5 119q4 72 5 157t1 185q0 78 -1 162t-3 172q-2 90 -6.5 183t-8.5 187v2h82v0z " />
<glyph unicode="L" horiz-adv-x="1452" d="M322 104q4 82 8 156t6 139q2 68 3 128.5t1 113.5q0 90 -2 160.5t-6 124.5q-4 53 -9.5 95t-9.5 73q-6 29 -11 50t-9 34q-4 12 -6 22t-2 19l2 8l4 12h8l8 2h82h6h8q59 0 96.5 -18.5t51.5 -53.5t21.5 -73.5t9.5 -79.5v-9.5v-9.5v-8v-8q-2 -12 -4.5 -28.5t-2.5 -34.5 q-2 -18 -4 -39t-4 -43q-4 -47 -8 -99.5t-8 -109.5q-2 -27 -4 -55.5t-4 -57.5t-4 -57.5t-4 -57.5q-2 -39 -4.5 -78.5t-4.5 -78.5t-4 -76t-4 -72q33 -2 63.5 -3t61.5 -1h19.5h17.5h112.5t102.5 2q47 2 90 3t82 3q37 2 70.5 3t60.5 3h26.5t24.5 2h23.5h19.5h82q16 0 30.5 -1 t22.5 -3q10 -2 16.5 -3t8.5 -5q6 -10 3 -17t-15 -11q-14 -2 -34 -5.5t-44 -7.5q-18 -2 -40 -4t-46 -4q-25 -2 -49.5 -6t-48.5 -8q-133 -16 -243 -26.5t-196 -16.5t-155.5 -10.5t-122.5 -4.5l-82 -2q-80 2 -131 7.5t-74 17.5q-23 10 -40 25.5t-28 33.5q-2 4 -5 9.5t-7 9.5 l-4 4t-2 6q-2 2 -4 5t-4 5q0 2 -1 4t-1 4q-2 0 -2 2v5v12l6 16q4 4 7 5t7 1h82q6 0 16.5 -2t22.5 -6q12 -2 26.5 -7t28.5 -9q6 -2 11.5 -4t11.5 -2q6 -2 13 -4.5t14 -4.5v0z" />
<glyph unicode="M" horiz-adv-x="2017" d="M451 1032q-6 8 -10.5 14.5t-8.5 12.5q-2 4 -5 9t-7 9v2v0l-4 4t-2 7q-2 2 -4 5t-4 5q-2 4 -7.5 11t-11.5 15q-2 4 -5 6.5t-5 6.5q-4 2 -7 5t-8 5q-8 6 -15 11t-15 9l-6 5l-7 4q-10 6 -19 12t-17 12t-11.5 14.5t-3.5 16.5v6l2 6v4l4 6q4 4 7.5 5.5t9.5 3.5h7t5 2h7h7h82 q10 0 21.5 -1t23.5 -3q6 -2 12.5 -3.5t14.5 -1.5q6 -2 13.5 -3t15.5 -3q10 -2 19 -6t20 -8q8 -2 18 -6t18 -8q18 -8 33 -15.5t23 -15.5l401 -946q6 8 11.5 15t9.5 15t9 17.5t11 19.5q4 6 7 13.5t5 15.5q4 8 8.5 16.5t8.5 16.5q10 23 21.5 46t19.5 44q10 23 18 38t17 27 l370 711h82q41 -2 67.5 -5t39.5 -9q10 -6 16 -15.5t6 -19.5q0 -18 2 -70.5t8 -136.5q4 -86 13.5 -177t21.5 -190q12 -98 27.5 -188t36.5 -174q20 -84 44.5 -136t55.5 -73q4 -4 6 -9t-2 -9q-2 -4 -8 -9.5t-16 -11.5q-6 -2 -13.5 -5t-17.5 -5l-8 -4l-8 -4q-6 0 -10.5 -2 t-8.5 -4q-12 -4 -23.5 -8.5t-21.5 -6.5q-12 -4 -20.5 -5t-14.5 -1l-82 -2l-10 2v4h82h-2v-2h-82h-2v0q-14 2 -28.5 46t-28.5 136t-28.5 193.5t-27.5 212.5q-8 72 -16 140.5t-16 135.5q-2 29 -5.5 54.5t-7.5 50.5q-6 -10 -12 -20.5t-10 -20.5q-6 -10 -12.5 -21.5t-12.5 -23.5 q-31 -57 -62.5 -118.5t-64.5 -123.5l-8 -12l-4 -12q-55 -106 -106.5 -203.5t-98.5 -188.5q-47 -88 -77.5 -136t-45.5 -54h-82q-16 -6 -45.5 34t-70.5 128q-41 90 -85 188.5t-92 208.5l-4 10l-4 11q-23 51 -44 100t-44 98q-2 8 -6 15.5t-6 15.5q-4 6 -7 13t-7 16 q-2 -12 -5.5 -24.5t-5.5 -22.5q-4 -12 -6 -24.5t-6 -25.5q-8 -39 -17.5 -78.5t-19.5 -78.5q-8 -39 -17 -78t-20 -76q-14 -63 -30.5 -121.5t-30.5 -113.5q-16 -55 -31.5 -105.5t-32.5 -95.5q-33 -92 -66.5 -147.5t-70.5 -69.5l-8 -6l-10 -2h-82q-6 2 -12.5 3t-12.5 5 q-6 2 -12 6l-12 8q-8 6 -17.5 13.5t-15.5 17.5l-8 8t-6 8q-4 6 -8.5 10.5t-6.5 8.5q-4 6 -7 12t-5 12t-3 12.5t-1 10.5l-2 8l4 8h82l6 -2l6 -2l8 -2h-82h7q10 2 16 3t10 5q6 2 13.5 7t15.5 12q35 27 68.5 79t66.5 127q35 78 65.5 161t57.5 171q29 90 54.5 176t45.5 166 t34.5 132.5t23.5 76.5v2v0z" />
<glyph unicode="N" horiz-adv-x="1904" d="M66 -102q10 10 20 21t23 28q29 41 59.5 95t62.5 124q18 39 36 80t34 86t33.5 90t32.5 90q23 72 43 140.5t36 135.5q16 68 25.5 124.5t11.5 101.5q0 29 -9 54.5t-25 45.5t-35 36.5t-37 31.5q-16 10 -31.5 20t-32.5 19q-8 4 -14 8t-10 10q-4 4 -8.5 8t-6.5 8q-4 6 -3 11.5 t10 7.5q6 4 16 5t25 1h81q10 0 24.5 -1t29.5 -3q8 -2 15 -3t15 -1q8 -2 16.5 -3t16.5 -3q20 -6 40 -12.5t40 -12.5q18 -8 33.5 -15t28.5 -18q23 -20 61.5 -71.5t95.5 -130.5q57 -82 118.5 -169t127.5 -180q4 -4 6 -8t6 -8q2 -4 5 -8t5 -8q4 -8 10.5 -15.5t12.5 -15.5 q68 -98 133.5 -184t128.5 -164q39 -47 71 -80t56 -51q4 10 9 20t8 23q6 29 10 60.5t6 64.5v7t2 7v6v8v15.5v15.5v15.5v15.5v15v13q0 4 -1 7.5t-1 7.5v6v6v11v10q0 94 -4 173.5t-15 147.5q-8 66 -17 122t-19 101q-12 47 -21.5 83t-19.5 63q-8 27 -12.5 48t-4.5 36l6 10 q4 2 8.5 3t10.5 3h82q6 0 15 -1t18 -5q10 -2 19 -5t19 -7q6 -2 11.5 -5.5t11.5 -5.5q4 -4 9 -6t11 -6q10 -6 18.5 -12t16.5 -12q4 -4 7.5 -8.5t5.5 -8.5l6 -14v-21.5v-21.5v-24.5v-24.5v-97.5v-111.5q0 -57 -1 -117.5t-3 -122.5q-4 -111 -13.5 -213t-21.5 -199 q-14 -94 -37 -148t-53 -73l-9 -6l-8 -4h-10l-8 -2h-82q-12 2 -25.5 6t-27.5 12t-27.5 16.5t-26.5 18.5q-12 10 -24 22.5t-25 26.5q-12 14 -24.5 28.5t-24.5 29.5q-16 20 -31.5 39.5t-31.5 38.5q-14 18 -27.5 33.5t-24.5 27.5q-168 207 -280.5 344t-165.5 207 q-25 33 -47.5 59.5t-42.5 46.5q-2 -37 -10.5 -79.5t-20.5 -94.5q-18 -80 -39.5 -161.5t-46.5 -167.5q-4 -14 -8 -28.5t-8 -29.5q-6 -14 -10.5 -27.5t-8.5 -27.5q-8 -27 -16 -54.5t-16 -54.5q-29 -86 -56.5 -157.5t-52.5 -132.5q-27 -59 -44 -90t-28 -31h-4h-2h-4h-4h-4 t-4 -2h-4h-4h-11.5h-9.5h-4t-4 -2h-6h-4l-82 -2q-4 2 -8.5 2h-6.5q-4 2 -7 2h-7q-8 2 -15 3t-14 3q-8 4 -17 10t-19 16q-10 8 -21.5 20.5t-19.5 29.5v4q2 4 2 6v2q2 2 2 4v4l10 12q6 4 12 6.5t15 2.5l79 -2q0 2 1 2h1l1 1l2 1v-2z" />
<glyph unicode="O" horiz-adv-x="1904" d="M129 662q29 68 76 133t110 129q66 61 133.5 114.5t139.5 98.5q57 35 112.5 64.5t110.5 49.5q55 23 100 33t80 10h82q12 0 23.5 -1t19.5 -5q10 -2 17.5 -7l13.5 -9l2 -17q-2 -2 -4 -3t-4 -1q-4 -2 -8.5 -3t-8.5 -3q-27 -8 -72.5 -18t-111.5 -27q-63 -14 -133 -47t-143 -82 q-4 -2 -8.5 -5t-8.5 -7q-4 -2 -8 -5t-8 -7q-45 -37 -85 -82t-73 -99q-33 -53 -58.5 -108.5t-41.5 -112.5q-8 -27 -14.5 -54.5t-10.5 -55.5q-4 -27 -6 -52.5t-2 -50.5q0 -39 5 -76t17 -67q12 -33 31 -57.5t43 -41.5q23 -29 64 -50t98 -34q53 -12 108.5 -18t112.5 -8 q66 2 128.5 9t121.5 20q61 12 108.5 29.5t79.5 37.5q55 37 108.5 86t102.5 107q49 59 83 118.5t53 122.5q2 6 3 12.5t1 12.5q2 4 3 10t1 12q2 12 3 24.5t1 25.5v7v5q-2 4 -2 7v5v7v5q-2 4 -2 7.5v5.5q-16 113 -54 190.5t-98 120.5q-51 37 -105.5 58.5t-113.5 25.5 q-57 -4 -111.5 -19.5t-107.5 -39.5q-57 -27 -99 -56.5t-71 -60.5q-4 -6 -8 -11.5t-8 -9.5q-2 -6 -5.5 -11t-7.5 -9q-4 -10 -9 -18.5t-11 -14.5t-12.5 -9t-12.5 -5l-10 -2h-82h-8q-8 0 -17.5 2t-15.5 8q-6 4 -9 10t-3 15v7t2 7t5 8t5 8q41 55 95.5 99.5t121.5 74.5 q68 31 137.5 50.5t141.5 27.5h9t11 2h9.5h9.5h9t11 2h9h12h82q104 0 197 -25.5t175 -78.5q82 -51 123 -130t41 -184q-6 -158 -82 -295t-221 -251q-145 -115 -305 -182.5t-334 -88.5q-18 -4 -36.5 -5t-37.5 -3h-17t-18 -2h-18h-18l-82 -2q-29 2 -56.5 3t-56.5 5 q-27 2 -53.5 7.5t-52.5 11.5q-78 14 -144.5 51t-122.5 92q-55 55 -83.5 126t-28.5 159q0 29 3 57.5t11 58.5q6 31 17.5 64t25.5 65v3v0z" />
<glyph unicode="P" horiz-adv-x="1564" d="M340 1087q-8 -2 -15.5 -5t-15.5 -7q-14 -6 -29.5 -12t-31.5 -12q-14 -6 -26.5 -8.5t-22.5 -2.5h-82l-13 2l-8 5l-12 8t-12 12q-6 6 -10.5 13t-8.5 16q-2 4 -4 9t-2 9q0 2 -1 4t-1 4v2v4v9l4 6q4 4 10.5 6t14.5 6q8 2 17 5t22 5q23 4 46 9.5t48 7.5q10 0 20.5 1t22.5 3 q10 0 20.5 1t20.5 1q20 2 35.5 3t27.5 1v8v23v36.5v45.5h82q35 0 56.5 -4.5t29.5 -12.5q10 -8 16.5 -18t8.5 -21q2 -4 3 -9t3 -9t3 -7t3 -7q18 2 37.5 4t40.5 4q18 2 37.5 4t40.5 4q59 6 118.5 9t118.5 3h82q45 0 89 -2t89 -6q43 -4 87 -11t90 -18q59 -18 107 -41.5 t81 -52.5q35 -31 51.5 -67.5t16.5 -79.5q0 -18 -3.5 -37t-9.5 -39t-14 -42t-21 -44q-33 -59 -81 -113.5t-107 -101.5t-121.5 -86t-128.5 -68q-29 -12 -57.5 -22.5t-57.5 -20.5q-27 -8 -54 -14t-54 -10q-4 -2 -9 -2h-9h-82h-9.5h-9.5h-24.5t-24.5 2q-14 2 -27.5 4t-27.5 4 q-37 8 -71 20.5t-64 28.5q-31 16 -46.5 36.5t-15.5 41.5v2v4v0v4l8 8q4 2 7.5 3t9.5 1h82q10 0 23 -2t32 -6q16 -2 36.5 -7t45.5 -9l42.5 -8.5t49.5 -8.5q16 -2 31.5 -4t29.5 -2q12 0 23.5 1t24.5 1q12 2 23 4t24 4q35 6 69.5 18.5t69.5 31.5q4 0 6 1l6 3q2 2 5 3t5 3 q4 2 7.5 4t5.5 4q4 0 7 2t5 4l12 10q4 4 8.5 7.5t8.5 5.5q25 23 47 55.5t43 73.5q23 41 33 83t12 87v6v4v12t-2 15q0 6 -1 12t-1 12q-2 6 -3 12.5t-3 14.5q-2 6 -4.5 12t-4.5 12q-27 55 -72.5 93t-107.5 59q-57 18 -116.5 29.5t-122.5 13.5q-14 0 -30 -1t-30 -3 q-16 -2 -30.5 -3t-30.5 -3q-39 -4 -75 -9.5t-67 -9.5q-16 -2 -31.5 -5t-29.5 -7q-14 -2 -25.5 -4t-21.5 -4q-2 -70 -5 -139.5t-5 -141.5q0 -35 -1 -70.5t-1 -70.5v-73v-70v-157t2 -157q2 -80 5 -157.5t5 -153.5l-82 -2q0 2 -7 3t-24 3q-14 2 -30.5 5t-34.5 7t-35 10.5 t-33 14.5q-14 6 -21.5 15t-7.5 22q-2 8 -2 15v15v16.5v16.5q0 47 2 99.5t9 111.5q4 59 10 119.5t14 124.5v15t2 16q0 8 1 16t3 16q4 55 9.5 109.5t9.5 107.5t6 104.5t2 96.5v21.5v19.5v8v8v0z" />
<glyph unicode="Q" horiz-adv-x="1904" d="M967 -193q-35 10 -69 17.5t-67 11.5q-16 0 -31.5 2t-29.5 2q-8 0 -15 1t-16 1h-8t-6 -2h-8h-8q-20 -2 -38 -4t-34 -4q-16 0 -31.5 -1t-27.5 -3q-14 -2 -24.5 -3t-21.5 -1l-81 -2q-14 23 -7 37t37 24q29 10 63 17.5t72 11.5q25 2 48.5 5t44.5 3q23 2 38 2h27l82 -2 q8 2 15.5 2h15.5h8t8 -2h8h9q35 -4 70.5 -8t70.5 -10t70.5 -14.5t70.5 -16.5q16 -4 33.5 -7t34.5 -7q16 -2 33.5 -6.5t33.5 -6.5q35 -6 67 -12t64 -8h7.5t7.5 -2h7h7q23 2 41 6t33 8q25 8 45 15.5t37 17.5q16 10 28.5 19.5t20.5 17.5q10 8 17 11t16 3l82 -2h6l6 -4l4 -2 l6 -8q0 -57 -20.5 -97t-61.5 -61q-41 -23 -86 -36t-92 -15h-5t-7 -2h-5h-8l-81 -2q-6 2 -11.5 2h-9.5q-20 0 -40.5 1t-39.5 3q-20 2 -36.5 3t-30.5 3q-8 2 -14.5 3t-12.5 1q-6 2 -11 3t-10 1q-43 12 -81.5 24.5t-75.5 24.5t-70 24.5t-63 25.5v-3v0zM129 662q29 68 76 133 t110 129q66 61 133.5 114.5t139.5 98.5q57 35 112.5 64.5t110.5 49.5q55 23 100 33t80 10h82q12 0 23.5 -1t19.5 -5q10 -2 17.5 -7l13.5 -9l2 -17q-2 -2 -4 -3t-4 -1q-4 -2 -8.5 -3t-8.5 -3q-27 -8 -72.5 -18t-111.5 -27q-63 -14 -133 -47t-143 -82q-4 -2 -8.5 -5t-8.5 -7 q-4 -2 -8 -5t-8 -7q-45 -37 -85 -82t-73 -99q-33 -53 -58.5 -108.5t-41.5 -112.5q-8 -27 -14.5 -54.5t-10.5 -55.5q-4 -27 -6 -52.5t-2 -50.5q0 -39 5 -76t17 -67q12 -33 31 -57.5t43 -41.5q23 -29 64 -50t98 -34q53 -12 108.5 -18t112.5 -8q66 2 128.5 9t121.5 20 q61 12 108.5 29.5t79.5 37.5q55 37 108.5 86t102.5 107q49 59 83 118.5t53 122.5q2 6 3 12.5t1 12.5q2 4 3 10t1 12q2 12 3 24.5t1 25.5v7v5q-2 4 -2 7v5v7v5q-2 4 -2 7.5v5.5q-16 113 -54 190.5t-98 120.5q-51 37 -105.5 58.5t-113.5 25.5q-57 -4 -111.5 -19.5 t-107.5 -39.5q-57 -27 -99 -56.5t-71 -60.5q-4 -6 -8 -11.5t-8 -9.5q-2 -6 -5.5 -11t-7.5 -9q-4 -10 -9 -18.5t-11 -14.5t-12.5 -9t-12.5 -5l-10 -2h-82h-8q-8 0 -17.5 2t-15.5 8q-6 4 -9 10t-3 15v7t2 7t5 8t5 8q41 55 95.5 99.5t121.5 74.5q68 31 137.5 50.5t141.5 27.5h9 t11 2h9.5h9.5h9t11 2h9h12h82q104 0 197 -25.5t175 -78.5q82 -51 123 -130t41 -184q-6 -158 -82 -295t-221 -251q-145 -115 -305 -182.5t-334 -88.5q-18 -4 -36.5 -5t-37.5 -3h-17t-18 -2h-18h-18l-82 -2q-29 2 -56.5 3t-56.5 5q-27 2 -53.5 7.5t-52.5 11.5 q-78 14 -144.5 51t-122.5 92q-55 55 -83.5 126t-28.5 159q0 29 3 57.5t11 58.5q6 31 17.5 64t25.5 65v3v0z" />
<glyph unicode="R" horiz-adv-x="1679" d="M258 63l47 1035q-4 -2 -8 -3t-8 -1q-4 -2 -8.5 -3t-8.5 -4l-4 -2h-4q-18 -6 -33.5 -12t-29.5 -10q-14 -6 -24.5 -9t-14.5 -7l-4 -3h-2l-4 -2h-82h-2h-11l-10 5q-8 4 -17.5 10t-15.5 14q-8 10 -11 19.5t-3 19.5v4v4v4v4q14 14 35.5 23.5t52.5 15.5q31 4 63.5 9.5t65.5 7.5 h4h2q10 0 21.5 1t21.5 3t20.5 3t20.5 3l12 2l3 10l-3 8v11l-2 12v7v7v9.5v9.5t1 9t4 11l10 6h4t4 2h5h5h82q6 0 12.5 -1t14.5 -3t16 -6t17 -8q6 -6 13 -12t15 -17l5 -5t5 -7q2 -2 5.5 -5t5.5 -7q14 2 30.5 3t34.5 3q47 4 96.5 6t100.5 2h82h10h12q53 0 102.5 -1t98.5 -5 q25 -2 46.5 -3t39.5 -1q18 -2 34.5 -3t31.5 -3q10 -2 19 -3t17 -3q10 -2 20.5 -3.5t20.5 -3.5q41 -8 77 -25.5t69 -39.5q35 -23 51 -58.5t16 -85.5v-6v-4v-6v-4q-14 -92 -57 -159.5t-117 -112.5t-151.5 -76t-161.5 -47q-33 -6 -66.5 -10.5t-66.5 -8.5q-33 -2 -63.5 -3 t-59.5 -1q20 -20 51 -49t70 -65q41 -37 84 -74t92 -76q10 -10 22.5 -20.5t24.5 -20.5q6 -6 12 -11t15 -9q6 -6 12 -11.5t12 -9.5q59 -45 114.5 -84t108.5 -74q53 -33 94.5 -48t67.5 -15l-82 -2q2 2 4 2h4q0 2 2.5 2h4.5l12 2h82q8 -2 10 -8t-2 -15q-4 -10 -12 -19t-19 -21 q-6 -4 -12 -9.5t-12 -11.5q-4 -4 -8.5 -6t-6.5 -6q-4 -2 -7 -5t-7 -5t-8 -4.5t-8 -4.5q-4 0 -8.5 -2t-8.5 -4q-8 -4 -14 -6t-12 -2l-82 -2h-4v0l-4 2h-3q-37 25 -88 60.5t-116 80.5q-68 47 -137.5 100.5t-143.5 110.5q-6 4 -12 9.5t-10 9.5q-6 4 -12.5 9t-12.5 9t-12 9 t-11 12q-6 4 -12 9t-12 9q-49 41 -96 79t-93 77q-45 37 -82.5 71.5t-68.5 67.5q14 14 29.5 23.5t29.5 13.5q16 4 31.5 7t32.5 3h82h9h11q4 -2 9.5 -2h11.5q10 -2 21 -3t24 -1q10 -2 22.5 -4t24.5 -2h4h4q2 -2 4 -2h4q6 0 11.5 1t11.5 1q4 0 10 1t12 1q25 2 49.5 5t49.5 9 q45 10 88 26.5t84 41.5q41 23 75.5 58.5t61.5 80.5q8 14 14 27.5t8 25.5q4 12 5.5 24.5t1.5 24.5q0 45 -23 80t-66 62q-45 25 -93 43t-101 30q-31 6 -59.5 10.5t-57.5 6.5q-12 2 -24.5 3t-24.5 1h-3h-3h-9h-10q-6 -2 -11 -2h-9q-25 -2 -47.5 -5t-44.5 -7q-23 -2 -44.5 -5.5 t-39.5 -7.5q-14 -2 -28.5 -5t-26.5 -7q-12 -2 -23.5 -4t-22.5 -4q-6 -88 -10 -176t-8 -174q-2 -86 -4 -169t-2 -163v-122.5t2 -119.5q2 -57 4 -111.5t4 -107.5q-2 -2 -7 -6t-9 -6q-6 -2 -12.5 -3t-12.5 -1l-82 -2q-2 2 -5 2h-5q-4 2 -6 2h-6q-6 2 -11.5 3t-9.5 3 q-14 4 -26.5 8t-22.5 10q-12 6 -20.5 13.5t-14.5 15.5l-8 10l-2 12v2v0z" />
<glyph unicode="S" horiz-adv-x="1564" d="M178 887q41 82 98.5 144.5t133.5 107.5q74 43 152.5 73.5t160.5 47.5q29 6 57.5 10t57.5 6q29 4 56.5 5t53.5 1h82q78 0 143.5 -9t120.5 -26q55 -18 87 -39.5t40 -48.5q2 -2 4 -5t5 -5q0 -4 2 -8l4 -8t3 -9.5t3 -9.5q2 -6 3 -11t3 -9v-8.5v-8.5l2 -14q0 -8 -1 -14.5 t-5 -12.5q-2 -6 -6 -8t-8 -2h-82q-4 0 -10.5 2t-12.5 6q-8 4 -16.5 11.5t-18.5 17.5q-43 33 -91 56.5t-101 37.5q-47 12 -95.5 19.5t-97.5 9.5q-88 -2 -169 -22.5t-152 -55.5q-84 -39 -127 -88t-43 -107v-9v-9q0 -6 1 -11t3 -10q2 -4 4 -9t4 -9q2 -6 5 -11t5 -9 q25 -43 70 -69t110 -36q66 -8 137.5 -15t151.5 -11h12.5h12.5q6 -2 12 -2.5t12 -0.5h12.5h14.5q6 -2 13 -2h14q23 -2 45 -4t47 -4q23 -2 45 -4t45 -6q45 -6 86 -15.5t80 -23.5q35 -12 59.5 -28.5t38.5 -36.5t21.5 -44t9.5 -49q0 -14 -2 -27.5t-6 -27.5q-2 -14 -7.5 -27.5 t-11.5 -27.5q-14 -33 -34.5 -64.5t-45.5 -62.5t-50 -56.5t-54 -48.5q-6 -4 -12.5 -8t-12.5 -8q-2 -2 -5 -4t-5 -4q-4 -2 -6 -4t-6 -4l-6 -5l-4 -2q-55 -27 -117 -54t-131 -50q-70 -23 -140.5 -41t-142.5 -31q-20 -4 -40.5 -5t-41.5 -3q-20 -2 -40.5 -3t-41.5 -1l-82 -2 q-6 2 -13 2h-13q-8 2 -14.5 2h-12.5q-12 0 -24.5 1t-24.5 3q-45 0 -87 10.5t-81 30.5t-68.5 40t-52.5 42q-12 10 -20.5 21.5t-14.5 21.5t-9 21.5t-3 19.5v9t2 7q0 2 2 4.5t2 4.5q2 0 4 2l4 4l11 6l8 2h82h2l4 -2q6 -2 17.5 -11.5t25.5 -25.5q16 -14 55 -31.5t103 -36.5 q43 -8 85 -13t80 -9q31 -2 61 -4t56 -4q66 2 124 9t110 19q59 14 108 29.5t88 34.5q20 10 37 19.5t31 17.5q14 10 24.5 17t16.5 13l8 9l10 12q18 23 30.5 44t18.5 44t9.5 49.5t3.5 52.5q0 47 -37 81t-109 55q-72 20 -181.5 37.5t-256.5 31.5q-12 2 -24.5 3t-24.5 3 q-12 0 -24.5 1t-24.5 3t-25.5 3.5t-28.5 3.5q-12 0 -25 1t-28 3q-10 0 -20 2t-21 4q-10 2 -21.5 5t-21.5 5q-35 10 -67.5 24.5t-61.5 34.5t-43 49t-14 66v16.5t2 16.5t5 17.5t5 17.5v2v0z" />
<glyph unicode="T" horiz-adv-x="1564" d="M645 1077h-5h-5h-6h-6h-28.5h-29.5q-16 -2 -30.5 -2h-28.5h-4v0q-20 -2 -41 -3t-39 -1h-82h-38.5h-37.5h-46t-42 2q-20 0 -35.5 2t-27.5 4q-18 4 -35 12.5t-31 18.5t-25.5 21.5t-19.5 23.5q-4 8 -9 16.5t-7 16.5q-4 8 -6.5 15t-2.5 14l3 14l6 8l6 2h82h8q12 0 33.5 -3 t52.5 -7q16 -2 32.5 -5t37.5 -5q18 -4 39.5 -6.5t44.5 -6.5q43 -6 92 -12t102 -10q35 -4 71 -6t75 -4q0 16 1 31.5t3 27.5t9 21.5t19 15.5l11 2h81l13 -2q4 -2 7 -4t7 -6q2 -4 6 -8.5t6 -8.5q6 -8 11.5 -19.5t7.5 -21.5v-4v-4v-6l-2 -4l-2 -6v-4q27 -2 51 -3.5t49 -1.5h1h3 h3h1h85t75 3q35 2 67.5 4t63.5 4h16.5t16.5 2q6 0 14 1t17 1q16 0 31.5 1t31.5 3h24.5h24.5h12.5t14.5 2h13h13h82l15 -12l-6 -11q-14 -8 -47 -16t-87 -16q-53 -8 -110.5 -15.5t-118.5 -11.5q-45 -4 -87 -7t-83 -7q-41 -2 -74.5 -3t-60.5 -1h-82h-16.5h-14.5h-11t-9 2h82 l-49 -627v-47.5v-50.5q0 -14 1 -27.5t1 -26.5q2 -14 3 -27.5t3 -27.5q4 -27 8 -53.5t10 -50.5q6 -27 16.5 -49.5t22.5 -45.5q4 -8 10 -15t15 -11h1h1q0 -2 1 -2h1q6 2 12 3t12 3q23 6 44.5 15t43.5 20q10 4 20.5 8t20.5 10q4 2 9.5 4t11.5 6q4 2 9 5.5t9 5.5q23 12 41.5 23 t36.5 22q16 10 30.5 18t24.5 14l13 7l12 4h82h6h6q12 0 22.5 -3t18.5 -10q8 -6 10 -13t-2 -15l-10 -8l-12 -9q-12 -8 -28.5 -17t-35.5 -20q-18 -10 -39.5 -20t-44.5 -20q-20 -8 -39.5 -17.5t-42.5 -19.5q-10 -4 -20 -8.5t-21 -8.5q-12 -2 -22 -5t-21 -7q-33 -8 -64.5 -16.5 t-62.5 -16.5q-31 -6 -57.5 -10t-50.5 -4l-82 -2q-53 2 -89 18.5t-52 46.5q-18 33 -26.5 73t-8.5 85v24.5t2 26.5v12.5t2 14.5q0 6 1 12t1 12v9.5t2 11.5q0 4 1 9t1 9q0 10 2 20.5t4 20.5q0 10 1 20.5t3 22.5q0 10 1 20.5t3 20.5q4 20 5.5 39t1.5 35q0 23 2 51.5t8 65.5 q4 37 10 77t12 83v6l2 8q6 41 11.5 79t9.5 74q4 37 7 66t3 53v0z" />
<glyph unicode="U" horiz-adv-x="1679" d="M453 709q-2 -4 -3 -9.5t-1 -11.5q-2 -6 -3.5 -13t-3.5 -16q-2 -8 -3 -15t-1 -15q-2 -8 -3 -16.5t-3 -18.5q-2 -8 -3 -15.5t-1 -15.5q-2 -8 -3 -15t-1 -13q-4 -31 -7 -60t-7 -57q-2 -27 -4.5 -43.5t-2.5 -22.5q4 -47 22.5 -88t51.5 -76q25 -27 55.5 -44t65.5 -23q2 2 3 2 h3q14 4 28.5 8t29.5 12q59 29 111 74t97 105q47 59 87 122.5t77 128.5q16 29 29.5 56.5t28.5 54.5q14 29 27.5 54.5t25.5 49.5q10 16 17 38t14 48q6 27 11 54.5t9 54.5q4 31 9 60.5t7 58.5q4 29 7.5 51.5t5.5 38.5h82h8h10q53 0 86 -18.5t47 -55.5q12 -37 19.5 -77t9.5 -85 v-9v-9q-2 -4 -2 -9v-9v-16.5v-16.5v-8.5v-8.5q-2 -4 -2 -8v-8v-16.5v-16.5v-14v-12v-12.5t2 -10.5q4 -43 9 -83t7 -79q4 -39 7 -73.5t5 -69.5q6 -94 17.5 -172t25.5 -137q16 -57 50 -94t88 -50q2 -4 0 -8t-6 -6q-6 -4 -12.5 -9t-14.5 -11q-4 -2 -8 -4.5t-8 -4.5 q-4 0 -8.5 -2t-8.5 -4l-16 -8t-17 -8q-14 -4 -29.5 -9.5t-27.5 -9.5q-14 -4 -23.5 -6t-13.5 -2l-4 -4h-82h-4q-18 2 -33.5 29.5t-27.5 81.5q-12 55 -22.5 117.5t-20.5 132.5q-2 14 -4.5 28.5t-2.5 30.5q-2 14 -4 28.5t-4 28.5t-4 27.5t-2 28.5q-2 12 -4 25l-4 26v3v3 q-2 2 -2 4v4v4v4q-2 0 -2 2v4q-2 4 -4 10.5t-2 14.5q-2 8 -3 17.5t-1 19.5q-2 10 -3 19.5t-4 19.5q-2 10 -3 21.5t-1 23.5q0 4 -1 8t-1 8q-2 4 -3 8.5t-1 8.5q-2 -4 -3 -8.5t-3 -8.5t-3 -8t-3 -8q-14 -39 -32.5 -77t-39.5 -79q-37 -74 -82 -144.5t-98 -137.5 q-53 -68 -117.5 -120t-138.5 -87q-8 -4 -16.5 -7.5t-16.5 -7.5q-8 -2 -15 -5t-15 -7q-16 -2 -33 -5t-33 -5q-14 -4 -29.5 -5t-31.5 -1l-82 -2q-47 2 -89 14t-77 39q-37 27 -56.5 69t-23.5 99q-2 14 -2 27.5v27.5v27.5v27.5q0 66 2 123.5t8 106.5t12.5 91t12.5 79q4 25 9 46 t9 40q4 18 8 34.5t6 30.5q8 35 14.5 66t8.5 57q4 29 6 52.5t2 43.5q0 23 -1 41.5t-5 32.5q-2 8 -3 15.5t-1 13.5q-2 6 -3 12t-3 12q-6 23 -9.5 36.5t-7.5 21.5q-2 8 5.5 14t21.5 12l10 2l13 5h81q45 -8 77 -19.5t50 -28.5q18 -14 27.5 -37.5t9.5 -52.5q0 -33 -9 -76.5 t-26 -99.5q-18 -55 -37.5 -126.5t-41.5 -157.5h-82v2h82v0z" />
<glyph unicode="V" horiz-adv-x="1452" d="M0 1274h4q2 0 5 1t7 3h9.5t11.5 2h7t7 2h8h9h82q14 0 30.5 -1t36.5 -5q18 -2 41 -7t49 -14q23 -8 41.5 -26.5t32.5 -46.5q16 -29 30.5 -59.5t28.5 -63.5q8 -23 15.5 -44.5t15.5 -43.5q8 -20 15.5 -38t15.5 -32q10 -20 21.5 -47t23.5 -55q10 -31 22.5 -61.5t24.5 -63.5 q4 -14 8 -27.5t8 -25.5q4 -14 9.5 -27.5t11.5 -26.5q29 -80 53.5 -153.5l46.5 -139.5q12 -33 23.5 -59.5t19.5 -42.5l1 1l3 3l3 3l1 1q16 18 35 42t37 50q6 8 12 17.5t13 17.5q6 10 12 19.5t12 19.5q16 25 29.5 48.5t25.5 45.5q12 23 22.5 41.5t18.5 32.5 q82 123 135.5 225.5t79.5 182.5q25 80 38.5 143t13.5 111q0 18 -1 35.5t-3 31.5q-2 8 -3.5 15.5t-1.5 13.5q-2 6 -3 12t-3 12q-2 10 -5 18.5t-7 16.5q-2 6 -3 12.5t-1 10.5l2 8l4 6h2l4 2h82v0h4q6 0 15.5 -2t17.5 -6q10 -4 19.5 -10t17.5 -13q10 -8 20.5 -17t20.5 -19 q10 -12 20.5 -23.5t18.5 -22.5q6 -12 12 -23l12 -22q4 -10 7.5 -19t3.5 -17q0 -31 -9.5 -67t-25.5 -77q-16 -43 -37 -86t-45 -86q-4 -8 -9.5 -16t-9.5 -15q-4 -8 -9 -16t-9 -16q-8 -14 -17.5 -29.5t-19.5 -32.5q-29 -45 -56.5 -86t-51.5 -78q-27 -37 -44.5 -63.5 t-27.5 -42.5q-14 -20 -30.5 -46t-39.5 -54q-20 -29 -43.5 -60t-46.5 -61q-6 -8 -12 -16.5t-12 -14.5q-6 -8 -12.5 -15.5t-10.5 -15.5q-37 -45 -71.5 -84t-67.5 -71q-33 -31 -55.5 -46.5t-34.5 -11.5l-82 -2q-12 -2 -37 44t-64 145q-39 98 -80.5 207.5t-89.5 228.5q-2 4 -4 9 t-4 9t-3 9.5t-3 11.5q-31 78 -59.5 150.5t-57.5 142.5t-53 125t-45 94q-6 10 -12 18t-13 15q-8 6 -14 12t-12 10t-12.5 5t-10.5 3q-6 2 -11 4t-9 4q-8 4 -15.5 7.5t-11.5 7.5t-6 11t-2 15v9v8v2v0z" />
<glyph unicode="W" horiz-adv-x="2129" d="M467 -49v0v0h-2v0q-10 2 -22.5 20.5t-26.5 55.5q-14 39 -27.5 87t-30.5 105q-6 23 -12 46.5t-12 47.5q-6 25 -11.5 49.5t-9.5 49.5q-14 66 -28.5 128t-26.5 122q-12 59 -20.5 103t-12.5 71q-6 35 -12 65.5t-12 56.5q-8 27 -14.5 49.5t-12.5 41.5q-14 37 -27.5 64.5 t-25.5 45.5q-10 12 -20.5 22.5t-20.5 16.5q-8 6 -17.5 12.5t-17.5 12.5l-8 4l-8 4l-13 8q4 8 12.5 14.5t16.5 10.5q10 4 21.5 6t23.5 2h82q8 0 16.5 -1t16.5 -3q4 0 8 -1t10 -1q4 -2 8.5 -3t8.5 -1q6 -2 12 -4.5t14 -4.5q6 -2 12.5 -4t12.5 -4q12 -4 23.5 -9t21.5 -9 q10 -6 19.5 -11.5t15.5 -9.5t11 -7t7 -7q10 -25 20.5 -61.5t22.5 -86.5q10 -51 21.5 -106t23.5 -117q2 -16 5 -32.5t5 -32.5q2 -8 3.5 -16.5t3.5 -14.5q2 -8 3 -16.5t3 -16.5q16 -100 33.5 -193t35.5 -177q6 -31 12.5 -56.5t12.5 -44.5l18.5 37t20.5 45q31 68 66.5 142.5 t74.5 156.5q6 14 12.5 28.5t12.5 28.5t13 28.5t15 29.5q33 66 65 124t62 107q31 49 56.5 74t46.5 25h4h4h2l4 2h82v0h4q20 0 43 -36t47 -108q25 -74 50.5 -153.5t52.5 -165.5q4 -16 8 -32.5t10 -33.5q4 -14 9 -29.5t9 -31.5q10 -33 20.5 -66t23.5 -61q10 -29 20 -56.5 t20 -52.5q10 -23 19.5 -41t19.5 -30q55 51 100.5 110.5t78.5 126.5q37 74 63.5 150.5t42.5 154.5q4 23 8 44.5t8 43.5q2 20 5.5 43t5.5 43q4 43 6 85t2 81q0 41 -1 80t-5 76q-2 37 -7.5 69.5t-9.5 61.5h82q49 -6 84 -25.5t56 -54.5q23 -33 33 -75t10 -93q0 -47 -7.5 -99 t-23.5 -110q-14 -57 -34.5 -114.5t-45.5 -116.5q-25 -57 -53.5 -114.5t-59.5 -112.5q-14 -27 -30.5 -53.5t-30.5 -53.5q-16 -25 -31.5 -49.5t-32.5 -46.5q-35 -51 -68.5 -93t-68.5 -77q-33 -33 -62.5 -52.5t-54.5 -27.5l-82 -2q-37 12 -67.5 52t-56.5 110 q-27 72 -52.5 148.5t-50.5 158.5q-2 10 -5 19.5t-7 17.5q-2 10 -4 19l-4 18q-8 31 -18.5 60.5t-18.5 57.5q-10 29 -19.5 55.5t-19.5 53.5q-8 23 -16.5 43t-18.5 37q-90 -170 -154.5 -299t-103.5 -217q-43 -94 -78 -161t-63 -106q-4 -6 -9.5 -11t-9.5 -7t-6 -5t-4 -5 q-4 -2 -6 -4l-4 -4q-8 -8 -19.5 -15.5t-21.5 -13.5l-82 -2v0v0z" />
<glyph unicode="X" horiz-adv-x="1564" d="M662 678l-404 467q-6 4 -12 9t-13 11q-2 4 -5 6.5t-5 6.5q-4 2 -6 5t-6 5q-25 18 -47.5 32.5t-44.5 22.5q-20 8 -35.5 15.5t-26.5 13.5l-10 12q0 4 4 9t12 12q14 4 27.5 5t28.5 3h12t14 2h12.5h12.5h82q84 0 148.5 -25.5t109.5 -75.5q47 -49 90 -104t82 -117q0 -2 1 -4 t3 -2q0 -2 1 -4t3 -4l8 -12q16 -27 33 -52.5t33 -50.5l8 -12t10 -12q4 -6 8.5 -11.5t8.5 -11.5q14 12 29.5 28.5t33.5 37.5q37 41 78 82l86 86l9 9l9 9t9.5 9t11.5 12q37 37 73 70.5t68 66.5q35 31 63.5 55.5t53.5 38.5q6 4 14.5 6t16.5 0h82q10 -2 19 -5t18 -9 q8 -6 16 -12.5t16 -14.5q4 -4 8.5 -8t8.5 -8q4 -6 8 -10.5t6 -8.5q10 -14 18.5 -27.5t10.5 -25.5q4 -12 0 -17t-15 -5h-82q-2 0 -4 1l-2 1q-2 2 -4 2h-4h-4t-2 2h-4h-4h82q-27 0 -59.5 -12.5t-73.5 -36.5q-39 -25 -82 -53.5t-86 -63.5q-6 -4 -12.5 -9.5t-12.5 -9.5 q-6 -6 -12 -11t-13 -9q-6 -4 -12 -9l-12 -10q-6 -6 -11.5 -11t-11.5 -9q-39 -33 -73.5 -63.5t-65.5 -59.5q-33 -31 -56.5 -53.5t-39.5 -38.5q16 -27 38.5 -60.5t53.5 -74.5q29 -43 61.5 -86t69.5 -86q12 -16 24.5 -32.5t26.5 -33.5q12 -14 25.5 -29.5t28.5 -31.5 q43 -51 86 -94t81 -78q41 -35 74 -52.5t60 -17.5h6h4q2 -2 4 -2h4l6 -6q0 -2 -3 -7t-7 -9q-6 -4 -12.5 -9.5t-16.5 -9.5q-8 -2 -19 -6l-22 -8l-12 -4t-10 -4q-6 -2 -12.5 -4.5t-12.5 -4.5q-8 -2 -15 -3t-14 -3q-8 -2 -15 -3t-13 -1l-82 -2q-2 2 -4 2h-4q-4 2 -6 2h-5 q-4 0 -8 1t-8 3q-14 4 -47 34t-80 87t-98 120.5t-105 133.5l-8 10l-8 13q-14 16 -27.5 33.5t-25.5 35.5q-14 16 -27.5 33.5t-26.5 34.5q-14 20 -28.5 38.5t-26.5 35.5q-182 -205 -303 -363t-182 -266q-63 -117 -105.5 -172.5t-60.5 -48.5l-82 -2l-2 2l-8 8t-12.5 14 t-12.5 19q-4 4 -7 9t-5 11q-2 2 -3 5t-3 5l-3 6t-3 7q-4 8 -7.5 17t-5.5 19q-4 8 -5 15.5t-1 13.5l-2 2v4l2 2v2l740 791v0v0z" />
<glyph unicode="Y" horiz-adv-x="1562" d="M637 14q-12 20 -35.5 75.5t-58.5 143.5q-37 90 -77 187.5t-85 202.5q-12 29 -24.5 56.5t-24.5 53.5q-12 29 -24.5 54.5t-24.5 52.5q-39 80 -77 148.5t-73 125.5q-37 59 -65.5 90t-55.5 35l-6 8l-2 10q2 10 9 16.5t20 8.5q12 4 25.5 6t29.5 2h82h7h5q4 -2 7.5 -2h5.5h12 h12q20 -2 40 -6t38 -8t30.5 -9t20.5 -10q41 -20 83 -94t87 -200q45 -129 97.5 -267.5t109.5 -287.5q12 -33 25.5 -67t27.5 -67q4 -8 7 -16l6 -16q4 -8 7 -16.5t5 -16.5q29 35 55.5 71.5t52.5 75.5q39 55 75 110.5t69 113.5q53 90 94 179t74 175t49 161.5t16 139.5 q0 16 -1 32.5t-5 30.5q-2 16 -6 29.5t-8 26.5q-6 16 -1 18t21 -8h82q16 -10 36.5 -26.5t41.5 -39.5l8 -8l8 -8q2 -6 6.5 -10t8.5 -8t8 -8.5t6 -8.5q4 -6 8 -10t6 -8q10 -12 16.5 -24.5t12.5 -24.5t9 -22.5t3 -20.5l-2 -15l-4 -10q-205 -393 -369.5 -646t-287.5 -368 q-123 -111 -184.5 -190.5t-61.5 -128.5q2 -2 6 -3t10 -3q18 2 40 3t46 5q23 2 44.5 5t43.5 5q25 4 47.5 6t47.5 6q4 2 7 3t7 1h8h8q37 6 74 11.5t72 9.5q35 6 64.5 9t54.5 5l81 -2q6 2 10.5 0t4.5 -8t-3 -12t-9 -13q-6 -4 -12.5 -8t-14.5 -8t-18.5 -7t-22.5 -5l-741 -180 q-4 0 -8.5 -1.5t-8.5 -1.5h-4t-4 -2h-6h-4l-82 -2h-4h-2l-22.5 7.5t-20.5 9.5q-8 6 -14.5 16t-6.5 23v8t2 8q0 4 2 9l4 10q59 59 114.5 113t107.5 104q47 47 72.5 74.5t27.5 41.5v0z" />
<glyph unicode="Z" horiz-adv-x="1564" d="M709 580q-20 10 -39 19t-35 17q-18 8 -32.5 15.5t-27.5 15.5l-14 7l-10 5q-6 4 -10 8.5t-9 8.5v7v7v9.5t3 9.5q0 10 3 20t7 19q4 8 13 10t22 -2h82q37 -18 67.5 -36t54.5 -34q2 -2 5.5 -3t5.5 -3q6 -2 11 -5t9 -7q8 8 18.5 17t20.5 17q23 18 46.5 40t47.5 44l10 9l11 10 q18 18 36.5 35.5t34.5 33.5t30.5 32t25.5 28l8 8l8 10q25 29 47.5 54.5t42.5 52.5q23 27 33 49t10 41q0 14 -7 24.5t-24 18.5q-14 6 -36.5 10t-55.5 6q-23 0 -46 -1t-48 -3q-14 0 -29.5 -1t-29.5 -3q-16 0 -30.5 -1t-31.5 -3q-47 -6 -93 -12t-93 -13q-45 -8 -88 -15t-84 -13 q-14 -4 -28.5 -8.5t-28.5 -8.5q-8 -2 -15.5 -4t-13.5 -4q-8 -2 -15.5 -3t-15.5 -3q-31 -8 -59.5 -14t-57.5 -11q-27 -4 -53 -6t-51 -2h-82q-2 4 -5 9.5t-5 11.5q-2 4 -2 9v9q0 18 9 35.5t30 32.5q20 14 41.5 25.5t46.5 19.5q8 4 16 6l16 4q6 2 14.5 4t16.5 4q16 4 27.5 5 t19.5 1q35 4 73 8.5t77 6.5q41 4 82 5t82 1h82h4h4h2h4h8h8h11h12q84 0 162.5 -3t154.5 -9q37 -2 71 -6.5t62 -6.5q31 -4 56.5 -7t46.5 -7l20 -4t19 -4q10 -2 16 -3t10 -3q23 -8 40.5 -19.5t27.5 -23.5t15 -25.5t5 -30.5q0 -14 -4 -27.5t-10 -29.5q-8 -14 -17.5 -29.5 t-19.5 -31.5q-12 -16 -25.5 -32t-29.5 -32l-29.5 -29.5t-32.5 -27.5q-23 -20 -44 -37t-42 -33q-20 -14 -35.5 -25.5t-25.5 -17.5q-6 -4 -11 -8t-9 -8q-6 -6 -11.5 -10.5t-11.5 -8.5q-12 -8 -23.5 -16t-21.5 -16q-20 -14 -41 -30t-41 -30t-37.5 -26.5t-34.5 -24.5 q10 -4 19.5 -9t21.5 -10q12 -4 24.5 -9t24.5 -11q4 -2 7.5 -3t5.5 -1q4 -2 7 -3t5 -3l6 -3t6 -1q2 -2 5 -3t6 -3q16 -8 28 -15.5t23 -13.5q10 -6 16 -12.5t6 -12.5l-8 -16q-4 -2 -10 -3t-12 -1h-82q-12 0 -25.5 2t-30.5 6q-16 4 -33.5 10t-35.5 13l-8 2l-7 4q-6 2 -13 4 t-13 4t-12.5 4t-12.5 4q-20 -10 -41.5 -23.5t-44.5 -27.5q-14 -10 -30.5 -21.5t-30.5 -21.5q-16 -10 -31.5 -21.5t-32.5 -21.5q-4 -2 -8 -5t-8 -7q-4 -2 -9.5 -5.5t-9.5 -7.5q-49 -33 -94 -65.5t-88 -63.5t-73.5 -50t-51.5 -30q-23 -12 23.5 -21t158.5 -20q109 -8 231 -12 t255 -4q63 0 124.5 1t121.5 3q74 4 135 8t112 13h82q16 0 25.5 -3.5t13.5 -7.5q4 -6 5 -11t-1 -9l-6 -14l-10 -13l-8 -4l-4 -2q-174 -20 -329 -35.5t-294 -27.5q-137 -10 -255 -16.5t-214 -6.5l-82 -2q-90 2 -159.5 7t-118.5 16q-49 10 -75 25.5t-26 37.5q0 6 2 14.5t6 16.5 t12.5 17t16.5 18q27 18 57.5 40.5t63.5 47.5q35 25 69.5 51t71.5 53l8 6l13 8q61 43 118.5 84t112.5 78q53 37 90 61.5t56 37.5v2v0z" />
<glyph unicode="[" horiz-adv-x="647" d="M631 1307v-66h-228v-1466h211v-66h-82h-307v1598h82h324v0v0z" />
<glyph unicode="\" horiz-adv-x="872" d="M227 1307q8 -2 37 -61.5t80 -176.5t107.5 -246t119.5 -268q4 -8 7.5 -15.5t7.5 -13.5q2 -8 6 -15t6 -15q4 -8 7 -15.5t7 -13.5q2 -8 6.5 -15.5t6.5 -13.5q25 -57 50 -111.5t52 -107.5q25 -51 49.5 -99t46.5 -89q0 -14 -4 -23.5t-12 -17.5t-16.5 -12.5t-18.5 -4.5l-82 -2 q-2 2 -4 2h-2q-2 2 -4 2h-4t-4 1t-2 4q-2 2 -4 3t-4 3q-23 39 -44.5 79.5t-42.5 84.5q-20 41 -40.5 81.5t-40.5 81.5q-39 82 -78 163t-76 163q-8 14 -14.5 27.5t-12.5 27.5q-2 6 -6 13.5t-6 15.5q-4 6 -7 13t-7 16q-29 61 -58.5 123.5t-58.5 125.5q-14 31 -29.5 63t-29.5 62 q-16 33 -30.5 65t-31.5 64q4 12 13.5 21.5t21.5 15.5t27.5 9.5t33.5 3.5v2h82v0z" />
<glyph unicode="]" horiz-adv-x="647" d="M115 1290h305v-1581h-82h-305v66h209v1450h-209v65h82v0v0z" />
<glyph unicode="^" horiz-adv-x="1306" d="M1102 86l-406 623l-448 -594l-74 131l-2 168l547 690l457 -750l2 -166l-76 -102v0v0z" />
<glyph unicode="_" d="M338 -131h373q55 0 99 1t79 1q33 2 60.5 3t47.5 1q20 2 35 3t25 3q8 0 15 1t15 1q2 2 6.5 2t10.5 -2q4 -2 9 -3t11 -3q2 0 3 -2t1 -4q2 -2 3.5 -4t1.5 -4v-43v-2v-2q-2 -2 -3 -4v-2q-2 -4 -2 -7.5t-4 -7.5q-6 -6 -11 -12t-13 -12q-6 -6 -13.5 -10.5t-17.5 -6.5h-1h-3h-4 h-4h-11.5h-11.5h-59.5t-81.5 2q-25 2 -50.5 2h-49.5q-27 2 -54.5 2t-56.5 2q-18 0 -37.5 1t-38.5 1q-20 0 -39.5 1.5t-38.5 1.5q-41 0 -81.5 1t-79.5 1q-39 2 -75 2h-71q-37 0 -70.5 -1t-62.5 -1q-29 -2 -49.5 -3.5t-32.5 -3.5q-4 0 -7 1t-5 4q-2 2 -3 5t-1 7l-2 41q2 2 2 3 v1q2 0 2 1v3v1v3v1v3q2 4 3 8t5 9q2 2 2 3v3l3 3l3 3l4 4h6q10 2 21.5 3t23.5 1h26.5h25.5h23.5h23.5h24.5t22.5 -2h8h10h13.5h13.5h13h14h13t15 -2h13.5h13.5h2v0z" />
<glyph unicode="`" horiz-adv-x="532" d="M195 1145q10 4 17 4t15 -4q6 -4 13.5 -11.5t15.5 -17.5q6 -12 14.5 -26.5t16.5 -30.5q8 -18 17 -35.5t20 -34.5q10 -20 24 -39.5t29 -38.5q16 -18 34.5 -33.5t41.5 -25.5l14 -10q2 -2 3 -4l1 -2q2 -2 2 -4.5v-4.5v-4l-2 -4q-2 -6 -5 -12t-9 -10q-6 -6 -12.5 -8.5 t-12.5 -2.5h-82h-6l-6 2q-8 4 -21.5 11.5t-31.5 19.5t-37 26.5t-37 31.5q-16 12 -31.5 27.5t-32.5 29.5q-14 16 -27.5 32.5t-23.5 32.5q-2 4 -5 8.5t-5 10.5q-2 4 -3 8t-3 8t-3 8.5t-1 10.5q-2 4 -2 8v8v9t2 12q0 4 2 9t4 9t5 8t7 10q4 4 8 8.5t11 8.5v2h82v0z" />
<glyph unicode="a" horiz-adv-x="1226" d="M915 551h3.5t3.5 2h1h3q4 0 7 1t7 3q2 2 6 3t6 3h82l2 -12v-4t2 -6v-4v-7q2 -18 4 -43.5t5 -56.5q2 -33 5 -64.5t7 -66.5q4 -51 12 -97t21 -87q10 -43 27.5 -63.5t37.5 -20.5h2h4q6 -4 9.5 -9.5t1.5 -9.5t-7.5 -8t-11.5 -8t-13 -8t-18 -8q-4 -2 -8 -4.5t-8 -4.5 q-6 -2 -10 -4l-8 -4q-6 -2 -11.5 -3t-9.5 -3q-6 0 -11 -1t-9 -3q-8 -4 -16.5 -5t-14.5 -1l-82 -2l-12 2l-4 4q-6 10 -10.5 22.5t-8.5 26.5q-2 14 -5 30.5t-7 35.5l-2 4v6q-2 12 -4 23.5t-6 21.5q-16 -14 -37 -27.5t-45 -25.5q-51 -25 -104.5 -41.5t-108.5 -26.5 q-23 -2 -45.5 -5t-44.5 -5q-20 -2 -42 -3t-42 -1l-82 -2q-20 2 -39 3t-35 3t-31.5 5t-27.5 5q-31 10 -52.5 25.5t-34.5 35.5q-14 18 -20 40t-6 46q0 18 3 37t9 39q6 18 14.5 39t20.5 41q29 47 70 93t92 91q53 43 106.5 76t110.5 53q16 6 33.5 11.5t33.5 7.5q16 4 34 5t34 1 h82q29 0 55.5 -6t50.5 -17q23 -10 45.5 -27.5t40.5 -39.5v0zM838 242q2 4 3 9t1 13v7t2 8v6v8q0 12 -1 26.5t-3 28.5t-3 28.5t-3 29.5q-2 8 -3.5 15t-3.5 15q-2 6 -3 13.5t-1 15.5q-20 29 -42.5 50.5t-49.5 33.5q-18 8 -36.5 14t-35.5 8q-25 -2 -47 -9t-45 -15 q-33 -14 -58.5 -28.5t-47.5 -31.5l-12 -12l-13 -10q-20 -20 -37.5 -45t-31.5 -53q-14 -29 -22.5 -58.5t-12.5 -58.5q-2 -4 -2 -8v-9v-4v-2v-4v-4v-19.5t2 -19.5q2 -8 4 -17t4 -20q10 -25 26.5 -43t43.5 -30q18 -8 38.5 -13.5t40.5 -7.5h6.5h6.5q2 0 5 1t5 1q16 4 34.5 8 t37.5 11q35 10 70.5 27.5t68.5 37.5q35 23 62.5 48.5t52.5 56.5v2v0z" />
<glyph unicode="b" d="M113 420l32 870q2 12 8.5 22.5t14.5 18.5q10 6 21.5 10.5t23.5 4.5h82h2h4q14 -2 27.5 -9.5t25.5 -19.5q12 -14 18.5 -33.5t8.5 -46.5v-6v-8q-2 -2 -2 -6.5v-8.5q-2 -8 -3 -16t-3 -16q-2 -33 -7.5 -74t-11.5 -88q-2 -25 -5 -48.5t-5 -47.5q-4 -25 -6 -50.5t-6 -52.5 q-2 -8 -3 -16t-1 -17q-2 -8 -3 -16t-1 -16q-6 -45 -10.5 -88.5t-8.5 -86.5q-2 -29 -5 -55t-5 -53q18 10 36.5 22.5t39.5 24.5q23 16 52.5 31.5t63.5 29.5q4 2 9.5 4.5t11.5 4.5q4 2 7 3t5 3q4 0 7 1t5 3q16 4 35 9t39 7q20 4 42 6t44 2h82h8h9q47 -2 89 -13t81 -34 q39 -20 58 -58t19 -91v-6v-6v-7.5v-7.5v-6t-2 -6q0 -4 -1 -7t-1 -7q-2 -8 -3 -15.5t-5 -13.5q-2 -2 -3 -6t-1 -6q-2 -4 -3 -7.5t-3 -7.5q-23 -45 -62 -90t-94 -88t-112.5 -75.5t-118.5 -55.5q-27 -8 -52.5 -14t-50.5 -13q-27 -6 -50 -9t-46 -3l-82 -2q-14 2 -28.5 3t-28.5 5 q-14 2 -26.5 6.5t-22.5 8.5q-31 10 -52.5 31.5t-33.5 58.5q-14 37 -22.5 75.5t-12.5 79.5q-2 12 -3 24.5t-3 27.5q0 12 -1 24t-1 25v46v40v2v0zM291 354q-2 -6 -2 -10v-8v-4v-2v-4v-4q0 -57 20.5 -104.5t63.5 -88.5q35 -33 75.5 -52.5t86.5 -25.5q10 2 21 5t24 7 q18 6 36.5 14.5t36.5 20.5q10 6 18.5 13.5t18.5 15.5q8 6 17.5 15.5l17.5 17.5q20 29 34.5 54.5t22.5 51.5q10 25 14.5 49.5t4.5 46.5q0 45 -14.5 82t-43.5 64q-20 20 -42.5 32.5t-47.5 18.5q-8 -2 -19 -4t-22 -6q-23 -8 -46 -17.5t-48 -19.5q-20 -8 -40.5 -19.5 t-41.5 -21.5q-10 -6 -19 -12t-20 -10q-8 -6 -16 -12.5t-16 -12.5q-12 -8 -23.5 -17.5t-22.5 -19.5q-8 -8 -16 -17.5t-12 -17.5h-82v2h82v0z" />
<glyph unicode="c" d="M96 274q4 12 10.5 25.5t14.5 28.5q10 14 19.5 28.5t21.5 28.5q35 41 81 80t103 76t116.5 63.5t123.5 40.5q8 2 15 3t15 3q8 0 15.5 1t15.5 3q16 2 31.5 3t30.5 1h82q39 0 68.5 -6t49.5 -18q23 -12 37.5 -24.5t22.5 -26.5q2 -6 3 -11.5t3 -9.5t3 -8t1 -8q0 -8 -2 -14.5 t-6 -12.5q-2 -6 -7.5 -8t-11.5 -2h-82h-4l-4 2h-4l-4 2q-14 10 -36.5 18.5t-53.5 16.5q-20 4 -41 7t-43 5h-1h-1h-1h-1h-9h-10q-4 -2 -9 -2h-9q-59 -8 -113.5 -29.5t-103.5 -56.5t-74.5 -92t-25.5 -137v-11l2 -8v-10v-8q4 -43 31.5 -74t78.5 -53q47 -20 99.5 -31.5 t105.5 -13.5q23 2 43 5t41 7q35 8 62.5 20.5t52.5 26.5q25 12 45 21.5t35 15.5q16 6 27 9t20 3h82q12 0 17 -4t1 -14q-2 -4 -5 -9t-7 -10q-4 -6 -9.5 -11t-11.5 -9q-6 -6 -13 -11t-15 -9q-4 -2 -8.5 -5.5t-8.5 -5.5q-6 -2 -10 -4l-8 -4q-2 0 -4 -1l-2 -1q-2 -2 -4.5 -3 t-4.5 -1t-4 -1l-2 -1q-2 -2 -4 -2h-4q-31 -12 -67.5 -23.5t-79.5 -19.5q-43 -10 -87 -17.5t-92 -13.5q-14 -2 -29.5 -3t-31.5 -3h-15.5t-15.5 -2h-15h-13l-82 -2q-68 2 -125.5 14.5t-106.5 32.5q-49 23 -72.5 68t-23.5 108v21.5t2 23.5t5 24.5t5 26.5v2v0z" />
<glyph unicode="d" horiz-adv-x="1226" d="M887 588q0 55 -1 106t-3 99q-2 61 -3 116.5t-3 102.5t-4.5 88t-4.5 74q-2 35 -2 61.5v46.5v18.5v14.5t1 12t3 10h4l5 2h82h2h4h4h6q2 -2 5 -2h5q6 -2 12.5 -3t12.5 -3q4 -2 9 -4t11 -4q4 -2 9.5 -4t9.5 -4q10 -6 18 -10.5t14 -8.5l15 -8q2 -8 3 -17t1 -20v-11t2 -11 v-13.5v-13.5q0 -39 -2 -89t-6 -109q-4 -61 -9.5 -126t-9.5 -137q-2 -37 -4 -73.5t-4 -73.5l-4 -74l-4 -74q-2 -35 -4 -69.5t-2 -69.5q-2 -33 -2 -66.5v-66.5v-71.5t2 -69.5q2 -33 5 -64.5t5 -62.5l-82 -2q0 2 -1 2h-3q-2 2 -6 2h-8h-9.5t-9.5 2q-6 0 -11 1t-9 3 q-8 2 -17.5 6t-17.5 8t-12.5 10.5t-8.5 14.5q-2 10 -4 19.5t-2 19.5q-2 8 -2 16v17v17v15t1 16.5t3 16.5v0v0q-14 -8 -32.5 -15t-36.5 -16q-49 -20 -101.5 -35.5t-105.5 -23.5q-25 -4 -48.5 -8t-45.5 -6q-25 -4 -46.5 -5t-43.5 -1l-82 -3q-39 2 -72 7.5t-62 15.5 q-27 6 -47 22.5t-30 38.5q-6 10 -9.5 22.5t-7.5 25.5l-4 24t-2 25v20t2 21q2 10 5 21t7 22q16 59 52.5 114.5t91.5 106.5q53 53 111.5 91t119.5 62q20 6 40 12.5t40 10.5q10 2 19.5 4t19.5 4q8 0 18.5 1t18.5 1h82h8h8q2 -2 6 -2h9q6 0 13 -1t15 -3t16.5 -5t16.5 -7 q10 -2 19.5 -7.5t17.5 -9.5q6 -2 11 -6t9 -6q4 -4 9.5 -7t11.5 -7v0zM870 483q-23 16 -53.5 31.5t-68.5 30.5q-31 12 -63 20t-67 10q-45 -4 -87 -21t-82 -46q-49 -33 -80 -96.5t-45 -155.5q-2 -4 -2 -8v-8v-13q0 -47 15 -80.5t48 -52.5q25 -16 55.5 -25.5t65.5 -11.5h7h7 q2 0 6 1t6 1q20 4 40 7.5t40 9.5q16 4 34 8t36 10q16 6 33.5 12.5t34.5 14.5q35 16 64.5 32.5t55.5 36.5v293v0v0z" />
<glyph unicode="e" d="M162 371q35 53 68.5 91t66.5 60q33 23 55.5 36t34.5 20q4 2 8 5t11 5q4 2 7 3t7 3q6 0 10 1t10 3q16 6 38 11t46 9q25 4 51.5 7.5t53.5 5.5h82h12h4h4h2h4q37 0 71 -6.5t62 -18.5q29 -12 46.5 -34.5t19.5 -57.5q0 -18 1 -32.5t3 -26.5q4 -12 7 -21.5t7 -15.5q2 -4 3 -8 t4 -9q0 -2 1 -5t3 -5q4 -4 5 -8t1 -8l-4 -10q-2 -2 -6.5 -5.5t-8.5 -7.5q-14 -2 -46 -8t-79 -14q-23 -4 -47 -8.5t-49 -8.5q-25 -6 -50.5 -10t-51.5 -8q-51 -8 -101.5 -16.5t-97.5 -16.5q-45 -8 -75.5 -13t-47.5 -9q12 -53 37 -95.5t64 -70.5q31 -25 74.5 -38t99.5 -18 q25 2 51 5.5t55 7.5q41 6 86 18t96 29q23 4 42.5 8t33.5 6q16 4 27.5 5t19.5 1h82q12 0 19.5 -1t9.5 -5q0 -2 1 -4l1 -2q0 -2 -1 -4t-3 -4l-8 -10l-13 -7q-37 -14 -74.5 -26t-78.5 -23q-39 -8 -81 -16t-83 -16q-31 -4 -61.5 -9.5t-61.5 -7.5q-31 -4 -60.5 -5t-58.5 -1 l-82 -2q-74 2 -136 13.5t-114 31.5q-51 20 -76.5 59t-25.5 95q0 23 4 46t12 50q10 29 23.5 57.5t34.5 61.5v2v0zM311 317q29 4 54.5 7.5t50.5 5.5q10 2 21.5 3t21.5 3q23 4 44 6t40 6q18 2 34.5 5t30.5 5q35 6 57.5 12.5t34.5 14.5q12 6 18.5 18.5t6.5 30.5v4t2 4v2v5v4t2 4 v2v4q0 25 -10 45t-31 37q-14 10 -31.5 17t-40.5 11q-8 -2 -18 -4t-23 -6q-27 -6 -54 -19.5t-56 -31.5q-23 -16 -44.5 -36.5t-43.5 -45.5q-20 -23 -36.5 -50.5t-29.5 -62.5v0z" />
<glyph unicode="f" horiz-adv-x="647" d="M207 612l-4 40t-4 38q-2 23 -2 45.5v42.5q0 115 17 204t54 151q37 61 77 106t85 72q10 6 21.5 12t23.5 10q10 4 21.5 9.5t21.5 7.5q23 6 42.5 11t35.5 7h82h8h8q18 0 32.5 -5t23.5 -15q10 -8 15 -19.5t7 -21.5v-9v-6q0 -12 -3 -22t-7 -21q-4 -8 -9 -10t-10 0h-81 q-6 2 -11.5 4t-9.5 4q-6 2 -11 4t-9 4q-8 4 -15.5 6.5t-13.5 6.5q-8 2 -15.5 5t-15.5 5q-2 0 -3 1t-3 1t-3 1t-3 1q-23 -10 -43.5 -35.5t-38.5 -66.5q-25 -57 -37 -175t-12 -296v-15.5v-13.5v-6v-6q0 -4 1 -7.5t1 -7.5v-15v-13v-15.5v-15.5q23 0 43 1t41 3q23 2 41 5t35 7 h82q18 0 28 -3t12 -9q2 -2 2.5 -5t0.5 -5q-2 -4 -3.5 -6t-5.5 -7q-4 -4 -9 -8t-11 -8q-2 -2 -6 -3t-6 -3q-4 -2 -7.5 -3t-7.5 -3h-2v0l-12 -4t-12 -2q-8 -2 -15.5 -4t-17.5 -5q-18 -2 -36.5 -5t-37.5 -5q-16 -2 -31.5 -4t-29.5 -2q-14 -2 -27.5 -2h-24.5q-2 -4 -3 -18.5 t-1 -36.5q-2 -25 -3 -54.5t-1 -64.5q-2 -18 -2 -36.5v-39.5v-20.5v-20.5q-2 -10 -2 -20v-21v0v0v-2v0v-20v-21q-2 -12 -2 -22.5v-20.5v-41.5v-44.5q-2 -84 -3 -166t-3 -157q-2 -37 -3 -67t-1 -50q-2 -20 -3 -33.5t-3 -17.5q-4 -10 -9.5 -18.5t-11.5 -14.5q-6 -4 -12 -7 t-12 -3l-82 -2q-4 2 -9.5 3t-9.5 3t-9 3t-9 3q-2 2 -5 13.5t-3 33.5q-2 20 -2 50v65v76.5t2 85.5q0 45 1 91t3 93v12v14v13.5t2 15.5q0 53 1 104.5t3 100.5v47.5t2 42.5v36.5v35.5v16v14q-2 6 -2 12.5v12.5v10v6q-2 4 -2 6.5v4.5h-26.5t-30.5 2q-8 0 -17.5 1t-17.5 3 q-10 2 -18.5 5t-18.5 5l-3 1t-7 3t-9.5 5t-11.5 7t-11 7.5t-9 9.5q-6 6 -8.5 12t-2.5 14v7l2 6l5 12l8 12q2 2 5 3t7 1h5t5 2h7.5h7.5h82h7h5q4 -2 7 -2h5h7h7q2 -2 6.5 -2h8.5v0h2v0v0v0z" />
<glyph unicode="g" horiz-adv-x="1226" d="M915 545q6 4 12.5 8t12.5 8q4 2 10 6t13 8q12 10 21 14.5t15 4.5h82v-28.5t2 -28.5v-28.5v-29.5v-28.5t2 -28.5v-26.5v-26.5q0 -184 -21.5 -336t-64.5 -273t-143 -197.5t-258 -109.5h-5t-7 -2h-5h-8h-5t-7 -2h-5h-7l-82 -2q-4 2 -8 2h-6q-4 2 -8.5 2h-8.5h-8h-6 q-4 2 -8 2h-8q-57 8 -108.5 29.5t-98.5 54.5t-71 67t-24 70v9.5v9.5t2.5 8t4.5 8q0 4 2 9.5t4 9.5q4 4 7 8t5 8l8 8l8 10q2 4 4.5 6.5l4.5 4.5q0 4 2 6l4 4l12 12q4 6 8 9l8 6l82 -3q4 4 9.5 4.5t11.5 -1.5v-9v-6l-2 -6v-6q0 -59 23.5 -108.5t72.5 -86.5q41 -31 85 -49 t91 -24q39 4 75 16t69 35q43 27 72.5 72t45.5 106q2 6 5 16.5t6 26.5q4 14 7 31.5t7 36.5q4 20 7 42.5t5 47.5q2 12 3 24.5t3 22.5t3 22.5t1 24.5v9t2 11v9.5v9.5v9t2 11v9.5v11.5v4v4v2v4q-23 -14 -48 -28.5t-52 -28.5q-45 -20 -90 -39t-92 -31q-27 -6 -52.5 -11t-50.5 -9 t-48 -6.5t-46 -2.5l-82 -2q-45 2 -85 12.5t-72 28.5q-33 20 -52.5 56.5t-23.5 87.5v4v4v2v4v12.5v12.5v6t2 6q0 2 1 5t1 5q10 78 53 147.5t119 133.5q74 66 157 97.5t173 33.5h82q18 0 36.5 -2t36.5 -6q16 -2 35 -8.5t37 -12.5q29 -10 53.5 -24.5t48.5 -34.5v0zM870 291v129 q0 31 -22.5 54.5t-69.5 39.5q-39 14 -84 22.5t-92 10.5q-27 -2 -54.5 -5t-53.5 -10q-35 -8 -61.5 -21t-43.5 -30q-27 -27 -45 -52.5t-31 -49.5q-12 -25 -18 -49.5t-6 -46.5q0 -45 18.5 -82t57.5 -66q31 -25 66.5 -38t78.5 -17h3t3 2h3h3q14 2 28.5 5t29.5 7q10 2 21 5t24 5 q6 2 12 3.5t12 3.5q4 2 10.5 4t12.5 4q27 10 52.5 25.5t51.5 35.5q27 20 50.5 48t43.5 61v2v0z" />
<glyph unicode="h" d="M129 0q-2 16 -2 34.5v37.5v37.5v40.5v82.5t2 84.5q0 43 1 86t3 86v19.5v17.5v9.5t2 11.5v9v9q0 45 1 89t3 89t3 88t1 84q0 59 -2 115.5t-6 108.5q-2 53 -8 98t-14 84q2 4 6 9t10 7q6 4 15.5 5t17.5 1h82h4h4q2 -2 5 -2h5h4h6q2 -2 5.5 -2h5.5q16 -6 31.5 -13t29.5 -17 t21.5 -23.5t7.5 -30.5q0 -127 -2 -237.5t-6 -202.5q-2 -92 -7.5 -170t-9.5 -143q-2 -45 -5 -85t-7 -75q18 33 39.5 64.5t46.5 62.5q35 43 78 79t96 62q14 6 27.5 11.5t25.5 7.5q12 4 24.5 5t22.5 1h82q31 0 55.5 -14.5t38.5 -42.5q16 -29 27.5 -73t20.5 -104q0 -18 2 -40.5 t6 -51.5q4 -27 11 -56.5t15 -59.5q12 -45 27.5 -87.5t34.5 -78.5q18 -35 39.5 -54.5t42.5 -19.5q10 -2 12 -7t-2 -14q-4 -10 -12.5 -19t-20.5 -17q-2 -2 -6 -4.5t-6 -6.5q-4 -2 -7 -4t-7 -4q-2 -2 -6.5 -4t-6.5 -4q-4 -2 -7 -4t-7 -4q-10 -4 -19.5 -9.5t-19.5 -7.5 q-8 -4 -16.5 -6t-14.5 -2l-82 -2h-10l-6 4l-4 4l-4 4q-12 16 -24.5 41t-24.5 62t-22.5 73.5t-20.5 77.5q-8 35 -15.5 68t-13.5 65q-6 33 -9 58.5t-7 44.5q-2 8 -3 17t-6 18q-2 4 -3 9t-1 9q-2 4 -3 9t-3 12q-8 23 -17 44t-22 42q-2 4 -4 6l-4 4q-2 4 -4 6l-4 4 q-27 -14 -51.5 -35.5t-46.5 -50.5q-27 -33 -50.5 -69.5t-42.5 -73.5q-10 -18 -19 -37t-19 -37q-8 -18 -16.5 -35.5t-16.5 -34.5q-6 -12 -11.5 -24.5t-9.5 -24.5q-2 -12 -5 -23.5t-7 -21.5l-4 -12t-2 -12q-2 -6 -4 -11.5t-4 -9.5t-5.5 -10t-5.5 -12q-2 -2 -4 -6.5t-4 -6.5 l-82 -2q-14 4 -25.5 7t-17.5 6l-16 4l-2 2h-2l-10 6q-2 4 -8.5 5t-14.5 3v0v0z" />
<glyph unicode="i" horiz-adv-x="532" d="M145 645v0v4l-2 2v4l7 17q4 4 7 5t9 1h82q6 0 14 -1t17 -5q10 -2 19 -7.5t17 -9.5q2 -2 4.5 -3t4.5 -1q0 -2 2 -3t4 -1q2 -2 4 -3t4 -1q2 -2 4 -3t4 -3q4 -2 6 -4t6 -2q2 -2 5.5 -4t5.5 -4q6 -2 11 -5.5t9 -7.5q4 -2 5 -10t3 -20v-12.5t2 -14.5v-14.5v-16.5v-21.5v-23.5 q-2 -12 -2 -24.5v-24.5q-2 -27 -3 -52.5t-1 -53.5l-2 -11v-10q-2 -25 -3 -49.5t-1 -48.5q-2 -25 -2 -47.5v-42.5v-23.5v-21.5t1 -19.5t3 -17.5v-6l2 -9v-8l2 -8v-2v-6l-6 -12q-2 -2 -6 -5.5t-8 -5.5l-6 -4l-5 -2h-81h-7h-4h-8l-8 2q-8 4 -16.5 5t-14.5 5q-4 2 -7 4.5t-7 2.5 l-4 4l-4 4l-6 4l-2 6q-2 6 -3.5 18.5t-1.5 30.5v36.5v45.5v9v12v10v12v33.5v36.5v36.5v36.5q-2 59 -4 112.5t-6 102.5t-12 77t-21 34v2v0zM260 1096l4 -2h-82l6 2h82h4h7h2h2q10 0 21 -2t22 -7q10 -4 18 -8l16 -8t14.5 -8t8.5 -8l4 -8v-193l-8 -6q-2 -2 -7 -2h-9h-82h-8.5 h-8.5t-9 1t-9 3q-10 4 -19.5 8t-19.5 10q-8 6 -12 15.5t-4 17.5l-15 195h82v0v0z" />
<glyph unicode="j" horiz-adv-x="532" d="M96 662q0 4 2 6t8 4q4 2 10.5 3t14.5 1h82q6 0 15.5 -1t17.5 -3q10 -2 19 -3t18 -3q6 -2 12 -4.5t12 -2.5q4 -2 10.5 -4t12.5 -4q12 -4 22 -8t19 -8l14 -12l4 -13q2 -6 3 -12t1 -16v-9.5t2 -11.5v-9v-11q0 -39 -4 -91.5t-10 -117.5q-6 -63 -15.5 -131t-21.5 -138 q-14 -76 -30.5 -151.5t-34.5 -147.5q-20 -72 -41 -126t-43 -87q-2 -4 -5.5 -8t-7.5 -8l-4 -4t-2 -6l-4 -4l-4 -4q-10 -12 -23.5 -24.5t-29.5 -22.5q-14 -10 -31.5 -16.5t-36.5 -6.5l-82 -2q0 2 -2 2h-6q-2 2 -5 2h-5h-6t-7 2q-2 0 -5 1t-5 1q-10 0 -16 3t-12 7 q-4 6 -7.5 12.5t-3.5 14.5l-2 4l2 4q4 12 12.5 21.5t20.5 19.5q12 8 31.5 12.5t46.5 4.5l80 -2q4 2 10 2h14t15.5 -1t15.5 -4l-82 -2q16 10 28.5 24.5t20.5 33.5q10 18 16.5 36.5t12.5 37.5q4 20 8 38.5t6 36.5t3 30.5t1 23.5q10 82 16.5 151.5t8.5 128.5q4 59 6 111.5 t2 97.5q0 66 -3 116t-9 83t-13.5 57.5t-15.5 38.5q-6 10 -10 16t-8 11q-4 4 -7 9t-8 9l-6 8l-2 12v3v0zM389 1047v-177q0 -8 -2 -13t-6 -9q-2 -2 -7 -4t-12 -2h-81h-9.5t-9.5 2q-6 0 -11 2t-9 4q-6 4 -12.5 7t-12.5 5q-6 4 -11 8t-9 9l-13 12l-6 10v11.5v11.5q-2 4 -2 9v11 q0 4 -1 9t-1 12q-2 4 -3 9t-1 9v2v4q-2 10 -3 21.5t-3 21.5t-2 22.5v24.5q2 4 5 8.5t7 6.5q4 4 9 5t12 1h81q4 0 10.5 -1t12.5 -3t12 -3t13 -6q6 -2 12 -5t12 -7q4 -2 6 -4t6 -2q2 -2 5.5 -4t5.5 -4l10 -8l8 -6v0z" />
<glyph unicode="k" d="M309 256q29 12 55.5 28.5t53.5 34.5q45 33 85 67t77 69q43 43 80.5 83t68.5 76q31 37 54.5 60.5t39.5 32.5h82q6 0 12.5 -6.5t12.5 -16.5q6 -12 10 -24.5t6 -24.5v-5t2 -5v-4.5v-4.5v-4t2 -4v-4v-4q0 -8 -1 -14t-3 -11l-10 -12q-8 -14 -21.5 -29.5t-29.5 -31.5 q-14 -14 -32.5 -29.5t-39.5 -30.5q-20 -14 -45 -29.5t-49 -31.5q-25 -14 -50.5 -29.5t-54.5 -32.5q10 -12 20.5 -24t22.5 -25q6 -6 12.5 -12t14.5 -10q6 -6 13.5 -12.5t15.5 -12.5l10 -10l12 -8q10 -10 21.5 -20.5t23.5 -20.5q12 -8 23.5 -17.5t19.5 -19.5 q16 -16 33.5 -31.5t38.5 -29.5q20 -14 41.5 -25.5t42.5 -17.5q6 -2 13 -4.5t16 -4.5q8 -2 15 -2h15h-82h7h8h6l6 2h82l2 -6v-4q0 -2 -1 -6t-3 -10q-2 -4 -3 -7.5t-1 -5.5q-2 -4 -3 -7t-3 -5q-6 -10 -12.5 -20.5t-16.5 -20.5q-8 -10 -17.5 -17t-19.5 -14q-4 -2 -8 -3t-8 -3 h-4t-2 -2h-4.5h-4.5l-82 -2l-12 2l-8 4q-8 8 -28.5 23.5t-55.5 40.5q-33 25 -67.5 49.5t-71.5 50.5l-10 6l-9 9q-37 29 -70.5 54t-64.5 50q-14 12 -27.5 23.5t-23.5 19.5l-119 -51v-17.5v-17.5t1 -16.5t3 -16.5v-11v-9t1 -8.5t3 -8.5q2 -14 3 -26.5t4 -22.5v-10t2 -8v-11.5 v-9.5l-13 -6q-2 2 -4 2t-2 -2h-4h-4l-82 -2l-12 2h-10q-10 4 -19.5 9t-19.5 12q-8 6 -14.5 13t-10.5 17q2 90 3 170t3 154q0 72 1 138.5t3 125.5q0 104 -1 190.5t-3 151.5q-2 33 -3 61.5t-1 55.5q-2 27 -3 49.5t-3 42.5q-2 39 -5 66.5t-5 46.5q-2 16 -3 30.5t-1 22.5v8l2 10 v0v2v0v2l4 9q4 2 7 3t7 1h82q6 0 13 -1t16 -3q4 -2 8 -3t10 -4l8 -4l8 -4q16 -6 29.5 -15t28.5 -22q12 -12 19 -25t7 -30l-2 -10l-2 -10l-47 -967v0z" />
<glyph unicode="l" horiz-adv-x="532" d="M178 387v451q0 66 -1 120t-3 95t-4 73.5t-4 57.5t-5 42t-5 29q-2 10 -3 19.5t-1 17.5q-2 4 -2 9.5t2 11.5l5 10t5 14q2 2 5 3t7 3t9 3.5t10 1.5h81h5.5h5.5q4 -2 7 -2h5q6 -2 12 -3.5t13 -5.5q14 -6 26 -12t25 -16q12 -8 20 -17.5t10 -19.5v-3t3 -3v-4v-7v-12v-14 q0 -29 -1.5 -72t-5.5 -100q-2 -29 -3 -59.5t-1 -61.5q-2 -33 -3 -65.5t-3 -67.5q-2 -23 -3 -46.5t-1 -45.5q-2 -25 -3 -48.5t-1 -46.5l-4 -98t-2 -96q-2 -47 -2 -91v-85q0 -45 1 -86t3 -76t5 -59.5t7 -38.5q0 -4 -3 -8.5t-7 -6.5q-4 -4 -10.5 -5t-12.5 -1l-82 -2q-2 2 -4 2 h-2q-2 2 -4 2h-4h-4h-4q-2 2 -4 2h-4q-8 2 -15.5 3t-15.5 5l-7 3.5t-7 1.5q-2 2 -5.5 3t-5.5 3l-10 6v6q-2 12 -4 26.5t-2 28.5q-2 16 -2 31.5v30.5v28.5v28.5t1 28.5t3 28.5v11v10v16t2 17v16v16v16.5t2 18.5v16.5v16.5v2v0z" />
<glyph unicode="m" horiz-adv-x="1564" d="M145 16q6 68 10.5 126.5t6.5 107.5q2 47 3 87t1 73v20v21q-2 8 -2 16v16v15.5v13.5q-2 6 -2 11v12q-2 10 -3 19t-1 17v12.5v12.5v4v4v2v4q0 4 1 8.5t3 8.5q4 0 7 1t7 1q2 2 6 2h6h7.5t5.5 2h7h5h82q25 0 43 -6t29 -23q10 -14 15 -33.5t5 -44.5t-4 -51t-10 -57 q-2 -10 -4 -20.5t-4 -20.5q-4 -10 -6.5 -20.5t-4.5 -20.5l4 4l4 4t4.5 4t4.5 4q6 8 13 16.5t15 16.5q4 4 7.5 8t7.5 10q2 4 6 8.5t8 8.5q8 8 16.5 16t16.5 17q6 8 14 15t17 15q16 14 29.5 26.5t27.5 20.5q23 12 41 22.5t33 16.5q16 6 29.5 9.5t25.5 3.5h82q27 0 43 -12.5 t24 -41.5q8 -27 12.5 -61.5t4.5 -77.5v-12v-12q-2 -8 -2 -14.5v-12.5v-4v-4v-4v-4q10 14 19 27t20 28q12 12 22 25.5t23 27.5q25 29 49 55.5t51 46.5q20 16 40.5 29.5t41.5 24.5q20 10 38.5 15t37.5 5h82q20 0 38.5 -8t34.5 -25q16 -16 28.5 -43.5t21.5 -64.5q4 -10 7 -30.5 t5 -49.5q4 -31 9 -61.5t11 -63.5q6 -39 15.5 -76t17.5 -71q10 -33 21.5 -49.5t25.5 -16.5l6 -3t4 -1q2 -2 4.5 -3t4.5 -3t3 -4l1 -2q2 -2 2 -4v-4v-4.5t-2 -2.5q0 -2 -1 -4t-1 -4l-9 -12q-6 -4 -14 -11.5t-18 -15.5q-10 -6 -21.5 -12t-21.5 -10q-6 -2 -12.5 -3t-12.5 -3 t-12 -3t-10 -1l-82 -3q-6 2 -11.5 2.5t-9.5 2.5q-6 2 -9 6t-5 8q-2 10 -5 20.5t-7 20.5q-2 10 -5.5 20.5t-7.5 20.5q-6 23 -11 45t-9 45q-2 6 -3 11t-1 11q-2 4 -3 10.5t-3 12.5t-3.5 12t-1.5 13q-2 4 -3 10t-1 12q-6 27 -12 51.5t-12 46.5q-8 23 -14.5 44.5t-12.5 41.5 q-8 23 -16 40.5t-19 27.5l-2 -2v0q-27 -14 -54.5 -36.5t-53.5 -57.5q-27 -33 -51.5 -70t-47.5 -74q-20 -37 -37.5 -70.5t-31.5 -66.5t-24.5 -55.5t-14.5 -36.5l-8 -8l-13 -2h-81q-2 2 -5 2h-2q-2 2 -4 2h-4h-4t-2 2q-2 0 -4 1t-4 1q-8 2 -17.5 6t-17.5 12t-11 17.5t-3 17.5 v4l2 6q8 47 14 89.5t10 76.5q4 35 6.5 63.5t2.5 53.5q0 31 -4.5 54.5t-12.5 37.5q-2 6 -8 12.5t-12 8.5v0v0h-2v0q-29 -12 -57.5 -37t-57.5 -60q-29 -37 -55.5 -75.5t-49.5 -79.5q-14 -27 -28.5 -53.5t-26.5 -51.5t-22.5 -46t-18.5 -40q0 -6 -4 -10t-10 -4q-8 -4 -15.5 -5 t-15.5 -1l-82 -2q-8 2 -15 3t-13 5q-6 0 -7.5 4t0.5 10v2v0z" />
<glyph unicode="n" d="M145 612q-2 2 -3 4t-1 5q-2 0 -2 2v4l-2 12l6 16q4 4 9.5 5.5t11.5 1.5h82h4h6q2 -2 5 -2.5t5 -0.5q4 -2 10.5 -3t12.5 -3q4 -2 7 -3t7 -3q2 -2 6 -3t6 -3q4 -2 7.5 -4t5.5 -2q4 -2 7 -4t5 -4l10 -9l6 -8q4 -2 6.5 -5t4.5 -9t3 -14.5t1 -18.5q0 -18 -2 -39.5t-7 -46.5 q-2 -12 -4 -24.5t-2 -26.5q-2 -12 -4 -25.5t-4 -27.5l-2 -4v-2q45 70 87 113.5t83 64.5q63 33 109.5 49t74.5 16h82h4h5h2h4h10h2h4q31 0 53.5 -21.5t36.5 -64.5t26.5 -90t20.5 -100v-6t2 -6q0 -4 1 -7.5t1 -7.5v-6t2 -6q0 -4 1 -7t1 -7q6 -39 14.5 -75t16.5 -67 q8 -33 19.5 -52t25.5 -26q10 -4 16.5 -9t8.5 -9q4 -6 4 -11t-2 -9q-4 -8 -12.5 -15.5t-20.5 -11.5q-6 -4 -12 -6t-12 -6q-8 -2 -14.5 -5.5t-12.5 -5.5q-8 -2 -15.5 -3t-13.5 -3h-5t-7 -2h-5h-5l-82 -2q-8 2 -15.5 3t-11.5 3q-6 2 -8 6.5t-2 10.5q-2 14 -7 34.5t-12 51.5 q-2 16 -6 31.5t-6 29.5q-4 16 -7 32.5t-7 33.5l-4 16l-4 16q-2 10 -4 19.5t-5 17.5q-6 18 -11 37t-9 37q-4 16 -8 31.5t-8 27.5q-8 31 -20.5 52.5t-26.5 35.5q-2 2 -5.5 4.5t-5.5 4.5q-4 2 -6 4t-6 4q-4 -2 -9 -4t-9 -6q-18 -10 -36 -24.5t-34 -33.5q-31 -33 -58.5 -72.5 t-56.5 -86.5q-27 -49 -51.5 -98.5t-42.5 -102.5q-2 -6 -5 -12.5t-5 -12.5q-2 -2 -3 -5t-1 -5l-3 -6t-1 -6q-2 -4 -6.5 -7.5t-8.5 -7.5q-2 -2 -5 -3t-5 -1h-6h-6h-82h-4h-2q-10 0 -19.5 3t-17.5 8q-8 4 -12.5 10t-4.5 14v32.5v33.5v33.5t2 35.5v33.5v36.5v16t3 19v16v16v21.5 t2 21.5v21.5v22.5v19t2 19v18.5v18.5v22.5v20.5q-2 10 -2 19.5v17.5q-2 16 -3.5 28.5t-3.5 20.5v2v0z" />
<glyph unicode="o" d="M662 629q16 -2 34.5 -3t40.5 -5q23 -2 47.5 -7.5t49.5 -11.5q41 -12 76.5 -30.5t68.5 -43.5t49 -59.5t16 -79.5q0 -20 -4 -40.5t-10 -43.5t-17.5 -47.5t-27.5 -50.5q-20 -33 -46 -61.5t-60 -55.5q-33 -27 -69 -46t-73 -32q-8 -2 -17 -5t-18 -5q-10 -2 -18 -4t-18 -4 q-18 -4 -35 -6t-33 -2h-12t-11 -2h-12h-12h-12.5t-10.5 -2h-12h-12l-82 -2h-12h-13q-57 4 -110.5 15t-100.5 32q-49 23 -75.5 67.5t-30.5 112.5q0 16 3 36.5t9 47.5t17.5 54.5t29.5 55.5q23 39 61 75t89 69q53 35 124.5 54t166.5 28v2h82v0zM807 371q-20 49 -48 82.5 t-63 52.5q-27 14 -55.5 23.5t-56.5 11.5q-20 -2 -41 -6.5t-41 -10.5q-31 -8 -56.5 -19t-44.5 -22q-8 -6 -15 -10t-13 -8t-9.5 -8t-7.5 -8q-2 -4 -5 -8.5t-7 -8.5q-2 -6 -4 -10l-4 -8q-4 -8 -7 -16.5t-7 -16.5q-2 -8 -4.5 -17.5t-4.5 -19.5q-2 -8 -2 -16.5v-16.5 q0 -51 21.5 -97t64.5 -85q35 -33 79 -52.5t93 -23.5v0v0q10 2 21.5 4t21.5 4q45 10 82 31t66 53q29 31 44 69t15 81v7v5q-2 4 -2 7v5q0 6 -1 12.5t-3 12.5l-2 12l-4 13v2v0z" />
<glyph unicode="p" horiz-adv-x="1226" d="M178 629q2 10 5 17t7 11t10.5 6.5t12.5 2.5h82q6 0 12 -1t12 -6q6 -2 12.5 -5t14.5 -7l12 -8q2 -2 4.5 -3t4.5 -1q0 -2 2 -3t4 -1q4 -2 8 -5t8 -8q2 -2 4 -3t4 -1q0 -2 2 -3t4 -1q4 0 5.5 -3l3.5 -7t3 -10t1 -15q0 -6 -1 -14t-1 -16q0 -2 -1 -5t-1 -5h2v0 q27 18 52.5 33.5t51.5 29.5q27 14 50.5 25.5t43.5 19.5q16 4 38 9t48 10q25 4 51.5 6t53.5 2h82h4h6q35 0 68.5 -6.5t66.5 -18.5t57.5 -32.5t42.5 -49.5q6 -12 10.5 -24.5t6.5 -24.5q2 -6 3 -12t1 -13q2 -8 2 -14v-12q0 -10 -1 -20.5t-3 -20.5t-3 -19.5t-3 -19.5 q-14 -47 -39 -93t-60 -89q-35 -45 -71.5 -81t-77.5 -65q-20 -14 -40.5 -25.5t-39.5 -21.5q-20 -8 -37.5 -14t-34.5 -8q-18 -4 -34.5 -7.5t-32.5 -5.5q-14 -2 -29.5 -3t-30.5 -3l-81 -2q-35 2 -63 7t-48 16q-20 8 -35.5 18t-26.5 23q-6 6 -9 12t-5 12l-3 6t-1 7v5v5q0 6 2 11 t4 7h82q4 4 9 4t12 -4l12 -6q4 -2 8 -3t8 -3q18 -6 42 -12.5t52 -12.5q16 -2 35 -5t37 -3q12 0 24.5 1t24.5 3q23 4 41.5 10.5t36.5 14.5q27 18 48.5 43.5t37.5 58.5q16 35 26.5 69t12.5 70v4.5t2 4.5v2v4v8v8q0 45 -12 85t-37 73q-20 27 -49 44t-68 23q-4 0 -8 -1t-8 -1 q-6 -2 -10 -3t-9 -1q-20 -2 -41.5 -8t-44.5 -14q-74 -27 -122 -84t-70 -144q-23 -86 -35 -177t-16 -185q-2 -16 -2 -33.5v-36.5v-33.5v-33.5v-6v-7v-5v-5v-12v-12v-45.5v-44.5q-2 -23 -2 -44.5v-41.5q0 -41 -3.5 -77t-7.5 -67q0 -10 -4 -13t-14 -1l-82 -2q-8 4 -17.5 8 t-19.5 10q-2 2 -5 4t-5 2q-4 2 -6 4.5t-4 4.5q-4 4 -8.5 8t-8.5 8q-6 4 -9 9t-7 9l-4 13v12v8q0 14 1 26.5t3 26.5q0 14 2 34t4 44q4 45 5 121t3 182q2 102 2 267t-4 389v2v0z" />
<glyph unicode="q" horiz-adv-x="1226" d="M985 -516h-8l-8 -2l-11 -2h-81h-9q-20 2 -35.5 6t-27.5 12t-16.5 17.5t2.5 19.5q0 4 -1.5 9t-1.5 10q-2 6 -2 11v9v19.5v21.5q0 27 1 52.5t4 53.5q0 14 1 27.5t3 26.5q0 14 1 27.5t3 27.5v4v4q4 29 5 55.5t3 53.5q2 16 2 32.5t2 30.5v16.5v16.5v6v6q0 2 -1 5t-1 6 q-18 -10 -37.5 -18.5t-40.5 -16.5q-33 -12 -61.5 -21.5t-57.5 -11.5q-27 -6 -43 -9t-20 -3h-8t-6 -2h-8.5h-8.5q-8 0 -15 -1t-14 -3h-16h-16h-8.5t-6.5 -3h-7h-7l-82 -2q-45 2 -86 9.5t-78 17.5q-37 12 -62.5 40t-39.5 69q-2 8 -4 15t-2 15q-2 8 -2 15.5v15.5v7v7v6.5v6.5v7 t2 7q0 2 1 6t3 6q12 59 46 116.5t91 113.5q55 55 116.5 95t125.5 64q14 4 27.5 9.5t27.5 7.5q12 4 25.5 7t27.5 5h4t4 2h4.5h4.5h82h8h8q35 0 66.5 -10t58.5 -29q4 -2 9 -6t9 -8v4q2 4 5 7t8 5q4 4 10 5t12 1h82h4h4q2 -2 4 -2h4q4 -2 9.5 -3t11.5 -1q12 -4 23.5 -10 t21.5 -14t17.5 -15.5t9.5 -15.5v-4v-2q-2 -16 -3.5 -32.5t-1.5 -33.5q-2 -18 -3 -34.5t-3 -32.5t-3 -34t-3 -34q-2 -18 -3 -35.5t-1 -34.5q0 -2 -1 -4l-1 -2v-4v-4l-2 -12q-8 -100 -15.5 -195.5t-13.5 -187.5t-10 -167t-4 -132v-23.5v-21.5t1 -19.5t3 -17.5v-2v0zM807 467 q-12 10 -22.5 19.5t-20.5 17.5q-10 10 -20.5 17t-20.5 14q-18 10 -36.5 18t-37.5 14q-6 2 -13 3t-15 3q-4 0 -7.5 1t-7.5 1q-49 -6 -93 -26.5t-79 -54.5q-45 -41 -73.5 -86.5t-41.5 -94.5q-2 -8 -5 -17t-3 -20q-2 -8 -2 -17v-19q-2 -20 2 -42t13 -40q8 -18 20 -35t29 -29 q12 -14 28.5 -23.5t36.5 -15.5q12 -2 24.5 -5t24.5 -3h6.5h6.5q2 0 5 1t5 1q16 4 33.5 7t36.5 10q31 8 61.5 20t60.5 27q29 16 55.5 35.5t49.5 41.5v277v0v0z" />
<glyph unicode="r" horiz-adv-x="872" d="M178 49q2 29 3 54.5t3 52.5v25.5t2 25.5v24.5v24.5v21.5v21.5q-2 10 -2 21.5v21.5v19.5v19.5q-2 8 -2 18.5v18.5q-2 16 -3 32.5t-1 30.5v28.5v25.5q0 18 1 32.5t3 22.5q4 10 8.5 15t12.5 5h2h4h8l6 2h82h8h6q25 0 43.5 -4t26.5 -14q10 -8 15.5 -23.5t5.5 -33.5t-3.5 -40 t-7.5 -46l-9 -45t-9 -52v0v0q25 31 48.5 59.5t43.5 53.5q23 25 37 45t22 35l-2 6v8q0 6 1 12.5t4 14.5q2 6 5 14t5 16q6 16 16 30t23 28q12 12 24.5 19t24.5 7h82h4t4 -2l2 -1t4 -1t4 -1t4 -1q0 -2 2 -3t4 -1q4 -51 12.5 -90t18.5 -63q10 -25 22.5 -42.5t24.5 -27.5 q8 -6 16.5 -10t16.5 -6t15.5 -3t13.5 -1h4h4q2 -2 4 -2.5t4 -0.5q4 -2 5 -5t1 -7q-4 -10 -12 -18t-21 -13q-12 -6 -24 -8t-29 -2h-82h-12h-12t-12.5 2t-12.5 4q-25 4 -46 13.5t-42 21.5l-1 1l-1 1q-2 0 -3 1l-1 1v-1v-1q-2 0 -2 -1v-1q-4 -6 -9 -13t-10 -13q-6 -8 -11 -14.5 t-9 -12.5l-9 -13.5l-9 -13.5q-6 -8 -11.5 -14t-9.5 -12q-25 -35 -47.5 -72t-44.5 -78q-23 -39 -39 -84t-27 -94h-6l-6 -2l-8 -2h-82h-6q-16 2 -30.5 4t-27.5 10q-12 8 -15 17.5t3 19.5v2v0z" />
<glyph unicode="s" horiz-adv-x="985" d="M356 451q4 -18 20.5 -30.5t49.5 -19.5q33 -6 71 -9t81 -7h7h7q2 -2 6 -2h8q8 -2 16.5 -2h16.5q53 -6 101 -14.5t94 -20.5q43 -12 65.5 -36.5t22.5 -59.5v-12v-4v-3q-2 -2 -2 -4v-4q-8 -57 -42 -102t-90 -74q-55 -31 -114.5 -47t-124.5 -23h-9t-10 -2h-9h-9h-8t-8 -2 h-10.5h-8.5l-82 -2q-57 2 -108 10.5t-97 22.5q-45 16 -67.5 39t-26.5 51q0 35 9.5 47.5t27.5 1.5h82q18 -8 49 -21t70 -30q23 -10 48.5 -19.5t55.5 -19.5q23 -6 45.5 -10t46.5 -4h3.5h3.5h1h3q14 0 27.5 3t27.5 5q20 4 35.5 15.5t23.5 27.5q10 16 15.5 34.5t7.5 39.5v2v4 q-2 20 -9 38.5t-22 37.5q-12 16 -29.5 27.5t-42.5 13.5h-22h-27h-82h-21h-22q-12 0 -23 1t-22 3q-45 4 -86 11t-77 22q-37 12 -55.5 35.5t-18.5 56.5q0 12 3 27.5t9 31.5t18.5 33.5t28.5 38.5q23 16 46.5 30.5t47.5 26.5q25 10 50.5 19.5t52.5 15.5q12 4 24.5 6t26.5 4 q12 2 24.5 3t24.5 3q25 4 49.5 5.5t46.5 1.5h82q23 0 43.5 -1.5t38.5 -3.5t33.5 -3t30.5 -3q6 -2 12 -3t12 -1q4 -2 9.5 -3t7.5 -1q10 -2 18 -8t16 -17q4 -4 6.5 -9t6.5 -9q2 -6 4 -11t4 -9q0 -4 1 -8.5t3 -8.5v-4t2 -4v-4v-4q0 -8 -2 -15.5t-6 -11.5q-2 -6 -8 -7t-13 1h-81 q-23 16 -47.5 28.5t-51.5 20.5q-27 10 -52.5 16.5t-53.5 10.5q-12 2 -22.5 3t-20.5 1h-3h-3q-33 -2 -64 -10.5t-57 -18.5q-35 -14 -52.5 -33.5t-17.5 -44.5v-9t2 -9q0 -6 3 -11t5 -9h-82v2h82v0z" />
<glyph unicode="t" horiz-adv-x="647" d="M436 580v0h7t8 2q2 0 6 1t6 1h12h7t7 2h11.5t11.5 2h10h13h12t10 2h11h10h81q10 0 19.5 -1t17.5 -3l15 -8q-6 -18 -24.5 -30.5t-49.5 -19.5q-31 -8 -85 -11t-132 -3v-53.5v-59.5v-64.5v-66.5v-84v-80v-69.5v-50.5q0 -4 -3 -8.5t-9 -6.5t-13.5 -3t-15.5 -1l-82 -2h-12 l-13 2q-12 4 -23 7t-22 8q-8 4 -13 9t-5 9q0 8 1 29.5t3 58.5q4 35 7 74t5 82v8l2 8q2 41 4 79t5 75q4 35 5 60.5t1 39.5h-4t-2 2h-4.5h-4.5h-4t-2 2h-4h-4h-8h-8h-13h-12h-10q-27 0 -50.5 2t-41.5 6q-20 4 -29.5 20.5t-9.5 43.5v4l2 6v4v6l6 6l8 2h82q4 0 11 -1t16 -5 q4 -2 8 -3t8 -1q6 -2 10 -3t11 -3q10 -2 19 -5t19 -7q2 0 3.5 1t3.5 1l1 1t3 1q2 8 3 17.5t1 19.5v20.5v20.5v12v12q-2 6 -2 13.5v13.5v12v15q-2 6 -2 13v13q-2 10 -3 20.5t-1 20.5v11.5v11.5q-2 4 -2 9v11q-2 23 -4.5 43.5t-4.5 38.5t-2 32.5v22.5q2 2 4 3t4 1q0 2 2.5 3.5 t4.5 1.5q4 2 8 3t8 3h82q10 0 20.5 -4t22.5 -11q6 -2 11 -6t11 -6q6 -4 12.5 -7t12.5 -7l4 -4l4 -2q6 -4 12.5 -10.5t8.5 -14.5q4 -8 5 -18.5t1 -22.5t-1 -26.5t-3 -30.5q-2 -8 -3 -16.5t-1 -16.5q-2 -8 -3 -16.5t-3 -16.5q-2 -14 -4.5 -27.5t-4.5 -27.5t-3 -27.5t-1 -27.5 q-2 -6 -2 -11.5v-9.5v-9v-9v-12.5v-12.5v-12t2 -12h-82v2h82v0z" />
<glyph unicode="u" d="M145 354q2 6 3.5 14.5t3.5 16.5q0 8 1 15.5t3 15.5v7t2 7v6v6v7.5t2 7.5q0 2 1 6t1 6q2 16 3 31.5t3 31.5t5 37t5 41l10 6l13 2h82h4h6q2 -2 5 -2h5q4 -2 10 -3t13 -5q4 -2 7 -4t7 -2q2 -2 6 -4t6 -4q6 -4 12.5 -9t12.5 -10q4 -4 9 -8t7 -8l10 -12l-4 -8t-2 -9 q-2 -6 -4 -11t-4 -11t-4 -12.5t-2 -12.5q-2 -6 -4 -13t-4 -15q-4 -14 -8.5 -30.5t-8.5 -33.5q-2 -16 -5 -32.5t-7 -32.5q-2 -14 -4 -28.5t-4 -29.5q-2 -14 -2 -26.5v-24.5q-2 -23 1 -43t9 -37q6 -14 15.5 -25.5t21.5 -15.5h2v0q10 4 21.5 8.5t23.5 10.5q33 16 64.5 41.5 t62.5 62.5q31 35 58.5 73t48.5 77q6 10 11 19t9 20q4 8 8 18t8 18q8 18 14.5 36t10.5 34q4 10 9 16.5t14 12.5l16 8t16 6q4 0 8.5 1t10.5 1q4 2 8 2h8h7t7 2h4.5h4.5h82v-4v-2q-2 -2 -2 -4v-4v-4v-2v-4v-4v-8.5v-8.5v-12v-6v-6q0 -53 5 -105.5t13 -101.5q10 -49 19.5 -90 t19.5 -72q4 -8 6 -17.5t6 -15.5q2 -8 5 -14l5 -10q6 -10 11.5 -15.5t9.5 -5.5q35 -6 44 -16.5t-7 -24.5q-14 -12 -46 -27.5t-79 -31.5l-12 -6l-13 -4h-82q-8 12 -16 31.5t-14 45.5q-8 29 -14.5 60.5t-12.5 64.5q-8 37 -15.5 70t-13.5 63q-4 -6 -9 -12t-9 -12q-4 -8 -9 -14.5 t-12 -12.5q-20 -27 -44.5 -53.5t-51.5 -50.5q-27 -25 -53.5 -45.5t-52.5 -36.5q-18 -12 -37 -20.5t-35 -14.5q-16 -2 -32.5 -5t-33.5 -3l-82 -2q-16 2 -31.5 5t-29.5 7q-14 6 -27.5 17.5t-25.5 27.5q-8 12 -12.5 27.5t-8.5 31.5q-2 16 -4 35t-2 39v24.5t2 24.5q0 12 1 24.5 t3 25.5v21t2 19v8.5t2 8.5v8v8v2v0z" />
<glyph unicode="v" horiz-adv-x="985" d="M354 -63q-76 166 -126 276.5t-72 165.5q-25 55 -43.5 92t-32.5 55l-6 9l-8 10q-2 2 -4.5 4t-4.5 4q-2 0 -4 2l-4 4q-2 4 -7 8t-9 11q-10 10 -10 17t10 11t24.5 7t32.5 3h82h8h8h4.5h6.5q2 -2 5 -2h5q10 -2 21.5 -3t23.5 -5q10 -2 19.5 -5t17.5 -7q10 -2 22.5 -23.5 t28.5 -60.5t33.5 -83t36.5 -91l2 -8l4 -9q16 -47 33.5 -91t31.5 -85q6 -14 11.5 -26.5t9.5 -22.5q6 6 11 11.5t9 11.5t9.5 13t11.5 13q16 23 32.5 48.5t32.5 54.5t31.5 59.5t30.5 61.5q16 37 29.5 72.5t23.5 68.5q10 35 15 63.5t5 53.5v4v6q-2 2 -2 4v4v4v4q-2 2 -2 4v4 q4 10 9.5 14.5t13.5 2.5h82q8 -2 16 -6t17 -15q4 -4 7 -9t7 -11q2 -4 6 -10.5t6 -12.5q6 -12 12.5 -24.5t10.5 -24.5q2 -4 3 -9t3 -9q0 -4 1 -9.5t3 -9.5q2 -8 3 -16t1 -14v-4.5v-4.5q-2 -2 -2 -4v-4l-4 -14q-10 -23 -25.5 -49.5t-36.5 -55.5q-20 -31 -43.5 -61.5 t-50.5 -60.5q-10 -14 -21 -27.5t-22 -26.5q-6 -6 -12 -13t-10 -13l-12.5 -12.5l-12.5 -12.5q-43 -47 -84 -86t-78 -65q-37 -31 -59.5 -42.5t-32.5 -0.5l-82 -2v0v0z" />
<glyph unicode="w" horiz-adv-x="1564" d="M274 145q-45 154 -86 249t-75 134q-35 37 -53.5 63.5t-20.5 41.5v12q2 4 5 7t5 7h12l13 3h82h10h12q45 0 76 -7.5t49 -21.5t33.5 -40t28.5 -61q10 -33 23 -73.5t28 -93.5q12 -43 31.5 -93.5t46.5 -109.5l1 1l1 1l1 1l1 1q14 16 28.5 37.5t28.5 48.5q8 12 15.5 24.5 t15.5 26.5q6 12 13 25.5t15 27.5q25 47 47.5 91.5t43.5 82.5q23 41 39 60.5t30 19.5h82q6 4 18.5 -15.5t32.5 -59.5q20 -41 42 -87.5t44 -95.5v-4l4 -4q20 -45 40 -88t38 -80q10 -23 19.5 -39t17.5 -26q12 10 25.5 27.5t27.5 39.5q16 29 30.5 56.5t27.5 58.5q4 14 9 27.5 t9 27.5t9 27.5t7 25.5q4 12 6.5 24.5t4.5 25.5q0 6 1 12t1 12q2 4 2 10.5v12.5q0 16 -1 29.5t-3 27.5q-2 6 -3 13t-1 14q-2 6 -3 12t-4 12q-2 4 -3 9.5t-1 11.5q-2 4 -3 9t-3 9q-2 10 -3 17.5t-1 13.5v9t2 9t5 7.5t7 5.5h82q39 -8 67 -23.5t42 -38.5q16 -23 23.5 -49.5 t7.5 -54.5v-8.5v-6.5q-2 -4 -2 -8v-8q-2 -8 -3 -15.5t-1 -15.5q-6 -25 -13.5 -47t-17.5 -45q-4 -12 -9.5 -22.5t-9.5 -20.5q-6 -10 -11 -18.5t-9 -16.5q-4 -6 -8 -11t-9 -9l-14 -17q-8 -12 -17 -26.5t-20 -30.5q-10 -14 -22.5 -29.5t-24.5 -31.5q-10 -14 -21.5 -26.5 t-21.5 -25.5q-10 -12 -21.5 -24t-21.5 -23q-20 -20 -39.5 -35.5t-38.5 -25.5q-18 -12 -34.5 -18.5t-30.5 -6.5l-82 -2h-4v0h-4h-2q-8 4 -21.5 22.5t-30.5 51.5q-16 35 -34.5 73t-36.5 79l-4 8l-4 8t-3.5 8t-3.5 8q-18 35 -34.5 68t-32.5 61q0 2 -1 4t-3 4q-2 0 -3 2.5 t-1 4.5q-4 -8 -10.5 -19.5t-12.5 -21.5q-20 -33 -40.5 -68t-43.5 -72q-4 -8 -8 -15t-8 -13q-4 -8 -8.5 -15.5t-8.5 -13.5q-25 -39 -46 -70.5t-44 -60.5q-20 -25 -38.5 -37t-32.5 -10l-82 -2q-6 8 -12.5 17t-12.5 20q-6 10 -12 21t-10 26q-2 4 -5.5 8t-5.5 10q-2 4 -4 9.5 t-4 11.5l-4 8t-2 10l-4 8t-4 9l-4 8t-4 10q-2 4 -4.5 8t-4.5 8v2v0z" />
<glyph unicode="x" d="M838 676l4 2h82h2h2l8 -2l12 -4q4 -2 6 -5t7 -5q2 -4 5 -6.5t5 -6.5q4 -2 6 -6t4 -6q2 -4 4 -7t4 -7l2 -13l2 -8l-2 -14l-6 -10l-6 -5l-6 -4q-18 -8 -49 -20t-76 -27q-45 -14 -92 -42.5t-97 -69.5q-6 -6 -12 -11.5t-12 -9.5q-6 -6 -11.5 -11t-9.5 -9q86 -106 150.5 -174 t103.5 -97q41 -27 70 -47t45 -33l8 -10l10 -8q0 -6 -7 -13t-19 -16q-14 -6 -28.5 -12t-31.5 -12q-8 -2 -16 -3t-16 -3h-7.5t-7.5 -2h-5h-7l-82 -2q-23 2 -46 16t-48 43q-25 27 -50.5 58.5t-51.5 68.5q-8 10 -16.5 20.5t-14.5 20.5q-8 10 -16.5 20.5t-16.5 20.5q-4 6 -9 12 t-11 12q-6 -8 -12.5 -17t-12.5 -19q-10 -14 -20.5 -31t-20.5 -33q-12 -18 -22.5 -35.5t-20.5 -36.5l-6 -10l-4 -8q-25 -37 -46.5 -73t-41.5 -68q-20 -35 -34.5 -57.5t-25.5 -30.5l-10 -9l-8 -2h-82l-8 2l-8 2q-8 4 -15.5 10.5t-13.5 12.5t-11 12l-10 12l-4 11v8l2 10l4 8 q12 23 32 47.5t44 55.5q25 27 51.5 58.5t53.5 64.5l8 10l8 10q23 27 44.5 51.5t41.5 48.5q23 25 41.5 46.5t32.5 39.5q-63 74 -120.5 125.5t-104.5 77.5q-47 27 -78 48.5t-43 39.5l-8 13l-3 12v4v4q2 4 8.5 7t14.5 5q10 2 21.5 3t25.5 1h82h7h7q4 -2 8.5 -2h8.5h8h8 q4 -2 8 -2h9q18 -2 36.5 -7t36.5 -11q16 -6 29.5 -12.5t21.5 -14.5q23 -20 39.5 -37.5t28.5 -31.5t23.5 -28.5t21.5 -27.5l4 -6l4 -4q4 -6 9.5 -12t9.5 -12l1 1l1 1l1 1l1 1q14 16 29.5 32.5t33.5 32.5q12 10 24.5 21.5t27.5 23.5q12 10 25 21.5t28 21.5q8 6 16 11.5t17 9.5 q6 6 14 11t16 9t15.5 8.5t15.5 8.5q6 2 13 5t16 5v0v0z" />
<glyph unicode="y" d="M436 0q-37 66 -65.5 119t-48.5 92q-20 41 -36 76t-28 65q-43 80 -80 132.5t-65 72.5q-31 23 -49.5 38t-26.5 23l-6 11v7t2 7q14 6 27.5 11t25.5 8q6 2 12 3t13 1q4 2 10 2h12h82q49 0 90 -23.5t74 -71.5q31 -47 59.5 -99t53.5 -109q6 -14 12 -30l12 -32q6 -14 12.5 -28.5 t12.5 -28.5q4 -10 8 -20.5t10 -20.5q4 -8 8 -17.5t8 -17.5v-1t3 -1v-3v-1l1 1l1 1q2 0 2 1v1q16 20 32.5 42.5t34.5 47.5q4 6 9.5 12t9.5 13l8 12l8 12q16 23 29.5 44.5t25.5 41.5t20.5 39t14.5 33q2 6 5 12t5 15q4 6 7.5 15t5.5 17q4 12 9 27.5t9 34.5q4 18 7 37.5t3 40.5 v9v11v6v6q-2 2 -2 5.5v5.5l6 4l9 2h82q4 0 10 -1t14 -5q8 -2 15.5 -7.5t15.5 -9.5q4 -2 8 -6t8 -6q2 -4 6 -7t9 -7q6 -8 12 -15.5t12 -15.5q4 -6 8 -12.5t6 -12.5q4 -6 5.5 -11t1.5 -9v-6l-2 -4q-20 -53 -56.5 -108.5t-87.5 -111.5q-51 -57 -104 -116.5t-111 -120.5 q-45 -51 -90 -101.5t-88 -105.5q-41 -53 -75 -108.5t-60 -112.5q23 2 49.5 5t52.5 7q10 2 19.5 3t17.5 1q4 0 9 1t12 1q4 2 9 2h9q37 4 73 7.5t68 7.5q35 2 60.5 3t46.5 1l82 -2q6 2 12 2h10l13 -6q12 -8 11 -17.5t-18 -15.5q-14 -6 -37.5 -12.5t-56.5 -12.5 q-33 -4 -70.5 -10t-82.5 -12t-92.5 -15.5t-94.5 -21.5q-27 -6 -53.5 -14.5t-52.5 -16.5q-27 -10 -51.5 -20.5t-47.5 -22.5l-4 -2l-2 -2h-82q-8 -2 -16 1t-16 11t-12.5 17.5t-8.5 19.5l-4 8v9q6 23 18.5 47t30.5 51t40 52.5t46 51.5q4 6 8 11.5t9 9.5q4 6 9 11l9 9 q10 10 19.5 21.5t19.5 21.5q8 10 18.5 21.5t18.5 21.5q18 20 33.5 40t27.5 34v0v0z" />
<glyph unicode="z" d="M242 629q51 4 97 7t87 5q41 4 80 5t72 1h81q61 0 109.5 -3t85.5 -9q18 -2 33.5 -6t30.5 -6q12 -4 23 -7.5t20 -7.5q2 -2 4 -3t4 -1q0 -2 2 -3t4 -1l10 -6l4 -6l6 -6q2 -2 3 -4.5t3 -6.5q0 -2 1.5 -4t3.5 -6q2 -6 3 -13t1 -16q0 -8 -1 -15t-5 -15q-2 -4 -4.5 -8.5 t-4.5 -8.5q-4 -6 -7 -10t-7 -8t-9 -8t-11 -8t-12.5 -8.5t-12.5 -8.5q-14 -8 -27.5 -15t-27.5 -16q-14 -8 -27.5 -15t-28.5 -13q-86 -45 -164.5 -86t-150.5 -76q-72 -37 -111 -61.5t-43 -40.5v-5l-2 -2q0 -16 27 -25t80 -13q35 -2 73.5 -3.5t79.5 -1.5q53 4 97.5 7.5 t83.5 5.5q41 4 72.5 5t56.5 1h82q18 0 32.5 -1t22.5 -3q10 -2 15 -6t5 -9q0 -6 -5 -11t-15 -9t-25.5 -8t-36.5 -8q-25 -6 -54.5 -11.5t-65.5 -9.5q-37 -2 -79 -7t-89 -11q-23 -2 -44.5 -3t-43.5 -3q-20 0 -42 -1.5t-42 -3.5q-41 -4 -80 -5t-74 -1l-82 -2q-37 2 -68.5 4 t-60.5 6q-29 2 -52.5 8.5t-41.5 14.5h-4l-6 8l-9 10l-2 13v4v4l1 2t3 4q2 4 6.5 8t10.5 8l22 13q21 12 64 39q43 25 91 54.5t99 61.5q2 2 4 3t5 4q2 0 4 1t4 3q4 4 8 7t8 5q16 10 33.5 21.5t32.5 21.5q16 10 31.5 20.5t29.5 20.5q4 2 15.5 8t27.5 16t34.5 21.5t39.5 26.5 q10 8 21.5 17t23.5 17q6 4 11 9.5t9 11.5q6 4 11.5 9t9.5 9t6 8.5t6 10.5q2 4 5 8t5 8q4 8 7.5 16.5t3.5 16.5v4v4q-2 0 -2 2v4t-1 4t-4 4l-1 2q-1 2 -3 5q-8 4 -17 8t-19 6h-3.5t-3.5 2h-3h-3q-12 -2 -25.5 -3t-27.5 -5q-27 -4 -53.5 -9.5t-53.5 -11.5q-12 -2 -22 -5 t-21 -7q-6 -2 -11 -3t-9 -1q-6 -2 -11 -3t-9 -3q-37 -10 -70 -19.5t-62 -17.5t-50 -12.5t-36 -4.5h-81l-15 3l-6 6q-2 4 -1 10t3 14q4 8 9 17.5t12 17.5q4 4 8 9t10 12l9 9t11 9q6 6 13.5 12t15.5 10q6 4 12.5 6.5t10.5 2.5v2v0z" />
<glyph unicode="{" horiz-adv-x="647" d="M129 500q49 10 82 31.5t47 56.5q16 35 23.5 77t7.5 89v15v15q-2 8 -2 15.5v15.5q-2 16 -2 31.5v32.5l-2 8v8q-2 14 -3 27.5t-1 27.5v25.5v28.5q0 59 12 112t39 98q25 45 84 68t151 23h82v-11v-10v-11v-9v-9q-59 -2 -97 -22.5t-54 -56.5q-16 -39 -24.5 -83t-8.5 -98v-12 v-12v-14.5v-12.5q0 -14 1 -27.5t3 -25.5v-12v-11v-21v-22v-11t2 -9v-11.5v-9.5q0 -51 -7 -96t-22 -86q-14 -41 -47 -67.5t-86 -36.5q49 -8 81 -34t46 -67q14 -39 21.5 -85t7.5 -97v-12v-10q-2 -6 -2 -12.5v-12.5v-24.5v-22.5v-12.5v-12.5q-2 -6 -2 -12v-12v-24.5v-22.5 q-2 -53 6 -101.5t24 -91.5q16 -41 55.5 -63.5t102.5 -24.5v-51h-82q-92 2 -150.5 24.5t-84.5 67.5q-27 45 -39 98.5t-12 114.5v17.5v19.5v11t2 11v9.5v11.5v6t2 6v5v5v9.5t2 11.5v16v17q0 6 1 14t1 16v15.5t2 15.5v15.5v15.5q0 47 -7.5 89t-21.5 77t-47 56t-84 30v2v0z" />
<glyph unicode="|" horiz-adv-x="372" d="M356 680v-71v-79v-87v-89v-112.5v-108.5v-92v-70q0 -4 -2 -10t-6 -8t-9 -4t-11 -2l-62 -2h-10l-8 2q-8 6 -17.5 10t-15.5 10q-6 4 -10 11.5t-4 13.5q0 10 1 38.5t1 78.5q4 47 6 99t4 109v13l2 10q0 55 2 105.5t4 101.5q2 45 3 80t2 103.5t1 80.5v27v26.5v26.5v17.5v17.5 v17v18v16v18q-2 8 -2 18.5v18.5q-2 14 -3 27.5t-1 27.5v14.5v14.5v13.5v15.5q-2 31 -4 57.5t-2 50.5q-2 25 -2 44.5v31.5l3 3t3 1q0 4 1 5t3 1q4 2 7 4.5t6 4.5h61q6 0 14 -5.5t17 -13.5q6 -4 9 -9t7 -7q6 -6 10 -10.5t8 -10.5l5 -4l2 -4q6 -6 10 -14t6 -19q2 -10 3 -24.5 t1 -30.5t-1 -35.5t-1 -40.5q-2 -12 -3 -22.5t-1 -22.5q-2 -10 -2 -21.5t-2 -21.5q-2 -20 -3 -37.5t-3 -36.5q-2 -20 -3 -37.5t-1 -37.5v-14.5v-12.5v-12v-13v-16v-16q-1 -8 -13 -119z" />
<glyph unicode="}" horiz-adv-x="647" d="M338 500q-45 0 -72.5 19.5t-38.5 58.5q-12 37 -17 82t-5 96v25.5v27.5v28.5v28.5v4l2 9v14v16v15.5v15.5q0 61 -8.5 116.5t-24.5 102.5t-56 71.5t-106 24.5h-6h-6v52h82h6h6h5h5h6.5h6.5h5h5q82 0 134 -22.5t73 -70.5q23 -45 34 -100t11 -119v-12v-12q-2 -6 -2 -12.5 v-12.5v-12v-12v-14.5v-12.5v-8v-8q-2 -14 -3 -28.5t-1 -29.5v-28.5v-28.5q0 -51 6 -95t18 -81t43 -59.5t78 -30.5q-45 -8 -74.5 -30t-42.5 -58q-12 -37 -18 -79t-6 -91v-24.5v-25.5v-12t2 -12v-12.5v-12.5v-12v-12v-14.5v-12.5v-12t2 -12v-12.5v-12.5q0 -66 -12.5 -126 t-34.5 -114q-25 -53 -83 -79.5t-153 -26.5l-82 -2v49q59 6 97.5 26.5t56.5 57.5t27.5 80t9.5 92v11v14q-2 8 -2 15v15q-2 16 -3 31.5t-1 30.5v6v6q-2 16 -3 33.5t-1 34.5q-2 16 -2 33.5v31.5q0 45 6 84t20 72t43 53t74 29v2v0z" />
<glyph unicode="~" horiz-adv-x="1306" d="M1098 645l80 -80q-37 -51 -71 -87t-69 -54q-33 -20 -65.5 -29.5t-63.5 -9.5h-82q-29 0 -56.5 5t-53.5 18q-27 10 -53.5 22t-53.5 27q-12 6 -25.5 12t-25.5 12q-14 4 -26.5 10.5t-24.5 12.5q-6 4 -13.5 6t-13.5 4t-13 4t-13 4q-2 0 -4 -1l-2 -1q-2 0 -4.5 -1t-4.5 -1 q-12 -2 -24.5 -8t-24.5 -14q-6 -4 -12 -9.5t-12 -11.5q-8 -4 -14.5 -10t-12.5 -12q-12 -14 -24.5 -30.5t-24.5 -37.5h-82l-80 82q35 47 68.5 79t66.5 50t64.5 27.5t64.5 9.5h82q29 0 58.5 -6t56.5 -17q14 -6 28.5 -11t28.5 -11q12 -6 26.5 -12.5t28.5 -12.5 q27 -14 52.5 -26.5t50.5 -22.5q6 -2 13 -5t16 -5q8 -2 15 -4t13 -2q8 2 15.5 4t15.5 6q6 2 13 6t16 10q25 16 48 46t46 73v2h82v0z" />
<glyph unicode="&#xa1;" horiz-adv-x="647" d="M178 -451q0 33 2 73t6 93q4 51 10.5 107.5t12.5 116.5v13v15q-2 6 -2 13.5v15.5v30.5v34.5v8.5v8.5q-2 4 -2 9v9v19.5v17.5v8v11v8v8v19.5v17.5q0 35 1 67.5t3 59.5q2 29 6 46t10 23l6 2l9 3h82h4h4q2 -2 5 -2.5t5 -0.5q4 -2 10 -3t12 -3q4 -2 9.5 -6t11.5 -6q4 -4 9 -7 t9 -7q10 -8 14.5 -16.5t4.5 -18.5q-6 -25 -10 -64t-4 -92q-2 -55 -2.5 -123.5t-0.5 -150.5v-24.5v-24.5q0 -10 1.5 -22.5t1.5 -24.5q0 -23 1 -46.5t3 -46.5v-42t2 -37v-18.5t2 -18.5v-16.5v-16.5q0 -23 -1 -41.5t-3 -30.5t-7.5 -19t-13.5 -7h-4t-4 -2h-6h-4h-4t-5 -3h-4h-4 l-82 -2q-27 2 -45 9.5t-28 19.5q-10 14 -15.5 28.5t-5.5 30.5v-2v0zM225 709l8 6h3.5t3.5 2h4h4h82h4h4q2 -2 4 -2h4q4 -2 8 -3t11 -1q4 -2 7 -4t7 -5q2 -2 6 -4t6 -4q6 -4 12.5 -9t8.5 -9l6 -8l2 -9v-49v-47v-43v-39l-2 -12q-2 -2 -6 -2h-9h-81h-5.5h-5.5q-4 0 -6 1t-6 1 q-2 0 -6 1t-6 1q-4 2 -7.5 3t-7.5 3q-8 4 -17 7t-17 8q-8 4 -14.5 8t-10.5 8l-4 2v4v7v5q-2 4 -2 7.5v5.5v7v7v6v6v6v9q-2 4 -2 9v11v9v12q0 14 1 26t3 25q2 10 6 19t10 16v2v0z" />
<glyph unicode="&#xa2;" horiz-adv-x="1226" d="M549 -33h-12l-9 -2h-82h-12h-10q-80 2 -136.5 15.5t-90.5 37.5q-35 27 -53.5 61t-18.5 73q0 16 2 34.5t8 36.5q4 10 7 19.5t8 19.5q4 8 8 18.5t10 18.5q31 53 78 103.5t110 97.5t135 79.5t154 47.5q10 35 17.5 58.5t11.5 37.5t7 22.5t5 10.5l4 2h82h8l4 -2h7l10 -4 q2 -2 3 -6.5t1 -8.5v-4v-6q-2 -2 -2 -4v-6q0 -2 -1 -5t-1 -5q-2 -4 -2 -6.5v-6.5l-4 -12l-2 -10v-4v-4q-2 -2 -2 -4.5v-4.5v-12h-82h9t11 2h9h10h8t10 2h8h8h82q41 0 71 -6t50 -16q18 -10 30.5 -25.5t18.5 -36.5q2 -6 3 -12t1 -10v-5.5t2 -5.5v-4v-4q0 -8 -1 -13t-5 -9 q-2 -2 -7 -4t-9 -2h-82q-8 0 -17.5 2t-21.5 6t-24.5 8t-28.5 10q-16 4 -34.5 9.5t-41.5 9.5h-3h-1q-2 0 -3 1t-3 1l-8.5 -25.5t-8.5 -28.5q-4 -14 -8 -27.5t-8 -29.5q-8 -33 -16.5 -66.5t-16.5 -68.5q-10 -39 -20 -79t-21 -77q-8 -37 -17 -68.5t-20 -56.5h3h4q2 -2 3 -2h3 q45 2 83 7.5t68 15.5q37 12 71 25.5t60 27.5q4 2 9.5 4t11.5 6q4 2 9 5t9 6q4 2 8.5 4t10.5 6l8 4l8 4q10 4 17.5 8t15.5 6q8 4 14 5t10 1h82q12 0 14.5 -6t-3.5 -18q-8 -14 -24.5 -27.5t-45.5 -29.5q-8 -4 -17.5 -9.5t-19.5 -9.5q-8 -4 -19.5 -8t-21.5 -8 q-18 -8 -37.5 -14.5t-42.5 -12.5q-20 -4 -43.5 -8t-46.5 -8q-33 -6 -63.5 -11.5t-59.5 -9.5q-14 -2 -28.5 -4t-24.5 -4q-12 0 -22.5 -2t-18.5 -4q-10 -31 -17.5 -53.5t-11.5 -36.5q-4 -12 -7 -21.5t-5 -11.5l-4 -6l-6 -2h-82h-6h-8l-13 4q-2 4 -3 7t-1 7q0 8 2 18.5t6 26.5 q4 14 10.5 36t14.5 48l82 -2v0v0zM608 535q-14 -6 -28.5 -12.5t-28.5 -14.5q-33 -18 -59.5 -38.5t-47.5 -43.5q-12 -12 -21 -24.5t-15 -24.5q-8 -12 -12.5 -21.5t-6.5 -19.5q-4 -14 -7 -26.5t-5 -24.5t-3 -24.5t-1 -22.5q0 -41 12 -75t37 -61q14 -14 30.5 -26.5t36.5 -22.5 l119 482v0z" />
<glyph unicode="&#xa3;" horiz-adv-x="1226" d="M317 637q-2 8 -4 16.5t-4 16.5q-2 4 -2 9t-2 9q-2 16 -3 31.5t-1 30.5q-2 94 37 174t117 147q78 66 166 99.5t186 33.5h82q14 0 28.5 -1t28.5 -3t27.5 -3t27.5 -5q41 -12 72 -31.5t51 -44.5q18 -27 28.5 -60.5t10.5 -74.5q0 -33 -4 -55.5t-14 -38.5q-8 -14 -19.5 -22.5 t-23.5 -8.5h-82h-9t-10 2q-4 2 -9 5t-9 5q-2 4 -3 9.5t-1 11.5q-2 4 -3 9t-1 9q-2 10 -4 19.5t-2 17.5q-8 35 -18.5 63.5t-22.5 55.5q-14 25 -44 45t-77 35h-3t-1 2h-3h-3q-55 -8 -98.5 -44t-75.5 -95q-39 -70 -58.5 -149t-19.5 -165v-11v-9v-11.5t2 -9.5v-11v-9v-5t2 -5v-1 v-2v-3v-3h4h4h2h4h21.5t21.5 2h20.5h20.5h82q84 0 138.5 -4t80.5 -10q27 -8 28 -15t-22 -16l-10 -4l-8 -2q-12 -6 -29.5 -10t-40.5 -6q-25 -2 -49 -3t-51 -1h-82h-4h-2h-4h-4h-4h-2h-4.5h-4.5h-20h-21h-11t-9 2h-9h-10h-3h-1h-3h-3q0 -8 1 -18.5t3 -20.5q2 -12 4 -23.5 t5 -21.5q0 -6 1 -12.5t3 -12.5q0 -8 1 -14t3 -12q2 -12 3 -24.5t1 -25.5v-8v-8v-4v-2q-2 -2 -2 -4v-4q-2 -12 -6 -24.5t-9 -22.5q-4 -12 -10 -22.5t-14 -20.5q-2 -4 -6 -9.5t-8 -9.5q-2 -6 -6.5 -11t-8.5 -9q-8 -10 -16 -20.5t-19 -20.5q-10 -12 -22 -22.5t-27 -20.5 q-14 -10 -29.5 -19.5t-33.5 -19.5q35 -2 78 -5t92 -5q45 -2 90 -2h92h91t89 2q49 2 93 5t83 5h82q27 0 39 -4t12 -13q0 -8 -9 -15t-25 -15q-14 -8 -36 -16.5t-48 -14.5q-27 -4 -52.5 -8t-54.5 -6l-10 -2h-10l-580 -17h-82q-8 2 -15 2h-13h-15.5h-15.5q-33 2 -61.5 9.5 t-55.5 17.5q-27 8 -39 33.5t-12 64.5q66 0 122 12.5t101 38.5q45 25 67.5 68t22.5 104q0 23 -4 46.5t-10 50.5q-6 23 -15.5 50.5t-21.5 55.5q-2 -2 -4 -2h-6h-82h-8h-9h-25t-22 2q-8 2 -14 5l-10 5l-10 7q-2 2 -4.5 3t-2.5 3q-2 2 -4 5t-4 5q-2 4 -5 8t-7 10q-2 6 -5 12.5 t-5 12.5q-2 4 -3 8t-1 8q0 2 -1 4t-1 5v2v4v8l4 8l10 8h3t3 2h4h4h82q6 0 15.5 -1t19.5 -3t22.5 -4t24.5 -4q2 0 4 -1t4 -1t4 -1t4 -1v0z" />
<glyph unicode="&#xa4;" horiz-adv-x="1226" d="M1178 967l-113 -129q16 -20 28.5 -40t22.5 -38q10 -20 19.5 -40t17.5 -38q6 -20 11 -40.5t7 -39.5q4 -20 6.5 -38.5t2.5 -37.5q0 -47 -9.5 -92t-27.5 -86t-42 -76.5t-52 -64.5l129 -111l-80 -80h-82l-82 82q-25 -14 -49.5 -26.5t-50.5 -22.5q-39 -16 -81 -24.5t-87 -8.5 h-82q-37 0 -75 6.5t-79 18.5q-29 10 -60.5 23.5t-64.5 33.5l-78 -65h-82l-82 80l115 96q-33 43 -55.5 86t-34.5 82q-14 41 -21.5 80t-7.5 75q0 47 8.5 90.5t26.5 82.5q18 41 39 77.5t45 69.5l-115 100l82 80h82l82 -69q35 16 69 29.5t66 21.5q41 12 80 18t72 6h82 q47 0 87 -8t77 -24q23 -8 46 -19.5t44 -23.5l67 69h82l97 -65v0v0zM967 596q0 10 -2 22.5t-7 26.5q-4 12 -10 26.5t-12 28.5q-20 37 -49 71t-66 67q-37 31 -75.5 50t-79.5 25h-5.5t-5.5 2h-6h-4h-4t-4 3h-4h-4h-4q-63 -6 -121 -27t-109 -57q-61 -43 -91 -98.5t-30 -125.5 v-12v-8l-2 -12v-11q0 -111 27 -191.5t82 -129.5t115.5 -77t126.5 -34v0h2v0v0q31 2 60.5 8.5t55.5 18.5q37 14 65 33.5t48 44.5l5 4t13 12q10 10 19.5 22.5t21.5 30.5q4 8 9.5 18.5t11.5 20.5l9 22.5t9 26.5q10 27 14.5 57.5t4.5 67.5v17.5v17.5q0 10 -1 19.5t-3 17.5v2v0z " />
<glyph unicode="&#xa5;" horiz-adv-x="1374" d="M389 586h373q55 0 99 1t79 1q33 2 60.5 3t47.5 1q20 2 35 3t25 3q8 0 15 1t15 1q2 2 6.5 2t10.5 -2q4 -2 9 -3t11 -3q2 0 3 -2t1 -4q2 -2 3.5 -4t1.5 -4v-43v-2v-2q-2 -2 -3 -4v-2q-2 -4 -2 -7.5t-4 -7.5q-6 -6 -11 -12t-13 -12q-6 -6 -13.5 -10.5t-17.5 -6.5h-1h-3h-4 h-4h-11.5h-11.5h-59.5t-81.5 2q-25 2 -50.5 2h-49.5q-27 2 -54.5 2t-56.5 2q-18 0 -37.5 1t-38.5 1q-20 0 -39.5 1.5t-38.5 1.5q-41 0 -81.5 1t-79.5 1q-39 2 -75 2h-71q-37 0 -70.5 -1t-62.5 -1q-29 -2 -49.5 -3.5t-32.5 -3.5q-4 0 -7 1t-5 4q-2 2 -3 5t-1 7l-2 41q2 2 2 3 v1q2 0 2 1v3v1v3v1v3q2 4 3 8t5 9q2 2 2 3v3l3 3l3 3l4 4h6q10 2 21.5 3t23.5 1h26.5h25.5h23.5h23.5h24.5t22.5 -2h8h10h13.5h13.5h13h14h13t15 -2h13.5h13.5h2v0zM389 324h373q55 0 99 1t79 1q33 2 60.5 3t47.5 1q20 2 35 3t25 3q8 0 15 1t15 1q2 2 6.5 2t10.5 -2 q4 -2 9 -3t11 -3q2 0 3 -2t1 -4q2 -2 3.5 -4t1.5 -4v-43v-2v-2q-2 -2 -3 -4v-2q-2 -4 -2 -7.5t-4 -7.5q-6 -6 -11 -12t-13 -12q-6 -6 -13.5 -10.5t-17.5 -6.5h-1h-3h-4h-4h-11.5h-11.5h-59.5t-81.5 2q-25 2 -50.5 2h-49.5q-27 2 -54.5 2t-56.5 2q-18 0 -37.5 1t-38.5 1 q-20 0 -39.5 1.5t-38.5 1.5q-41 0 -81.5 1t-79.5 1q-39 2 -75 2h-71q-37 0 -70.5 -1t-62.5 -1q-29 -2 -49.5 -3.5t-32.5 -3.5q-4 0 -7 1t-5 4q-2 2 -3 5t-1 7l-2 41q2 2 2 3v1q2 0 2 1v3v1v3v1v3q2 4 3 8t5 9q2 2 2 3v3l3 3l3 3l4 4h6q10 2 21.5 3t23.5 1h26.5h25.5h23.5 h23.5h24.5t22.5 -2h8h10h13.5h13.5h13h14h13t15 -2h13.5h13.5h2v0zM492 14q-10 20 -30 75.5t-49 143.5q-32 90 -66 187.5t-72 202.5q-10 29 -21 56.5t-21 53.5q-10 29 -20.5 54.5t-20.5 52.5q-34 80 -66 148.5t-62 125.5q-31 59 -55.5 90t-47.5 35l-5 8l-2 10q2 10 8 16.5 t17 8.5q10 4 21.5 6t25.5 2h69h6.5h4.5q3 -2 6 -2h5h10h10q17 -2 34 -6t32 -8q16 -4 26.5 -9t17.5 -10q35 -20 70.5 -94t73.5 -200q39 -129 83.5 -267.5t92.5 -287.5q10 -33 21.5 -67t23.5 -67q4 -8 6.5 -16t4.5 -16q4 -8 6.5 -16.5t4.5 -16.5q24 35 46.5 71.5t44.5 75.5 q33 55 64 110.5t59 113.5q45 90 79.5 179t63.5 175q28 86 41.5 161.5t13.5 139.5q0 16 -1 32.5t-4 30.5q-2 16 -5.5 29.5t-6.5 26.5q-5 16 -1 18t18 -8h69q14 -10 31.5 -26.5t35.5 -39.5q3 -4 6.5 -8t6.5 -8q2 -6 6 -10t7 -8q4 -4 7 -8.5t5 -8.5q3 -6 6.5 -10t5.5 -8 q8 -12 13.5 -24.5t11.5 -24.5q5 -12 7.5 -22.5t2.5 -20.5l-2 -15l-3 -10q-175 -393 -314.5 -646t-244.5 -368q-104 -111 -156.5 -190.5t-52.5 -128.5q2 -2 5.5 -3t8.5 -3q15 2 33.5 3t39.5 5q19 2 37.5 5t37.5 5q21 4 40 6t40 6q4 2 6.5 3t5.5 1h7h7q31 6 62.5 11.5 t61.5 9.5q30 6 55 9t46 5l69 -2q5 2 9 0t4 -8t-2.5 -12t-7.5 -13q-6 -4 -11.5 -8t-11.5 -8q-7 -4 -16 -7t-19 -5l-630 -180q-4 0 -7.5 -1.5t-7.5 -1.5h-3t-3 -2h-5.5h-3.5l-70 -2h-3h-2q-10 4 -19 7.5t-17 9.5q-7 6 -12.5 16t-5.5 23v8t2 8q0 4 1.5 9t3.5 10q50 59 97 113 t91 104q40 47 62 74.5t23 41.5v0z" />
<glyph unicode="&#xa6;" horiz-adv-x="372" d="M333 59v-30v-34v-37.5v-38.5v-48v-47v-39.5v-29.5q0 -2 -2 -4.5t-6 -3.5t-9 -2t-11 -1l-62 -1h-10l-8 1q-8 3 -17.5 4.5t-15.5 4.5q-6 2 -10 5t-4 6q0 4 1 16t1 34q4 20 6 42.5t4 46.5v6l2 4q0 24 2 45.5t4 43.5q2 20 3 35t2 44.5t1 34.5v11v11.5v11.5v8v7v7.5v7.5v7.5 v7.5q-2 3 -2 7.5v8.5q-2 6 -3 11.5t-1 11.5v6.5v6.5v5.5v6.5q-2 14 -4 25t-2 22q-2 11 -2 19v13l3 1.5t3 0.5q0 2 1 2.5t3 0.5q4 1 7 2l6 2h61q6 0 14 -2.5t17 -6.5q6 -1 9 -3.5t7 -2.5l10 -5l8 -4l5 -2l2 -2q6 -2 10 -5.5t6 -8.5q2 -4 3 -10.5t1 -13.5t-1 -15t-1 -17 q-2 -6 -3 -10.5t-1 -9.5q-2 -4 -2 -9t-2 -9q-2 -9 -3 -16.5t-3 -15.5q-2 -9 -3 -16.5t-1 -15.5v-6.5v-5.5v-5.5v-5.5v-6.5v-6.5zM333 637v-30v-34v-37.5v-38.5v-48v-47v-39.5v-29.5q0 -2 -2 -4.5t-6 -3.5t-9 -2t-11 -1l-62 -1h-10l-8 1q-8 3 -17.5 4.5t-15.5 4.5q-6 2 -10 5 t-4 6q0 4 1 16t1 34q4 20 6 42.5t4 46.5v6l2 4q0 24 2 45.5t4 43.5q2 20 3 35t2 44.5t1 34.5v11v11.5v11.5v8v7v7.5v7.5v7.5v7.5q-2 3 -2 7.5v8.5q-2 6 -3 11.5t-1 11.5v6.5v6.5v5.5v6.5q-2 14 -4 25t-2 22q-2 11 -2 19v13l3 1.5t3 0.5q0 2 1 2.5t3 0.5q4 1 7 2l6 2h61 q6 0 14 -2.5t17 -6.5q6 -1 9 -3.5t7 -2.5l10 -5l8 -4l5 -2l2 -2q6 -2 10 -5.5t6 -8.5q2 -4 3 -10.5t1 -13.5t-1 -15t-1 -17q-2 -6 -3 -10.5t-1 -9.5q-2 -4 -2 -9t-2 -9q-2 -9 -3 -16.5t-3 -15.5q-2 -9 -3 -16.5t-1 -15.5v-6.5v-5.5v-5.5v-5.5v-6.5v-6.5z" />
<glyph unicode="&#xa7;" horiz-adv-x="1226" d="M969 1178q4 -14 7 -28.5t5 -27.5q2 -12 3 -24.5t1 -22.5q0 -25 -4 -43t-10 -31q-6 -14 -13.5 -21t-15.5 -11l-6 -2h-82h-4h-8t-8 2q-2 2 -5.5 5t-5.5 7q0 51 -13 93t-42 75q-20 25 -45 40t-53 21q-12 -2 -25.5 -7t-28.5 -9q-25 -10 -49 -27.5t-49 -40.5q-8 -12 -15 -24 t-11 -23q-4 -10 -6.5 -21t-2.5 -22q0 -29 11.5 -53.5t35.5 -46.5q25 -20 51.5 -37.5t57.5 -30.5q16 -8 32.5 -15t33.5 -13q16 -6 29.5 -10.5l25.5 -8.5q10 -6 19 -11t20 -9q10 -6 21 -10.5t22 -8.5q2 -2 4 -3t4 -1q0 -2 2 -3t4 -1t4 -1t4 -1q0 -2 2 -2h4q37 -16 72 -34.5 t66 -41.5q31 -20 46 -50t15 -71q0 -14 -2 -27.5t-6 -29.5q-4 -14 -10.5 -31.5t-16.5 -35.5q-10 -27 -29.5 -49.5t-48.5 -45.5q-29 -20 -59.5 -39.5t-60.5 -35.5q-2 -2 -5.5 -3.5t-5.5 -3.5l-6 -3l-6 -3q-2 -2 -5 -3t-7 -1q-2 -2 -5 -3t-5 -3q45 -8 86 -23.5t77 -35.5 q37 -20 56.5 -52t21.5 -73q0 -14 -3 -30.5t-9 -33.5q-6 -14 -14.5 -31.5t-20.5 -37.5q-25 -37 -61.5 -68t-83.5 -55q-49 -23 -99.5 -38.5t-103.5 -23.5q-10 -2 -21.5 -3t-21.5 -1h-12.5t-10.5 -2h-11h-9l-82 -2q-59 2 -111.5 14.5t-97.5 34.5q-45 25 -66.5 62t-21.5 88 q0 14 2 29.5t6 29.5q4 16 11.5 34.5t17.5 39.5q8 4 14 8t13 6q6 2 11 3t9 1h82q6 0 10 -3t6 -9t3 -15.5t1 -19.5q0 -14 2 -28.5t5 -28.5q2 -16 8 -33.5t16 -36.5q12 -23 33.5 -41t52.5 -33q27 -12 55.5 -19t57.5 -11q16 2 31.5 5t29.5 7q23 8 42.5 18.5t33.5 24.5 q12 10 21.5 21.5t17.5 21.5q4 6 7 12t7 11q2 6 5 12t5 12q4 8 5.5 15.5t3.5 13.5q0 4 1 6t1 6q2 4 2 7v7q0 39 -14.5 73t-43.5 61q-29 29 -61.5 42t-69.5 13h-33.5h-33.5t-33.5 1t-34.5 3q-57 4 -111.5 18.5t-103.5 38.5q-49 23 -73.5 68t-24.5 110v22.5t2 25.5q2 12 5 25 t7 28q10 41 31.5 71.5t54.5 51.5q35 23 72 43t76 41l10 4l12 6q6 4 12.5 7t12.5 5q6 4 12 7t12 5q-57 16 -97 38t-64 46q-25 25 -37.5 52.5t-12.5 54.5v12v4t2 4v3v4q8 43 37 82.5t78 78.5q49 37 102.5 62.5t110.5 38.5q4 0 9 1t12 3q4 0 9 1t9 1h9t12 2h9h11h82 q31 0 59.5 -6t55.5 -19q29 -12 50 -30.5t40 -44.5h-82v2h82v0zM838 580q0 4 -1 10t-6 12q-2 4 -3 7t-3 7q-2 2 -4 6.5t-4 6.5q-14 16 -33.5 33.5t-44.5 31.5q-25 16 -50 26.5t-54 14.5h-5t-7 2q-51 -6 -91 -22.5t-73 -44.5q-39 -33 -61.5 -71t-26.5 -79l-2 -12v-10 q0 -39 15 -74t48 -66q31 -31 79 -48t114 -21q39 6 73.5 22.5t67.5 42.5q37 29 56.5 72t19.5 100v7.5v5.5q-2 4 -2 7v5v7v5q-2 4 -2 7v8v2v0z" />
<glyph unicode="&#xa8;" horiz-adv-x="532" d="M307 1081l6 6q4 2 9.5 3.5t11.5 1.5h82h4h4q2 -2 5 -2h5q4 0 9.5 -1.5t11.5 -3.5q12 -2 23 -7t20 -9q4 -2 8 -5t6 -5q4 -4 5 -6t1 -6v-193q0 -8 -3 -12t-7 -8q-4 -2 -10 -3.5t-13 -1.5h-82h-8h-8t-8 1t-8 4q-10 4 -19.5 8t-19.5 10q-8 6 -14.5 15.5t-10.5 17.5v196v0v0z M16 1081l9 11q4 2 9 3t13 1h82h4h4q2 -2 4 -2h4h4.5h4.5q2 -2 5 -2h5l9 -4.5t11 -4.5q4 -2 9.5 -4t9.5 -6q10 -6 16 -12t8 -14v-193l-8 -16q-2 -2 -7 -4.5t-11 -2.5h-82h-9.5t-9.5 3q-6 0 -11 2t-9 4q-12 4 -23.5 11t-21.5 15q-8 8 -13.5 17.5t-5.5 17.5v180v0v0z" />
<glyph unicode="&#xa9;" horiz-adv-x="1564" d="M129 854q6 10 12 22.5t15 24.5q6 12 15 24.5t17 24.5q8 10 16.5 22.5t16.5 24.5q10 12 19.5 24.5t17.5 25.5q51 51 109.5 91t126.5 68q68 29 137 44.5t139 17.5h82h8h10q78 -2 152 -24.5t147 -63.5q72 -43 135.5 -107.5t116.5 -154.5q10 -18 17.5 -37t15.5 -37 q4 -8 6 -17.5t6 -17.5q2 -10 5.5 -18.5t5.5 -18.5q4 -18 8 -36.5t6 -37.5q2 -18 3 -36.5t1 -36.5q0 -133 -50 -250t-149 -219q-98 -100 -215.5 -149.5t-253.5 -51.5l-82 -2q-39 2 -76.5 7t-76.5 15q-39 8 -78 21.5t-78 34.5q-72 39 -133 100.5t-110 147.5q-49 84 -74 175 t-25 189v8v11v8v8v8t2 10q0 4 1 8.5t1 8.5q2 16 5 33.5t6 35.5q4 18 9 36t11 34v2v0zM260 580q6 -35 14.5 -66t16.5 -57q10 -27 19 -48.5t18 -39.5q14 -27 27.5 -48.5t25.5 -37.5q12 -14 21.5 -25.5t17.5 -17.5q35 -45 80 -80t102 -64q47 -23 98.5 -35t102.5 -16h8h6 q45 4 89 17.5t89 33.5q45 23 86 53.5t80 73.5q45 51 76 100.5t49 98.5q18 47 27.5 92t9.5 88t-7 84t-20 78q-12 37 -25.5 71.5t-29.5 65.5q-43 72 -94 126t-113 89q-41 23 -85 39t-87 25q-16 2 -30.5 4t-28.5 4q-98 -8 -187.5 -48t-173.5 -112q-92 -80 -137 -188.5 t-45 -243.5v-10v-6v0zM1147 338q-14 -20 -37 -36.5t-55 -27.5q-33 -12 -71 -17t-79 -5h-82h-23.5t-21.5 2h-12t-10 2q-6 0 -12.5 1t-12.5 1q-63 10 -123.5 35.5t-113.5 66.5t-80 104.5t-27 145.5q0 92 26.5 160t78.5 113q53 45 109 72.5t120 39.5q12 4 24.5 5t26.5 4h12.5 t14.5 2h12h12h82q41 0 77 -5.5t67 -15.5t52 -22.5t29 -28.5v-127h-81h-33q0 35 -18.5 61.5t-53.5 46.5q-27 16 -57.5 25.5t-63.5 13.5q-6 0 -11 -1t-9 -3q-4 0 -9.5 -1t-11.5 -3q-20 -4 -37.5 -11t-33.5 -17q-25 -16 -46.5 -46t-37.5 -71q-16 -43 -25.5 -87t-11.5 -91v-9v-8 q-2 -39 5 -78t21 -73q14 -35 38 -60.5t57 -42.5l12 -6l12 -6q16 -6 34.5 -12t39.5 -13q10 -2 21.5 -4t21.5 -4q27 4 51.5 11.5t46.5 19.5q31 16 51.5 49t30.5 78l33 2h82v-129v0v0z" />
<glyph unicode="&#xaa;" horiz-adv-x="823" d="M651 1059q2 0 5 1t6 3h81q2 -10 3.5 -22.5t3.5 -26.5v-15.5t2 -15.5v-15v-16v-9v-9v-4t2 -4v-6v-5q2 -33 5 -65.5t9 -61.5q4 -29 14.5 -45t24.5 -20q6 -2 11 -4t7 -2q4 -2 6.5 -4t4.5 -4q2 -4 0 -8.5t-9 -8.5q-6 -6 -16 -10t-23 -8q-12 -4 -27.5 -7t-33.5 -8h-82 q-10 0 -16 5.5t-11 17.5q-2 10 -3 23.5t-1 27.5l-2 8v9q-2 -2 -5 -3.5t-5 -1.5q-2 -2 -5 -3t-5 -3q-37 -18 -77 -29.5t-83 -17.5q-8 -2 -16 -3t-17 -1h-82h-16h-16q-39 0 -72 6t-61 21q-27 12 -41.5 34.5t-14.5 55.5v12v4t2 4v2v4q6 41 31 79t64 75q41 37 85 61.5t91 38.5 q10 4 21 5.5t22 3.5q10 2 20 3t21 1h82q23 0 42 -4t37 -13q10 -4 19.5 -10t17.5 -12v0zM549 838q4 4 7 11t5 17q4 10 5 21.5t1 23.5v13v4v4q-2 0 -2 2v4q-2 20 -8 38.5t-16 35.5q-6 10 -15.5 18t-19.5 12q-33 -4 -59.5 -14t-49.5 -27q-29 -20 -48 -44.5t-30 -51.5 q-4 -8 -7 -17t-5 -20q-2 -8 -2 -16v-16q0 -10 1 -19.5t3 -17.5q4 -8 7 -15.5t8 -11.5q8 -8 17 -14t21 -10q2 0 4.5 -1.5t4.5 -1.5l2 -1q2 -1 4 -1q2 2 3 2h3q10 2 19.5 4.5t19.5 4.5q8 4 18.5 7t18.5 7q18 8 34.5 16.5t28.5 16.5q6 4 11.5 9t7.5 9q4 4 6 8t2 9v2v0z" />
<glyph unicode="&#xab;" horiz-adv-x="985" d="M582 612l-308 -258l291 -291l-63 -47h-82l-340 355l371 291h81l50 -50v0v0zM872 612l-307 -258l291 -291l-65 -47h-82l-338 355l370 291h82l49 -50v0v0z" />
<glyph unicode="&#xad;" horiz-adv-x="872" d="M178 403q23 -2 44.5 -5t43.5 -3q23 -2 45.5 -2h44.5h7.5h5.5h24.5t24.5 2q10 0 22.5 1t24.5 1h24.5t24.5 2h24.5h24.5h24.5t24.5 2h24.5h25.5h81q12 0 21.5 -4t17.5 -12q6 -8 11.5 -16.5t7.5 -18.5l2 -6v-6q0 -8 -1 -14.5t-5 -10.5q-2 -4 -8.5 -6t-12.5 -2q-33 -6 -80 -9 t-106 -5t-120.5 -2h-127.5h-82h-32.5h-32.5h-33h-33h-8l-6 2q-8 4 -15.5 8t-13.5 12q-8 8 -13 16.5t-10 16.5l-4 12q0 2 -1 4t-1 5v2v4q0 6 2 12t7 10q4 4 12 6t18 2v2h82v0z" />
<glyph unicode="&#xae;" horiz-adv-x="1564" d="M113 774q6 33 17 64.5t26 64.5q14 33 29.5 61.5t31.5 55.5q12 18 24.5 35.5t24.5 31.5t22.5 23.5t18.5 15.5q45 41 94.5 74t100.5 53q53 23 107.5 36.5t109.5 15.5h82h12h8h8q90 0 175.5 -24t166.5 -71q80 -45 142.5 -110.5t107.5 -149.5q10 -18 17.5 -36.5t13.5 -36.5 q4 -8 6 -17.5t6 -19.5q2 -8 5.5 -17.5t5.5 -19.5q4 -20 7 -39t5 -37t3 -36.5t1 -37.5q0 -137 -49 -258t-148 -223q-98 -102 -214.5 -152.5t-250.5 -50.5l-81 -2q-35 2 -70 6t-70 13q-35 8 -70.5 18t-70.5 27q-90 41 -159.5 101.5t-117.5 141.5q-47 84 -70.5 171t-23.5 180 q0 18 1 36.5t3 36.5t5.5 37t7.5 37v2v0zM260 678v-4v-4q-2 -2 -2 -4v-4v-13v-4v-2v-4v-4v-12q0 -94 29.5 -177.5t87.5 -154.5q59 -70 123.5 -120t134.5 -79q6 -2 12 -5t12 -5q4 -2 10.5 -4t12.5 -4l12 -4t13 -4q4 0 10 -2.5t12 -2.5q6 -2 13.5 -4t15.5 -4t15 -3t15 -1h3.5 h3.5q2 -2 4 -2h4q84 4 160.5 38t146.5 97q78 70 128 157t71 191q2 12 3 24.5t3 25.5q2 12 3 24t1 25q0 115 -43 216t-129 193q-78 84 -170 129t-197 54q-16 -2 -33.5 -4.5t-35.5 -6.5q-27 -6 -54.5 -14t-56.5 -20q-55 -25 -104.5 -65t-94.5 -95t-75.5 -112.5t-47.5 -117.5 q-4 -14 -7 -28.5t-5 -28.5t-3 -27.5t-1 -25.5h-82v2h82v0zM518 322l12 -5h-81h12q29 0 46 8.5t25 26.5t12.5 39t4.5 43v22.5v53.5v73v79v71.5v67.5v54.5v29.5l-4 10l-2 10q-6 14 -12.5 24.5t-16.5 18.5q-8 8 -27.5 12.5t-50.5 4.5v34h82q4 -2 7 -3t7 -1h7.5h7.5h12t12 2 h12.5h12.5h12h13h7t7 2h6h6h82h12.5h12.5h7h7h6h6q53 0 99.5 -7t87.5 -19t65.5 -43t32.5 -78q2 -2 3 -7t1 -9v-5.5t2 -7.5v-5v-7q0 -8 -1 -17.5t-3 -19.5q0 -4 -1 -9t-3 -9q0 -6 -1 -11.5t-3 -9.5q-8 -20 -19.5 -41.5t-27.5 -40.5q-16 -18 -40 -28.5t-52 -14.5q6 -10 12 -21 t14 -22q6 -12 14.5 -23.5t16.5 -21.5q10 -14 20.5 -29.5t22.5 -31.5q12 -14 24.5 -29.5t24.5 -28.5q14 -16 27.5 -31.5t27.5 -27.5t27.5 -22.5t26.5 -16.5v-31h-82h-113q-8 -2 -21.5 8.5t-29.5 30.5q-16 23 -33.5 46.5t-36.5 50.5l-8 8l-6 10q-16 25 -31.5 47.5t-30.5 42.5 q-14 23 -25 37t-20 23h-14v-11.5v-9.5q-2 -4 -2 -9v-9v-17.5v-19.5v-9.5v-9.5q-2 -4 -2 -8v-8v-16.5v-16.5q0 -27 3 -48t9 -38q6 -16 19.5 -24.5t33.5 -8.5h-81h8h8t9 1t9 3h82v-28h-82h-305v31h82v0v0zM727 631q27 2 49.5 6t42.5 10q35 10 51.5 45t16.5 96q0 39 -8.5 70 t-24.5 51q-14 18 -43 28.5t-72 12.5h-5h-7v-319v0z" />
<glyph unicode="&#xaf;" horiz-adv-x="872" d="M178 1034q23 -2 44.5 -5t43.5 -3q23 -2 45.5 -2h44.5h7.5h5.5h24.5t24.5 2q10 0 22.5 1t24.5 1h24.5t24.5 2h24.5h24.5h24.5t24.5 2h24.5h25.5h81q12 0 21.5 -4t17.5 -12q6 -8 11.5 -16.5t7.5 -18.5l2 -6v-6q0 -8 -1 -14.5t-5 -10.5q-2 -4 -8.5 -6t-12.5 -2 q-33 -6 -80 -9t-106 -5t-120.5 -2h-127.5h-82h-32.5h-32.5h-33h-33h-8l-6 2q-8 4 -15.5 8t-13.5 12q-8 8 -13 16.5t-10 16.5l-4 12q0 2 -1 4t-1 5v2v4q0 6 2 12t7 10q4 4 12 6t18 2v2h82v0z" />
<glyph unicode="&#xb0;" horiz-adv-x="647" d="M23 1102l4 8t6 10q2 4 5 9.5t7 9.5q2 4 5 9t7 9t7.5 9t7.5 10q20 20 42.5 35.5t49.5 25.5q25 12 52.5 18.5t53.5 6.5h31h4h4q29 0 57.5 -9.5t57.5 -25.5t53.5 -41t44.5 -60q4 -8 7 -15t6 -13q2 -4 3 -7.5t1 -7.5q2 -4 3 -7t1 -7q2 -6 4 -13t2 -16q0 -6 1 -13t1 -15 q0 -51 -19.5 -96.5t-58.5 -84.5q-37 -39 -83 -58t-97 -19l-33 -2q-14 2 -29.5 4t-29.5 6q-14 2 -29.5 7t-30.5 13q-29 14 -52 39t-42 58q-20 33 -29.5 67.5t-9.5 73.5v3v3v4v2v4v4t1 3t1 4q0 6 1 13t3 13q0 8 2 14.5t7 12.5v2v0zM119 1001q2 -10 4 -18l4 -16q4 -6 7 -12.5 t5 -10.5q4 -8 8.5 -14t8.5 -10q2 -4 5 -7.5t5 -5.5q10 -12 23.5 -21t31.5 -18q14 -6 28.5 -9t31.5 -3h2h2q14 0 26.5 4t26.5 8q12 6 24.5 15.5t24.5 19.5q14 14 22.5 27.5t14.5 27.5q6 12 9 24.5t3 25.5q0 12 -3 22t-5 21l-8 20t-8 19q-14 18 -29.5 33.5t-32.5 23.5 q-12 6 -25.5 11t-25.5 7q-6 0 -10 1t-8 1q-29 -2 -55.5 -13t-51.5 -30q-29 -23 -42 -52.5t-13 -65.5v-2v-3v0z" />
<glyph unicode="&#xb1;" horiz-adv-x="1306" d="M739 191q10 6 18.5 8t12.5 0q6 -4 8 -7t2 -9l2 -62q0 -6 -1 -12t-3 -14q-2 -6 -5 -14.5t-9 -16.5q-4 -6 -9 -12.5t-10 -12.5l-12 -12l-10 -10q-2 -4 -9 -7.5t-24 -5.5q-14 0 -31.5 -1t-42.5 -3q-25 0 -52 1t-60 1q-33 2 -69 2t-75 2h-21h-22q-12 2 -22 2.5t-23 0.5 q-23 0 -45 1t-45 1q-8 0 -17 -1t-15 -1q-10 2 -18.5 2h-16.5h-32.5h-33.5q-16 -2 -31.5 -2h-31.5h-14.5h-12.5q-8 0 -14 -1.5t-15 -1.5l-14 7q0 2 -2 6t-2 6l-4 63q2 0 2 2v2q2 2 2 3.5v3.5v3v3q2 2 2 3v3l4 12t6 10q2 4 4 9.5t6 7.5l5 6h4q14 2 28.5 5t34.5 3q20 2 46 2h52 q16 0 32 1t32 1h34.5t37.5 -2q18 0 35.5 1t35.5 1h38h38h14h5.5h5.5h2h6q43 2 84 3t82 5q43 2 81 5.5t70 9.5h2v0zM39 1132q31 -2 60.5 -7t60.5 -5q31 -2 61.5 -2h60.5h8.5h8.5h32.5t32.5 2q14 0 30.5 2t35.5 2h32.5t32.5 2h34h34h32.5t35.5 4h32.5h32.5h113q16 0 28.5 -6 t22.5 -18q8 -12 15.5 -23.5t11.5 -27.5l2 -9v-10q0 -10 -1 -19t-8 -16q-2 -6 -11 -9t-17 -3q-43 -8 -107.5 -13t-144.5 -7q-82 -4 -165 -4h-173h-111h-45h-45h-45h-43h-12l-8 4q-10 6 -20.5 12t-18.5 16q-10 12 -17.5 24.5t-13.5 24.5l-6 19q0 2 -1 5t-1 5v3v7q0 8 3 17.5 t7 15.5q6 6 17.5 9t25.5 3v2h111v0zM467 1382q-4 -31 -9.5 -61.5t-5.5 -61.5q-4 -31 -4 -62.5t-2 -61.5v-10.5v-6.5v-34.5t2 -35.5q0 -14 1 -30.5t1 -34.5v-33.5t2 -34.5q0 -16 -1 -33.5t-1 -33.5v-35.5t2 -34.5v-33.5t-2 -33.5l-2 -115q0 -16 -6 -29.5t-16 -23.5 q-12 -8 -24.5 -15.5t-26.5 -9.5l-9 -2h-10q-10 0 -19.5 1t-15.5 7q-6 4 -8 12.5t-2 16.5q-8 45 -11 110.5t-5 149.5q-2 82 0 168t4 176l2 115v45v45q2 23 2 46v46v10l4 8q6 12 12 21.5t17 19.5q12 10 24.5 17.5t24.5 11.5l16 6q4 0 6 1t7 1h3h5q10 0 18 -3t14 -9 q6 -4 8.5 -16.5t2.5 -26.5h4l-2 -113v0z" />
<glyph unicode="&#xb2;" horiz-adv-x="1443" d="M383 846h53h10l5 -4v-4v-2q-4 -2 -5.5 -3.5t-3.5 -5.5q-2 -2 -7 -6t-13 -8q-6 -4 -14.5 -8t-16.5 -8q-4 -2 -9 -3t-9 -3q-4 0 -9.5 -1.5t-11.5 -5.5q-4 0 -9 -1t-9 -1q-6 -2 -11.5 -2h-9.5h-67q-25 0 -44.5 9.5t-33.5 27.5q-18 18 -25.5 43t-7.5 55v15.5t2 13.5 q0 8 1 16.5t5 14.5v2q12 59 45 105t82 83t104.5 59.5t112.5 30.5q8 2 15.5 2h15.5h8t11 3h79q53 0 101.5 -14.5t91.5 -41.5q41 -29 63.5 -71.5t26.5 -104.5v-4l2 -6v-10q0 -55 -24.5 -106.5t-73.5 -98.5q-47 -49 -100.5 -91t-110.5 -79q-37 -23 -73 -43.5t-68 -38.5 q-35 -16 -63 -31.5t-50 -25.5q-12 -6 -21.5 -11.5t-11.5 -7.5q-6 -2 -4 -5t6 -5t7 -3t10 -1q4 -4 12 -5t14 -1q10 -2 23.5 -3t29.5 -1h33h39h4h38t40 2q37 0 72 1t69 3q33 4 59.5 6t49.5 4h4t4 2h8h2t2 2h74q12 0 21.5 -3t13.5 -5q6 -2 7 -7t-1 -7q0 -4 -3 -6.5t-7 -6.5 q-2 -2 -7 -4t-12 -4q-12 -2 -23 -4t-24 -6q-10 0 -20 -3t-21 -5q-45 -10 -100 -15.5t-119 -9.5q-61 -4 -164.5 -5t-244.5 -1h-68q-14 0 -25.5 3t-21.5 9q-8 8 -13.5 15.5t-5.5 17.5l-2 4v4q0 8 1 13.5t6 9.5q4 6 9 8t13 4q127 53 235.5 111.5t198.5 119.5q88 63 133 136 t45 155q0 57 -14 99t-45 69q-23 20 -49.5 33.5t-54.5 17.5h-2q-39 -6 -75 -23.5t-69 -45.5q-33 -29 -53.5 -66t-26.5 -84q-2 -4 -2 -6v-8v-12q0 -25 4 -44.5t13 -31.5q8 -12 18 -21.5t23 -11.5q2 -2 6 -4z" />
<glyph unicode="&#xb3;" horiz-adv-x="837" d="M705 862q27 -14 41 -42.5t14 -71.5v-15q0 -49 -25.5 -96t-79.5 -90q-53 -41 -111.5 -73t-119.5 -50q-18 -6 -38.5 -10t-41.5 -8q-18 -4 -38.5 -6.5t-37.5 -2.5l-57 -2q-29 2 -55.5 7.5t-46.5 13.5q-23 10 -39.5 23.5t-26.5 33.5q-2 6 -4 11t-6 10q0 2 -1 5t-1 5q0 6 1 11 t5 5q2 2 6 3t10 1h58q6 0 11 -1t11 -3q6 0 13.5 -5l13.5 -9q16 -10 34.5 -17.5t41.5 -13.5q14 -2 29.5 -6t31.5 -4h14h7.5h7.5q49 8 95 25.5t89 48.5q41 31 63.5 77t24.5 109q0 29 -10 53.5t-31 42.5q-16 16 -43 25.5t-61 11.5q-14 -2 -27.5 -2t-30.5 -4q-23 -4 -50.5 -10 t-55.5 -13h-60q-6 2 -11 6.5t-11 10.5q-4 6 -5 13t-1 13v6.5t2 6.5v6t2 8h4h4h10h5t5 2h13q14 0 29.5 1t35.5 3q16 0 36 2t38 6q37 6 70.5 18.5t64.5 31.5q31 18 47.5 48.5t20.5 71.5v11q0 35 -9.5 61.5t-29.5 42.5q-16 14 -31.5 22.5t-34.5 12.5q-6 -2 -11 -3t-9 -1 q-14 -4 -27.5 -8t-25.5 -11q-23 -10 -43.5 -25.5t-40.5 -33.5q-20 -20 -39 -42t-35 -48q-2 -6 -5 -9t-7 -8q-2 0 -6 -1l-3 -1q-4 -2 -6 -2h-4h-65l-6 2q-6 2 -14.5 5.5t-16.5 9.5q-4 6 -8.5 13t-4.5 17q0 4 1.5 9.5t3.5 11.5q2 4 5 9t9 11q23 29 50.5 50.5t60.5 40.5 q33 16 65.5 28.5t67.5 18.5q12 2 23 3t22 3h10h12q6 2 11.5 2h11.5h57q47 0 89 -9.5t75 -29.5q35 -18 51.5 -46t16.5 -65v-6q0 -47 -15.5 -84t-44.5 -61q-27 -25 -68.5 -43.5t-97.5 -30.5q66 -4 110 -13.5t73 -23.5z" />
<glyph unicode="&#xb4;" horiz-adv-x="532" d="M258 967q6 4 11 12l10 16q2 4 4 9.5t6 11.5q2 4 4 9t4 9l4 8l2 9q6 16 12.5 28.5t14.5 24.5q6 10 16 16t25 6h82q10 0 19 -7t17 -19t12.5 -26.5t4.5 -31.5v-8v-8l-4 -12q-51 -76 -94 -125t-80 -74t-63.5 -36t-45.5 -11h-82h-14l-10 4h-2v2q-12 10 -9.5 19.5t19.5 19.5 q16 10 35.5 27.5t42.5 40.5q6 10 14 19t16 20q8 10 15.5 21t13.5 24v2v0z" />
<glyph unicode="&#xb7;" horiz-adv-x="647" d="M204 419v150q0 3 2.5 6.5t7.5 5.5q5 3 11 4.5l14 3.5h69h3.5h5.5q2 -2 4.5 -2h3.5q4 0 8 -1t10 -3q14 -3 25.5 -8.5t21.5 -12.5t15 -15.5t5 -19.5v-149q0 -4 -2.5 -7t-7.5 -5q-5 -3 -11 -4.5t-13 -3.5l-69 -1q-2 1 -5 1h-5q-3 2 -4.5 2h-3.5q-5 0 -9.5 1t-7.5 2 q-12 4 -24.5 9.5t-23.5 10.5q-10 7 -15 16t-5 19v1v0z" />
<glyph unicode="&#xb8;" horiz-adv-x="532" d="M63 -430l-14 41q33 14 55.5 26.5t34.5 26.5q12 10 18.5 22.5t8.5 20.5q0 8 -2 14.5t-6 12.5q-4 8 -9.5 13t-11.5 11l-8 4l-6 9q-4 6 -8 11t-9 7q-4 6 -7 10t-7 8q-6 8 -9 18.5t-3 20.5q0 18 5 37t13 35q10 16 19.5 29.5t21.5 27.5l11 7l10 8q2 4 4 6t4 6q2 0 4 2t4 6 q4 4 8 9.5t9 11.5h81l33 -19q-27 -31 -39 -54.5t-8 -39.5t13.5 -31.5t23.5 -29.5l6 -7l6 -4q8 -6 15.5 -15t15.5 -19t12 -22.5t4 -29.5v-8v-6q-2 -16 -13 -33.5t-30 -36.5q-18 -18 -36.5 -34.5t-40.5 -26.5q-12 -8 -24.5 -14.5t-25.5 -12.5q-12 -4 -21 -8t-20 -8l-82 -2v0v0 z" />
<glyph unicode="&#xb9;" horiz-adv-x="821" d="M305 989q-35 -29 -62.5 -43t-43.5 -14h-64q-18 0 -34.5 3t-30.5 9t-20.5 13.5t-4.5 13.5v3v5h2l4 4t3 4t5 2q2 0 5.5 2t5.5 2q23 8 48 18.5t50 24.5q27 12 53.5 25.5t54.5 30.5q8 4 15.5 8t15.5 10q6 2 14.5 7t14.5 9q8 6 15 10.5t16 8.5q6 4 14 8t14 8q10 8 19.5 14.5 t19.5 12.5q10 4 19.5 11t19.5 11q16 14 32.5 25.5t33.5 24.5q12 8 20 14t12 8h64l10 -2v-4t-2 -8t-2 -9.5t-4 -11.5q-4 -23 -8 -62.5t-6 -92.5q-4 -55 -6.5 -114.5t-4.5 -123.5v-80q0 -49 1 -92t3 -84q2 -39 5.5 -68.5t5.5 -50.5v-4t2 -4v-8v-4t2 -4v-11l2 -6q0 -6 -1 -11 t-5 -9q-2 -2 -6.5 -4t-8.5 -2l-65 -2q0 2 -2 2h-4q-2 2 -4 2h-5q-4 2 -9 3t-11 1q-25 10 -39 19t-20 18q-8 8 -12.5 18t-4.5 19l35 628q-55 -43 -97 -75.5t-69 -55.5z" />
<glyph unicode="&#xba;" horiz-adv-x="743" d="M469 1096l12 -2h7.5h7.5h12h12h12.5h12.5q37 -2 71.5 -9.5t67.5 -19.5q31 -14 47.5 -46t16.5 -83v-5v-7q-2 -2 -2.5 -5.5t-0.5 -7.5v-6v-6q-2 -4 -2 -7v-7q-6 -39 -30.5 -72t-67.5 -59q-43 -27 -90 -43.5t-96 -22.5q-8 -2 -15.5 -3t-15.5 -1h-82h-16h-15q-41 0 -77.5 8 t-67.5 25q-33 16 -51.5 41.5t-22.5 62.5l-2 4v6v5v6q0 10 1 19t3 20q4 10 7.5 21t7.5 22q14 31 38.5 60.5t57.5 55.5q35 27 79 40.5t99 13.5v2h82v0zM549 967q-14 20 -32.5 35.5t-41.5 23.5q-6 2 -13 4t-13 4t-13.5 4t-13.5 4q-25 -4 -46.5 -13t-41.5 -23q-31 -20 -45.5 -46 t-14.5 -59q4 -33 19.5 -59.5t42.5 -48.5q18 -14 40.5 -25.5t47.5 -15.5q2 2 3 2h3q12 4 25.5 8t27.5 10l13 4l12 10q12 8 23.5 20.5t19.5 27.5q10 16 15 31.5t5 33.5v16.5t-4 16.5q-2 10 -7 17t-11 16v2v0z" />
<glyph unicode="&#xbb;" horiz-adv-x="985" d="M145 612l48 50h81l357 -340l-371 -289h-82l-65 47l323 242l-291 290v0v0zM436 612l47 50h82l355 -340l-371 -289h-82l-64 47l322 242l-289 290v0v0z" />
<glyph unicode="&#xbc;" horiz-adv-x="1435" d="M354 55q45 82 90 169t91 179q45 92 88 187.5t86 189.5q12 29 24 57.5t27 57.5q12 27 24.5 55.5t24.5 57.5q25 57 48.5 112.5t45.5 110.5q4 10 9.5 17t11.5 14q4 6 9 11t11 7l10 4l11 2h82q10 0 20 -5t18 -15q10 -10 14.5 -22.5t4.5 -26.5v-9l-2 -8l-2 -8l-2 -8 q-33 -61 -71 -138t-81 -167q-43 -92 -87 -186.5t-89 -190.5q-31 -68 -61.5 -132.5t-61.5 -127.5t-58.5 -123t-53.5 -113q-2 -6 -6.5 -10t-6.5 -10q-4 -4 -7 -8.5t-7 -6.5q-8 -6 -15.5 -9t-15.5 -3l-82 -2q-10 2 -19 6t-18 14q-2 2 -4 4.5t-4 4.5q-4 6 -6 13t-2 15v9l4 12 l2 8l6 10v2v0zM199 1096q-27 -20 -47.5 -30.5t-32.5 -10.5h-47q-12 0 -24.5 2t-22.5 6q-12 4 -16.5 9t-2.5 11v1v6v0q2 0 4 2t2 3t4 1q2 0 4.5 2t4.5 2q16 6 34.5 13t36.5 17q20 10 40 19.5t40 21.5q6 4 11.5 7.5t11.5 7.5q6 2 12 5t10 7q6 4 11.5 7t11.5 5q4 4 10 7.5 t10 5.5q8 6 15.5 11l13.5 9q8 2 15 8t14 9q12 10 24 18t25 18l14 10.5t10 6.5h47l7 -2v-3v-5q-2 -4 -2.5 -7.5t-4.5 -9.5q-2 -16 -5 -46t-5 -69q-2 -41 -4 -85t-2 -91v-57v-68.5t2 -62.5q2 -29 4 -50.5t4 -37.5v-3v-3v-6v-3.5t2 -3.5v-6l2 -6q0 -4 -1 -8t-3 -6t-5 -3t-5 -1 l-49 -2q0 2 -2 2h-2h-4h-2q-4 2 -7.5 3t-9.5 1q-18 8 -28.5 14t-14.5 12q-6 6 -9 14.5t-3 14.5l27 465q-41 -33 -73 -57.5t-50 -40.5zM1137 125l-164 -6h-41q-20 -2 -39 0t-33 6q-16 6 -23.5 16.5t-7.5 26.5q-2 4 -1 9t3 11t5.5 12.5t5.5 12.5l164 313q2 2 4 5.5t2 5.5 q4 0 6 1t6 1h41l4 -2h6q2 0 4 -2.5t4 -4.5t5.5 -4t3.5 -4q6 -6 9 -11t5 -11v-6v-5v-8l-2 -6l-162 -235q-6 -6 -10 -13.5t-8 -13.5q-2 -4 -5.5 -9t-3.5 -9t4.5 -8.5t10.5 -8.5q6 -2 17 -3t26 -1l164 -6l8 211q0 2 1 4t5 6q2 0 7 1t9 1h41h6h7q6 -2 12 -5t10 -9q4 -4 7 -12.5 t3 -16.5v-5v-5v-4t-2 -4q-4 -27 -6 -48.5t-2 -39.5v-39v-35v0v0h4h6q2 0 4.5 1t4.5 1h14t14 2h5h5h6.5h4.5h43q8 0 12 -1t4 -3q4 -2 -1 -7t-13 -14q0 -2 -8.5 -4t-22.5 -4t-28.5 -4t-30.5 -2h-2h-4h-2h-5h-5h-5v-153q0 -4 -2 -9.5t-6 -5.5q-2 -2 -6 -4l-8 -4h-41h-3h-1 q-2 2 -4 2h-1h-6l-14 7t-12 7t-8.5 9.5t-2.5 11.5l9 131v0z" />
<glyph unicode="&#xbd;" horiz-adv-x="1611" d="M354 55q45 82 90 169t91 179q45 92 88 187.5t86 189.5q12 29 24 57.5t27 57.5q12 27 24.5 55.5t24.5 57.5q25 57 48.5 112.5t45.5 110.5q4 10 9.5 17t11.5 14q4 6 9 11t11 7l10 4l11 2h82q10 0 20 -5t18 -15q10 -10 14.5 -22.5t4.5 -26.5v-9l-2 -8l-2 -8l-2 -8 q-33 -61 -71 -138t-81 -167q-43 -92 -87 -186.5t-89 -190.5q-31 -68 -61.5 -132.5t-61.5 -127.5t-58.5 -123t-53.5 -113q-2 -6 -6.5 -10t-6.5 -10q-4 -4 -7 -8.5t-7 -6.5q-8 -6 -15.5 -9t-15.5 -3l-82 -2q-10 2 -19 6t-18 14q-2 2 -4 4.5t-4 4.5q-4 6 -6 13t-2 15v9l4 12 l2 8l6 10v2v0zM199 1096q-27 -20 -47.5 -30.5t-32.5 -10.5h-47q-12 0 -24.5 2t-22.5 6q-12 4 -16.5 9t-2.5 11v1v6v0q2 0 4 2t2 3t4 1q2 0 4.5 2t4.5 2q16 6 34.5 13t36.5 17q20 10 40 19.5t40 21.5q6 4 11.5 7.5t11.5 7.5q6 2 12 5t10 7q6 4 11.5 7t11.5 5q4 4 10 7.5 t10 5.5q8 6 15.5 11l13.5 9q8 2 15 8t14 9q12 10 24 18t25 18l14 10.5t10 6.5h47l7 -2v-3v-5q-2 -4 -2.5 -7.5t-4.5 -9.5q-2 -16 -5 -46t-5 -69q-2 -41 -4 -85t-2 -91v-57v-68.5t2 -62.5q2 -29 4 -50.5t4 -37.5v-3v-3v-6v-3.5t2 -3.5v-6l2 -6q0 -4 -1 -8t-3 -6t-5 -3t-5 -1 l-49 -2q0 2 -2 2h-2h-4h-2q-4 2 -7.5 3t-9.5 1q-18 8 -28.5 14t-14.5 12q-6 6 -9 14.5t-3 14.5l27 465q-41 -33 -73 -57.5t-50 -40.5zM1116 311h37h6l2 -2v-4v0l-3 -3t-1 -3q-2 -2 -5 -4l-9 -6q-4 -2 -9.5 -5t-11.5 -5q-2 -2 -6 -2.5t-6 -2.5q-2 0 -6 -1t-8 -3q-2 0 -5.5 -1 t-5.5 -1h-8h-6h-45q-16 0 -28.5 6.5t-22.5 18.5q-12 12 -17.5 27.5t-5.5 35.5v11.5t2 9.5q0 4 1 10t3 10v0q8 39 30 70t54 55q33 25 70 40.5t74 19.5q6 2 10 2h10h5t8 2h53q35 0 66.5 -10.5t60.5 -26.5q27 -20 42 -48t17 -69v-4l2 -4v-6q0 -37 -16.5 -71t-48.5 -64 q-31 -33 -67 -60.5t-73 -52.5q-25 -14 -48 -27.5t-46 -25.5t-41 -22.5t-33 -16.5l-14 -7t-8 -5q-4 -2 -2 -4.5t4 -2.5q2 -2 4 -3t6 -1q4 -2 9.5 -3t9.5 -1q6 0 15 -1t19 -1h22.5h25.5h2h25.5t27.5 2h47.5t44.5 2q23 2 40 4t32 2h3t3 2h6h1q1 0 1 2h49q8 0 14.5 -2t8.5 -4 q4 -2 5 -5t-1 -5q0 -2 -2 -3t-4 -3t-5 -3t-8 -3q-8 -2 -15 -3t-15 -3q-8 0 -14.5 -2t-14.5 -4q-29 -6 -65.5 -10.5t-77.5 -6.5t-110 -3t-163 -1h-45q-8 0 -16 2t-14 6q-6 6 -9.5 10.5t-3.5 12.5v2v2v9t2 5q4 4 7.5 6t9.5 2q84 37 155.5 75t130.5 79q57 43 88 91t31 102 q0 39 -10 66.5t-31 43.5q-14 14 -31.5 23.5t-35.5 11.5h-2q-27 -4 -50.5 -15.5t-44.5 -31.5q-23 -18 -36 -43t-17 -55q-2 -2 -2 -3.5v-5.5v-8q0 -16 3 -29.5t9 -21.5q4 -8 11.5 -14.5t15.5 -6.5q0 -2 3 -3t5 -3z" />
<glyph unicode="&#xbf;" horiz-adv-x="985" d="M324 -242q-2 -8 -5.5 -19t-3.5 -20q-2 -10 -2 -19v-17q-2 -41 9.5 -71t33.5 -48q23 -18 49.5 -29.5t53.5 -17.5h9t9 -2q4 0 7 1t5 1q4 0 6.5 1t4.5 1q35 6 63.5 17t48.5 28q10 8 19.5 16t17.5 14q8 8 15.5 16.5t13.5 16.5q4 6 6 11.5t6 9.5q2 4 5 9t5 9q4 8 9.5 17.5 t11.5 15.5l4 8l4 8l12 11q8 18 16.5 30.5t16.5 18.5q8 8 16.5 11t16.5 3l82 -2q10 4 21.5 -2t19.5 -18q10 -12 14 -27.5t4 -32.5v-4v-6q-2 -2 -2 -4v-4q-2 -4 -3 -9.5t-1 -11.5q-2 -2 -3 -4t-1 -4q-2 -2 -3 -5t-3 -5q-2 -4 -5 -9.5t-7 -9.5q-33 -37 -71 -66.5t-81 -49.5 q-43 -23 -87 -37.5t-91 -22.5q-12 -2 -24.5 -3t-24.5 -3h-12.5t-10.5 -2h-12h-12l-82 -2q-55 2 -104.5 12.5t-92.5 32.5q-45 20 -73.5 52t-45.5 73q-4 10 -7 19.5t-5 19.5q-2 8 -2 16v17q0 45 20.5 84t63.5 67q43 29 89 55.5t97 49.5q4 2 8.5 4t8.5 4l8 4l8 4q47 20 87 42 t77 46q37 23 55.5 53.5t18.5 67.5q0 10 -1 20.5t-6 20.5q-2 10 -8 22.5t-12 24.5q-10 18 -24.5 30.5t-30.5 20.5q-8 4 -17.5 7t-19.5 5q-23 -4 -44.5 -13t-41.5 -23q-27 -18 -39 -38t-12 -42l2 -13v-4t2 -2q0 -2 1 -4t1 -4l-13 -16q-4 -2 -9 -3t-9 -1h-82h-10l-10 4 q-10 4 -20.5 11t-20.5 17q-8 10 -14.5 22.5t-8.5 25.5v4v6q0 4 -1 6t-1 6q0 2 1 5t3 5q4 6 7 11.5t8 9.5q18 16 44.5 31.5t61.5 29.5t71 23.5t74 13.5h12.5h12.5h7t7 2h6.5h6.5h82h7h7q2 -2 6 -2h6h7h7q2 -2 6.5 -2h6.5q53 -14 93 -32.5t67 -43.5q25 -25 38 -52.5t15 -55.5 v-5v-6q-2 -4 -2 -6v-6q-2 -6 -3 -11t-1 -9q-8 -23 -21.5 -44.5t-34.5 -41.5q-20 -20 -45.5 -38t-58.5 -34q-14 -4 -31.5 -10t-36.5 -15q-8 -4 -18 -8t-19 -8q-10 -4 -19 -8t-19 -8q-37 -16 -70 -36t-64 -40q-31 -23 -50 -48.5t-27 -58.5v-2v0zM420 709l12 2h4t4 2h4h5h81 h4.5h4.5q2 -2 4 -2h4q4 -2 9 -3t11 -3t12.5 -5.5t12.5 -7.5q4 -2 6 -4t6 -4q2 -2 5 -4t5 -4v-193l-10 -6l-10 -2h-82h-6h-4h-8h-7q-10 2 -20 5t-21 7q-8 4 -15 11.5t-11 15.5v195v0v0z" />
<glyph unicode="&#xc0;" horiz-adv-x="1904" d="M1087 928l-262 -457l353 12h82q35 -2 59 -5t37 -7q12 -6 18 -11t2 -9q-2 -6 -11 -12.5t-24 -10.5q-14 -6 -30.5 -8t-34.5 -2l-500 -31q-18 -27 -38.5 -58.5t-43.5 -66.5q-23 -33 -47 -68.5t-49 -70.5q-6 -8 -12 -17.5t-13 -17.5q-8 -10 -14 -18.5t-12 -16.5 q-12 -16 -24.5 -31.5t-24.5 -29.5q-43 -51 -83 -95t-79 -81t-71 -55.5t-56 -18.5l-82 -2h-4h-2l-4 2h-4q-16 4 -31.5 12t-30.5 21q-14 12 -24.5 25.5t-20.5 27.5q-4 10 -8 19.5t-6 19.5q-4 8 -6 16t-2 15v10l8 4h82q4 2 7 0t9 -4q4 -4 10 -8t15 -11v0l2 -2v0v0 q16 6 35.5 17.5t40.5 27.5q37 27 76.5 61t78.5 75q23 23 46.5 48t45.5 52q23 29 43.5 56.5t40.5 54.5q10 12 19.5 25t17.5 28q8 10 15.5 22.5t15.5 24.5l-139 -8h-82q-27 -2 -49.5 5t-38.5 21q-18 16 -30.5 31.5t-21.5 34.5q-4 8 -7 16t-5 17q-2 8 -3 15t-1 13q0 10 2 18.5 t8 12.5h82q6 4 14.5 2t18.5 -10l8 -8l8 -4q23 -14 46.5 -25.5t50.5 -17.5t66.5 -10.5t90.5 -8.5q12 -2 25.5 -3t28.5 -1q8 10 15 21.5t13 23.5q6 10 13.5 21.5t15.5 23.5q14 23 27.5 46.5t27.5 47.5q8 12 15.5 25.5t15.5 28.5q8 14 16 27.5t17 27.5q10 18 20 36.5t21 37.5 q10 16 21 34.5t22 36.5q23 35 45 71t47 69l-2 4l-2 4q-12 23 -30.5 43t-43.5 41q-25 20 -57.5 33.5t-73.5 19.5q-8 0 -15.5 2t-13.5 4q-6 4 -8 7t-2 7t3 9.5t11 9.5t21.5 6t34.5 2h82q37 0 72.5 -3t68.5 -9q35 -6 63.5 -15.5t53.5 -19.5q25 -12 57.5 -61.5t75.5 -133.5 t88 -176t92 -190q0 -2 1 -5t3 -5q0 -4 1 -6.5t3 -6.5q4 -6 7 -11t5 -9q41 -88 82 -169t80 -155q41 -74 75 -121t60 -65q10 -8 17.5 -14.5t13.5 -10.5q4 -4 7 -8t3 -8q0 -2 -1 -6t-5 -6q-2 -4 -7 -7.5t-11 -7.5q-12 -8 -32.5 -17t-49.5 -24l-6 -4l-6 -2l-9 -2h-82h-6 q-2 2 -4 2h-4q-2 2 -4 2h-4t-4 1l-2 1q-2 2 -4 3t-4 1q-37 20 -83 96t-100 207q-49 121 -133 285t-201 369v0zM838 1710l8 2l10 2h82q4 0 6 -1t6 -1q2 -2 5 -4l6 -4l12 -12t12 -15q6 -12 13.5 -26.5t15.5 -30.5q8 -14 17 -31.5t18 -34.5q10 -20 24 -39.5t29 -37.5 q16 -18 34.5 -34t41.5 -26l12 -6l6 -10l2 -4v-2v-4v-2q-2 -8 -5 -14.5t-9 -12.5q-2 -2 -6 -5t-7 -3q-4 -2 -7 -3t-7 -1h-82h-4v0h-4l-2 2q-8 4 -21.5 11t-31.5 19t-37 26.5t-37 29.5q-16 14 -32.5 29.5t-33.5 31.5q-14 16 -26 32.5t-23 35.5q-6 8 -9 17t-7 18q-2 4 -3 8 t-1 10q-2 4 -2 8v8v9.5v11.5q0 4 2 9t4 9q4 10 12 17.5t19 15.5v2v0z" />
<glyph unicode="&#xc1;" horiz-adv-x="1904" d="M1104 928l-262 -457l352 12h82q35 -2 59.5 -5t36.5 -7q12 -6 18.5 -11t2.5 -9q-2 -6 -11.5 -12.5t-23.5 -10.5q-14 -6 -30.5 -8t-35.5 -2l-501 -31q-18 -27 -38 -58.5t-42 -66.5q-23 -33 -47.5 -68.5t-49.5 -70.5q-14 -18 -27.5 -35.5t-25.5 -34.5q-6 -8 -12 -17l-12 -18 q-8 -8 -14.5 -14t-12.5 -14q-39 -51 -79 -94t-79 -80t-70.5 -55.5t-56.5 -18.5l-82 -2h-4h-2l-4 2h-4q-16 4 -31.5 12t-29.5 21q-14 12 -24.5 25.5t-20.5 27.5q-6 10 -10.5 19.5t-8.5 19.5q-2 8 -3 16t-1 15v10l6 4h82q4 2 7 0t9 -4q6 -4 12.5 -8t14.5 -11v0l2 -2v0v0 q16 8 36.5 19.5t41.5 27.5q37 27 77 61t79 75q23 23 45 48t45 52q10 14 21 27.5t22 27.5q10 12 20 25.5t21 28.5q10 12 19 25t18 28q8 10 15 22.5t15 24.5l-139 -8h-82q-27 -2 -49.5 5t-38.5 21q-18 16 -30.5 31.5t-20.5 34.5q-4 8 -7 16t-5 17q-2 8 -3.5 15t-1.5 13 q0 10 2.5 18.5t8.5 12.5h82q6 4 14 2t18 -10l9 -8l8 -4q23 -14 46 -25.5t50 -17.5t66.5 -10.5t91.5 -8.5q12 -2 25.5 -3t27.5 -1q8 10 15 21.5t14 23.5q6 10 13 21.5t15 23.5q14 23 27.5 46.5t28.5 47.5q8 12 15 25.5t15 28.5q8 14 16.5 27.5t16.5 27.5q10 18 20.5 36.5 t20.5 37.5q10 16 21.5 34.5t21.5 36.5q23 35 45.5 71t46.5 69l-2 4l-2 4q-12 23 -30.5 43t-43.5 41q-25 20 -57.5 33.5t-73.5 19.5q-8 0 -15 2t-13 4q-6 4 -8.5 7t-2.5 7t3.5 9.5t11.5 9.5t21.5 6t33.5 2h82q37 0 72.5 -3t68.5 -9q35 -6 63.5 -15.5t53.5 -19.5 q25 -12 57.5 -61.5t75.5 -133.5t88 -176t92 -190q2 -6 4 -11.5t5 -9.5q2 -2 3 -4t3 -4q0 -4 1 -6t3 -4q41 -88 82 -170t80 -156q41 -76 74.5 -123t60.5 -65q10 -8 17 -14.5t13 -10.5t9.5 -8t3.5 -8q0 -2 -1 -6t-5 -6q-2 -4 -7.5 -7.5t-11.5 -7.5q-12 -8 -32.5 -17t-49.5 -24 l-6 -4l-6 -2l-8 -2h-82h-6l-15 2q-2 2 -4 3l-2 1q-2 2 -4 2h-4q-39 20 -85 95t-99 206q-49 121 -133 286t-201 372v0zM1049 1565q6 4 11 12t9 16q4 10 9 20.5t9 20.5v4l5 7q6 16 12 29.5t14 25.5q6 12 17.5 18t25.5 6h82q4 0 8 -2t11 -4q4 -4 8 -9t8 -11q8 -12 12 -25.5 t6 -30.5v-4v-2v-6l-2 -6l-2 -8v-6q-51 -76 -94 -125t-80 -74t-63.5 -36t-44.5 -11h-82h-15l-10 4q-14 10 -12 19.5t18 21.5q16 10 36 27.5t44 42.5q6 8 14.5 17t16.5 20q8 10 15 22t14 25v2v0z" />
<glyph unicode="&#xc2;" horiz-adv-x="1904" d="M1087 928l-262 -457l353 12h82q35 -2 59 -5t37 -7q12 -6 18 -11t2 -9q-2 -6 -11 -12.5t-24 -10.5q-14 -6 -30.5 -8t-34.5 -2l-500 -31q-18 -27 -38.5 -58.5t-43.5 -66.5q-23 -33 -47 -68.5t-49 -70.5q-6 -8 -12 -17.5t-13 -17.5q-8 -10 -14 -18.5t-12 -16.5 q-12 -16 -24.5 -31.5t-24.5 -29.5q-43 -51 -83 -95t-79 -81t-71 -55.5t-56 -18.5l-82 -2h-4h-2l-4 2h-4q-16 4 -31.5 12t-30.5 21q-14 12 -24.5 25.5t-20.5 27.5q-4 10 -8 19.5t-6 19.5q-4 8 -6 16t-2 15v10l8 4h82q4 2 7 0t9 -4q4 -4 10 -8t15 -11v0l2 -2v0v0 q16 6 35.5 17.5t40.5 27.5q37 27 76.5 61t78.5 75q23 23 46.5 48t45.5 52q23 29 43.5 56.5t40.5 54.5q10 12 19.5 25t17.5 28q8 10 15.5 22.5t15.5 24.5l-139 -8h-82q-27 -2 -49.5 5t-38.5 21q-18 16 -30.5 31.5t-21.5 34.5q-4 8 -7 16t-5 17q-2 8 -3 15t-1 13q0 10 2 18.5 t8 12.5h82q6 4 14.5 2t18.5 -10l8 -8l8 -4q23 -14 46.5 -25.5t50.5 -17.5t66.5 -10.5t90.5 -8.5q12 -2 25.5 -3t28.5 -1q8 10 15 21.5t13 23.5q6 10 13.5 21.5t15.5 23.5q14 23 27.5 46.5t27.5 47.5q8 12 15.5 25.5t15.5 28.5q8 14 16 27.5t17 27.5q10 18 20 36.5t21 37.5 q10 16 21 34.5t22 36.5q23 35 45 71t47 69l-2 4l-2 4q-12 23 -30.5 43t-43.5 41q-25 20 -57.5 33.5t-73.5 19.5q-8 0 -15.5 2t-13.5 4q-6 4 -8 7t-2 7t3 9.5t11 9.5t21.5 6t34.5 2h82q37 0 72.5 -3t68.5 -9q35 -6 63.5 -15.5t53.5 -19.5q25 -12 57.5 -61.5t75.5 -133.5 t88 -176t92 -190q0 -2 1 -5t3 -5q0 -4 1 -6.5t3 -6.5q4 -6 7 -11t5 -9q41 -88 82 -169t80 -155q41 -74 75 -121t60 -65q10 -8 17.5 -14.5t13.5 -10.5q4 -4 7 -8t3 -8q0 -2 -1 -6t-5 -6q-2 -4 -7 -7.5t-11 -7.5q-12 -8 -32.5 -17t-49.5 -24l-6 -4l-6 -2l-9 -2h-82h-6 q-2 2 -4 2h-4q-2 2 -4 2h-4t-4 1l-2 1q-2 2 -4 3t-4 1q-37 20 -83 96t-100 207q-49 121 -133 285t-201 369v0zM1241 1386l-190 203l-228 -186h-82l-32 65q8 4 15 9.5t15 11.5t16.5 12t16.5 12t16.5 13.5t16.5 15.5q10 6 19.5 14.5t17.5 16.5q27 23 51.5 44t46.5 42 q23 23 42 38t34 27q4 4 9 6.5t9 2.5h82h9t10 -2q16 -8 34.5 -30t40.5 -59q23 -37 68 -80.5t111 -95.5l-66 -80h-82v0v0z" />
<glyph unicode="&#xc3;" horiz-adv-x="1904" d="M1087 944l-262 -457l353 13h82q35 -2 59 -5t37 -8q12 -6 18 -11t2 -9q-2 -6 -11 -12t-24 -11q-14 -6 -30.5 -8t-34.5 -2l-500 -31q-18 -27 -38.5 -58.5t-43.5 -65.5q-23 -33 -47 -69t-49 -71q-6 -8 -12 -17t-13 -18q-8 -10 -14 -18l-12 -16q-12 -16 -24.5 -33t-24.5 -33 q-43 -47 -83 -91t-79 -81t-71 -55.5t-56 -18.5l-82 -2h-4h-2l-4 2h-4q-16 4 -31.5 12.5t-30.5 20.5q-14 12 -24.5 25.5t-20.5 27.5q-4 10 -8 19.5t-6 19.5q-4 8 -6 16.5t-2 14.5v10l8 4h82q4 2 7 0t9 -4q4 -4 10 -8l15 -10v0l2 -2v0v0q16 6 35.5 17t40.5 28q37 27 76.5 59.5 t78.5 73.5q23 25 46.5 50.5t43.5 51.5q23 27 43.5 54.5t40.5 54.5q4 6 9.5 13t11.5 16q4 6 9 13t9 13q8 10 15.5 22.5t15.5 24.5l-139 -8h-82q-27 -2 -49.5 5t-38.5 22q-18 16 -30.5 31.5t-21.5 33.5q-4 8 -7 16.5t-5 16.5t-3 15.5t-1 13.5q0 10 2 18t8 12h82q6 4 14.5 2 t18.5 -10l8 -8l8 -4q23 -14 46.5 -25.5t50.5 -17.5t66.5 -10t90.5 -9q12 -2 25.5 -3t28.5 -1q8 10 15 21.5t13 23.5q6 10 13.5 21.5t15.5 23.5q14 23 27.5 46.5t27.5 48.5q8 12 15.5 25.5t15.5 27.5t16 27.5t17 27.5q10 18 20 37t21 37q10 16 21 34.5t22 37.5q23 35 45 70.5 t47 68.5l-2 4l-2 4q-12 23 -30.5 43.5t-43.5 40.5t-57.5 33.5t-73.5 19.5q-8 0 -15.5 2t-13.5 4q-6 4 -8 7.5t-2 7.5t3 9t11 9t21.5 6t34.5 2h82q37 0 72.5 -3t68.5 -9q35 -6 63.5 -15t53.5 -20q25 -12 57.5 -61t75.5 -133t88 -176.5t92 -190.5q0 -2 1 -5t3 -5q0 -4 1 -6 l3 -6q4 -6 7 -11.5t5 -9.5q41 -88 82 -169t80 -154q41 -74 75 -121t60 -66l17.5 -14t13.5 -10q4 -4 7 -8.5t3 -8.5q0 -6 -6 -13t-18 -15t-32.5 -17.5t-49.5 -21.5l-6 -4l-6 -2l-9 -3h-82h-6q-2 2 -4 2.5t-4 0.5q-2 2 -4 2h-4t-4 1l-2 1q-2 2 -4 3t-4 1q-37 18 -83 95 t-100 208q-49 121 -133 284.5t-201 368.5v0zM1307 1645h4l4 2h82h4h4l14 -7q4 -4 5 -9t1 -11q0 -8 -3 -17.5t-7 -19.5t-11 -20.5t-18 -20.5q-10 -10 -22 -20.5t-29 -20.5q-14 -10 -33.5 -19t-41.5 -16l-7 -2h-82h-4h-6h-6h-11h-9t-9.5 2t-9.5 4t-9 3.5t-9 3.5q-6 2 -11.5 5 t-9.5 5q-10 4 -20 10t-21 12q-14 8 -29.5 15.5t-31.5 15.5q-2 0 -5 1t-5 3q-4 2 -6.5 3t-6.5 1q-6 -2 -11 -4t-9 -4t-9 -4t-12 -4q-20 -12 -42.5 -32.5t-45.5 -49.5l-12 -14q-4 -2 -8 -5.5t-8 -3.5h-82h-4h-4q-6 0 -10.5 2.5t-8.5 6.5q-2 4 -1 12t9 18q33 51 62.5 86 t56.5 54q29 18 53.5 27t48.5 9h82q10 0 18.5 -1t18.5 -3q8 -2 17.5 -5t17.5 -7q16 -8 33.5 -15t32.5 -18l12 -8t14 -8q6 -4 12.5 -7t12.5 -7q8 -2 15 -5.5t16 -7.5q6 2 12 5.5t12 7.5q16 10 32.5 30.5t33.5 48.5v3v0z" />
<glyph unicode="&#xc4;" horiz-adv-x="1904" d="M1087 961l-262 -457l353 12h82q35 -2 59 -5t37 -7q6 -2 10 -5t8 -5q2 -4 3 -6.5t-1 -6.5q-2 -6 -11 -12t-24 -10q-14 -6 -30.5 -8t-34.5 -2l-500 -29q-18 -27 -37.5 -58.5t-42.5 -66.5q-12 -16 -23 -33.5t-24 -34.5q-12 -18 -24.5 -35.5t-24.5 -33.5q-6 -8 -12 -17.5 t-13 -17.5q-8 -10 -14 -18.5t-12 -16.5q-14 -18 -26.5 -34.5t-24.5 -33.5q-43 -49 -83 -92t-79 -80t-71 -55t-56 -18l-82 -2h-4h-2l-4 2h-4q-16 4 -31.5 12t-30.5 20q-14 12 -24.5 25.5t-20.5 28.5q-4 10 -8 19t-6 20q-4 8 -6 16t-2 14v11l8 4h82q4 2 7 0t9 -4q4 -4 10 -8.5 t15 -10.5v0l2 -2v0v0q16 6 35.5 16.5t40.5 26.5q37 27 76.5 59.5t78.5 75.5q23 25 46.5 50.5t43.5 52.5q23 27 43.5 54.5t40.5 53.5q4 6 9.5 13.5t11.5 15.5q4 6 9 13t9 14q8 10 15.5 22t15.5 25l-139 -9h-82q-27 -2 -49.5 5.5t-38.5 21.5q-18 14 -30.5 29.5t-21.5 34.5 q-4 8 -7 16t-5 16t-3 15.5t-1 13.5q0 8 1 14t3 11q4 4 7 6t7 2h82l11 -2q4 -2 7 -3t7 -5l8 -9l8 -4q23 -14 46.5 -25.5t50.5 -15.5q27 -6 64.5 -10t88.5 -8q14 -2 28.5 -3t29.5 -1q8 10 15 21.5t13 23.5q6 10 13.5 21.5t15.5 23.5q14 23 27.5 46.5t27.5 47.5q8 12 15.5 25.5 t15.5 27.5t16 27.5t17 28.5q10 18 20 36.5t21 36.5q10 16 21 35t22 37q23 35 45 71t47 68l-2 4l-2 4q-12 23 -30.5 43.5t-43.5 40.5t-57.5 33t-73.5 19q-8 0 -15.5 2t-13.5 4q-6 4 -8 8t-2 8v2v2q0 2 2 4l4 4q2 0 6 2.5t8 4.5q8 4 20.5 6t29.5 2h82q37 0 72.5 -3t68.5 -9 q35 -6 63.5 -15.5t53.5 -21.5t57.5 -61.5t75.5 -133.5t88 -175t92 -189q2 -2 3 -5.5t3 -7.5q0 -2 1 -5t3 -5t3 -5t3 -5q0 -4 1 -6t3 -4q41 -88 82 -169t80 -155q41 -74 75 -121t60 -65q10 -8 17.5 -14.5t13.5 -10.5q4 -6 7 -10t3 -8q0 -2 -1 -6.5t-5 -6.5q-2 -4 -7 -7 t-11 -7q-12 -8 -32.5 -18.5t-49.5 -22.5l-6 -2l-6 -2l-9 -2h-82h-6q-2 2 -4 2h-4q-2 2 -4 2h-4t-4 1l-2 1h-4h-4q-37 23 -83 99.5t-100 207.5q-49 121 -133 285t-201 369v0zM1081 1677l6 9q4 2 9.5 3t11.5 1h82h4h4q2 -2 5 -2h5q4 -2 9.5 -3.5t11.5 -1.5q4 -2 9 -4t11 -4 q4 -2 9.5 -4t9.5 -4q10 -4 15 -9t7 -9l2 -4v-3v-190q0 -8 -3 -12t-7 -8q-4 -2 -10 -4.5t-12 -2.5h-82h-8.5h-8.5t-8 2.5t-8 4.5q-10 4 -19.5 8t-19.5 10q-8 6 -14.5 14.5t-10.5 16.5v196v0v0zM791 1677l8 11q4 2 10 3t14 1h82h4h4q2 -2 4.5 -2h4.5h4h4q2 -2 4 -2h4 q4 -2 9 -3.5t11 -3.5q4 -2 9.5 -4t9.5 -6q10 -6 16 -12t8 -17v-190q0 -6 -2 -10t-6 -8q-2 -2 -7 -3t-11 -1h-82h-9t-10 2q-6 0 -11 2t-9 4q-12 4 -21.5 9t-19.5 13q-8 8 -14 15.5t-8 15.5v2v4v180v0v0z" />
<glyph unicode="&#xc5;" horiz-adv-x="1904" d="M1120 911l-262 -456l352 12h82q31 -2 53.5 -4t36.5 -6q12 -4 19.5 -9.5t7.5 -9.5l-2 -4v-4q-6 -6 -15.5 -11t-23.5 -9t-29.5 -6.5t-31.5 -2.5l-500 -30q-18 -27 -38.5 -58.5t-43.5 -66.5q-23 -33 -47.5 -69t-48.5 -71q-6 -8 -12.5 -17t-12.5 -17q-8 -10 -14 -18.5 t-12 -16.5q-12 -16 -24.5 -31.5t-25.5 -30.5q-41 -51 -80.5 -95t-78.5 -81t-71 -55t-56 -18l-82 -2h-4h-2l-4 2h-5q-16 4 -31.5 12t-29.5 20t-25.5 25.5t-21.5 28.5q-6 10 -11.5 19t-9.5 19q-2 8 -4 16.5t-2 14.5l2 10l8 5h82q4 2 7.5 0t9.5 -5l12 -8t14 -10v0l2 -2v0v0 q16 6 37 17.5t41 27.5q37 27 77 61.5t79 73.5q23 23 46.5 48.5t43.5 52.5q23 29 44.5 56.5t41.5 53.5q10 12 19.5 25.5t17.5 27.5q8 10 15 22.5t16 24.5l-140 -8h-82q-27 -2 -49 5.5t-39 21.5q-18 16 -30.5 31.5t-20.5 33.5q-4 8 -7 16.5t-5 16.5t-3 15.5t-1 13.5 q0 10 2 18.5t8 12.5h82q6 4 14 2t19 -11l8 -8l8 -4q23 -14 46.5 -25.5t49.5 -17.5q27 -6 67 -10t91 -8q12 -2 25.5 -3t27.5 -1q8 10 15.5 21t13.5 24q6 10 13 21t16 24q14 23 27.5 46t27.5 48q8 12 15 25.5t16 27.5q8 14 16 27.5t16 27.5q10 18 20.5 37t20.5 37 q10 16 21.5 34.5t21.5 37.5q23 35 45.5 70.5t47.5 68.5l-2 4l-3 4q-12 23 -31.5 43.5t-43.5 40.5q-25 20 -57.5 33.5t-73.5 20.5q-8 0 -16.5 2t-12.5 4q-6 4 -8 8t0 10q0 2 1 4t3 4q2 0 5 2t7 4q8 4 21.5 6.5t31.5 2.5h82h9h8q35 -2 66.5 -5.5t64.5 -9.5t60.5 -14t49.5 -18 q25 -12 57.5 -61.5t75.5 -133.5t88.5 -176t92.5 -191q2 -6 4 -11t4 -9q2 -2 3 -4t3 -4q0 -2 1 -4t3 -4q41 -88 82 -171t80 -157q41 -76 74.5 -123t60.5 -66l17.5 -14t13.5 -10t9 -8t3 -9q0 -2 -1 -6t-5 -6q-2 -4 -7 -7t-11 -5q-12 -6 -33 -17.5t-49 -25.5l-7 -4l-6 -2l-8 -2 h-82h-6l-14 2q-2 2 -4 3l-2 1q-2 2 -4.5 2h-4.5q-39 20 -85 95t-99 206q-49 121 -133 286t-201 371v0zM854 1468q0 6 2 14.5t4 18.5q4 10 8 21.5t11 23.5q10 18 25.5 34.5t35.5 31.5q20 16 48 23t61 7h81h5h4h4h4q45 0 79 -12t54 -39q23 -27 33 -56.5t12 -64.5v-4v-2v-4v-4 l-2 -12q-4 -33 -18.5 -64.5t-38.5 -60.5q-25 -29 -58.5 -44t-77.5 -20h-81q-61 6 -100.5 23.5t-57.5 44.5q-18 29 -27.5 64.5t-9.5 78.5v2v0zM1161 1468q0 23 -8 42.5t-25 35.5q-8 10 -19 16.5t-24 10.5q-10 -4 -19 -9t-17 -14q-14 -14 -21.5 -30.5t-11.5 -32.5q0 -2 -1 -4 l-1 -2q-2 -2 -2 -4v-4v-8.5v-8.5v-11t2 -9q0 -6 1 -10.5t3 -8.5q4 -16 15 -30.5t26 -24.5l16 -8t17 -8q10 4 19 9t17 13q16 14 24.5 39t8.5 59v2v0z" />
<glyph unicode="&#xc6;" horiz-adv-x="2129" d="M483 516q6 29 15.5 58.5t21.5 58.5q10 29 21.5 56.5t23.5 53.5q18 43 37 83t35 77t24.5 70t8.5 63q0 25 -9.5 47.5t-25.5 42.5q-16 18 -46 35t-73 31q-12 10 -11 18.5t15 12.5q12 4 30.5 7t41.5 3h82h7h5q4 -2 7 -2h5h12.5h12.5q23 -2 43 -6t41 -8q18 -6 30.5 -12.5 t18.5 -12.5q23 -29 42.5 -64.5t37.5 -78.5t35.5 -87t32.5 -90q20 -57 36.5 -113.5t30.5 -109.5v-3t2 -1v-3v-3l1 1t1 3t1 3l1 1q18 45 44 91t57 96q49 78 110.5 150.5t132.5 137.5q72 66 148 98.5t153 32.5h82q16 0 33.5 -2t34.5 -6q16 -2 32.5 -8t32.5 -14 q23 -4 41.5 -15.5t36.5 -29.5t27.5 -37t9.5 -41v-6v-4l-2 -7v-4h-82q-12 0 -24.5 2t-22.5 4q-10 4 -20.5 9.5t-20.5 11.5l-10 4l-8 4q-4 2 -8.5 4t-8.5 4q-6 2 -10 4l-8 4q-8 4 -17.5 7.5t-19.5 5.5h-4t-4 2h-6h-4q-4 0 -8.5 1t-8.5 3q-61 -8 -118.5 -32.5t-110.5 -67.5 q-63 -51 -113.5 -106.5t-85.5 -117.5q-2 -4 -5 -9t-7 -9q-2 -4 -4 -9l-4 -10q-23 -45 -39.5 -91t-26.5 -91q-8 -45 -13 -88t-5 -84q0 -25 2 -47t4 -45q4 -23 7 -44.5t7 -41.5q18 -68 53 -113t86 -67q43 -20 93.5 -30.5t109.5 -12.5q39 2 78 9t78 19q25 8 49.5 17.5 t48.5 19.5q23 10 47.5 21.5t48.5 23.5q14 6 26.5 12.5t23.5 8.5q10 4 18 5t14 1h82q16 0 16.5 -7t-14.5 -24q-14 -16 -42.5 -34.5t-76.5 -38.5q-10 -4 -21 -9.5t-24 -9.5l-24 -8t-25 -8q-39 -14 -80 -26.5t-84 -20.5q-45 -10 -89 -16.5t-89 -8.5h-8t-6 -2h-8h-8l-82 -2 q-8 2 -15.5 2h-13.5h-12.5h-12.5h-5h-7q-2 2 -5 2h-7q-12 0 -24.5 1t-24.5 3t-24.5 3t-25.5 3q-70 8 -122 42t-84 93q-33 59 -60.5 126t-50.5 137l-4 8l-4 8t-3 9t-1 9q-4 10 -8.5 20.5t-6.5 22.5q-4 10 -7 20.5t-7 20.5q-6 20 -13 40t-16 38l-116 305l-123 -368h305l14 -6 l4 -13v-4l-2 -4q-2 -4 -5 -8t-7 -8t-9 -6t-11 -2h-7.5h-13.5q-6 -2 -15.5 -2.5t-19.5 -0.5q-20 -2 -43.5 -3t-48.5 -1l-10 -2h-10q-25 -2 -46.5 -3t-43.5 -1q-20 -2 -37 -2h-27q-8 -31 -19.5 -64.5t-23.5 -68.5t-24.5 -70.5t-26.5 -72.5q-23 -57 -50.5 -113.5t-58.5 -107.5 q-33 -53 -70.5 -98.5t-80.5 -78.5l-8 -8l-11 -2h-82q-6 2 -13 4t-15 6q-4 2 -8.5 5.5t-8.5 5.5q-6 4 -10 6t-8 6q-12 10 -22.5 22.5t-20.5 24.5q-10 14 -19.5 27.5t-15.5 25.5l-2 2v2l6 9l6 2l4 4h82h6l9 -2l12 -4l12 -2l13 -3h-82q6 2 12 4.5t14 6.5t17.5 13t17.5 24 q10 10 20.5 21t22.5 24q10 12 21.5 24t21.5 27q10 14 21.5 29.5t23.5 31.5q10 16 21.5 32.5t21.5 33.5q23 35 42.5 69.5t39.5 69.5q4 8 8 16.5t10 18.5q4 8 8.5 16t8.5 17q4 8 8 17t8 20q2 4 5 9t5 9h-4h-4h-4h-4h-82h-15h-16q-8 0 -16 1t-14 3q-33 4 -63.5 11t-59.5 22 q-27 14 -40 36.5t-13 55.5v12l2 13q4 12 11 15t17 -3h82q10 -8 30.5 -17.5t47.5 -19.5q16 -8 38.5 -15.5t49.5 -13.5q16 -2 33.5 -5t38.5 -5h10h12v2v0zM1225 565v31q23 0 42 2t40 4q20 2 39.5 5t39.5 5q33 4 64 7.5t61 7.5q29 2 56.5 6t54.5 6q53 6 94 10t72 4h82h11h11 q4 -2 9.5 -2h9.5q10 -2 16 -3t10 -5l5 -12l2 -13q0 -14 -6.5 -25t-18.5 -22q-12 -10 -24.5 -18t-24.5 -12q-6 -2 -12.5 -5.5t-12.5 -3.5q-6 -2 -12 -2h-10h-82h-47.5t-53.5 2q-27 2 -54 4.5t-56 4.5h-9t-10 2h-11h-9q-8 0 -17.5 1t-19.5 3q-18 2 -36.5 3t-35.5 3 q-16 0 -32.5 1t-32.5 3q-31 4 -53.5 5t-38.5 1v2v0z" />
<glyph unicode="&#xc7;" horiz-adv-x="1679" d="M936 1194q47 14 86 23.5t70 13.5t54 7t42 3h82h9h9h4h4h2h5l10 -2h10q37 0 68.5 -7t58.5 -24q29 -14 50.5 -30.5t35.5 -32.5q6 -8 12 -17.5t11 -17.5q4 -8 6 -16.5t2 -14.5q0 -8 -2 -14t-6 -10t-10.5 -6t-16.5 -2h-82q-6 0 -12 1t-15 3q-8 2 -17 5t-20 7q-16 8 -33.5 14 t-33.5 13q-18 6 -35.5 11t-34.5 9q-12 2 -24.5 4t-24.5 4q-14 2 -26.5 3t-24.5 1q-119 -6 -230.5 -49t-213.5 -121q-113 -88 -183.5 -183t-99.5 -200l-2 -4v-2q-8 -29 -16.5 -56.5t-12.5 -51.5q-4 -25 -6 -47.5t-2 -45.5q-2 -33 3 -62.5t17 -53.5q10 -25 28 -46.5t38 -39.5 q25 -20 62.5 -38t89.5 -30q43 -10 91 -15t101 -7q41 2 82 5t86 7q55 6 110.5 17.5t112.5 25.5q14 4 28.5 8t29.5 8q16 4 31.5 8.5t29.5 10.5q12 4 27.5 9t31.5 11t33 12.5t35 14.5l8 4l10 4q29 12 53.5 23.5t49.5 19.5q23 10 40 15.5t25 5.5h82l6 -3l2 -4l5 -6l2 -6 q0 -8 -7.5 -18.5t-21.5 -20.5t-33.5 -21.5t-44.5 -21.5q-8 -2 -15 -6t-16 -6q-8 -4 -16 -7t-18 -7q-18 -6 -37 -12.5t-39 -12.5q-45 -20 -89 -36.5t-85 -27.5q-41 -8 -78 -17t-68 -15q-35 -8 -62.5 -17.5t-47.5 -17.5q-20 -10 -30.5 -28.5t-10.5 -45.5v-8v-8t1 -8t3 -9 q23 -10 39 -20t24 -23q10 -10 13.5 -21t3.5 -24q-2 -20 -17.5 -39.5t-44.5 -40.5q-31 -20 -62.5 -38.5t-66.5 -32.5l-2 -4h-82v0l-10 6l-8 4q-10 10 -9 17.5t13 15.5l12 8t15 8q6 6 14 10t16 9l13.5 9t15.5 9q6 4 12 9t13 9l-1 4q-1 5 -4 13l-4 8t-6 8q-2 6 -6 10t-10 9 q-2 2 -5 4t-5 4q-4 2 -6.5 4t-6.5 4q-6 2 -13 5t-15 7l-11 6l-2 11q0 8 2 15t9 15q4 8 10 16.5t14 16.5l6 6l8 6q8 12 15.5 21.5t15.5 19.5q4 2 5 5.5t3 5.5q-2 0 -5 -1t-5 -1q-4 0 -6 -1t-6 -1q-33 -4 -73 -7.5t-83 -3.5l-82 -2q-8 2 -17 2h-18q-10 2 -18 2h-18 q-8 0 -18.5 1t-18.5 1q-10 2 -19.5 3t-19.5 1q-66 8 -127.5 22.5t-120.5 39.5q-57 25 -93 62.5t-52 88.5q0 2 -1 4.5t-1 4.5q-2 0 -2 2v4v3v3q-2 2 -2.5 4t-0.5 4q-2 6 -3 13.5t-1 15.5v13v15q0 29 4.5 57.5t12.5 59.5t19.5 61.5t25.5 61.5q35 72 86 142.5t115 140.5 q66 70 134 129t138 110q39 29 77 51.5t77 43.5q39 20 75.5 35.5t69.5 23.5v2v0z" />
<glyph unicode="&#xc8;" horiz-adv-x="1679" d="M1679 242q10 -4 17.5 -9.5t11.5 -9.5q4 -6 5 -11t-1 -9t-5 -9.5t-9 -9.5q-4 -6 -11.5 -11t-15.5 -9q-14 -8 -31.5 -16.5t-40.5 -16.5q-20 -8 -41.5 -16.5t-44.5 -14.5q-31 -10 -59.5 -19t-56.5 -15q-27 -8 -45.5 -12.5t-28.5 -6.5q-39 -14 -80 -24.5t-84 -20.5 q-43 -6 -85 -12t-83 -13q-14 -2 -27.5 -3t-27.5 -3q-14 0 -27.5 -1t-25.5 -3q-27 -2 -53.5 -3t-53.5 -1l-82 -2q-123 2 -229.5 19.5t-196.5 50.5q-90 35 -137 87t-51 122v5v5q-2 4 -2 7v5v12.5v12.5v7v5q-2 4 -2 7v5v12.5v14.5q0 41 12 91t37 114q25 63 86 149t160 193 q121 115 232.5 192.5t211.5 116.5q102 41 188.5 60.5t159.5 19.5h82q31 0 59.5 -3t55.5 -7t49.5 -10.5t42.5 -14.5l8 -4l13 -6q10 -6 19 -13.5t17 -17.5q4 -4 9.5 -9t9.5 -9q4 -6 8 -11.5t8 -9.5q8 -10 14.5 -20.5t12.5 -20.5q4 -8 7 -16t3 -15l-4 -10l-8 -2h-82h-8l-11 4 q-49 20 -97 35.5t-95 24.5q-37 8 -74 12t-74 6q-84 -2 -161.5 -22.5t-149.5 -57.5q-80 -43 -147.5 -98t-120.5 -127q-2 -2 -4 -5t-4 -5q-4 -4 -6.5 -6t-4.5 -7l-8 -12t-8 -10q-27 -39 -54.5 -79t-51.5 -81q-25 -41 -43.5 -82t-28.5 -82q-2 -12 -5 -23t-5 -22 q-2 -12 -2 -23.5v-21.5q0 -25 3 -48t11 -46q8 -25 20.5 -47.5t30.5 -44.5q33 -45 80 -75t109 -46q55 -14 111 -22.5t114 -10.5q43 2 85 5t83 8q49 6 93 13t81 15q18 2 40.5 6t49.5 13q27 8 53.5 17t52.5 17q4 2 7.5 3.5t7.5 3.5q2 0 6 1t6 3q4 0 7 1t7 3q2 0 6.5 1t6.5 3 q35 12 65.5 23.5t57.5 21.5q29 10 48 18.5t31 10.5v2h82v0zM387 565v47q66 2 125 5.5t115 7.5q55 4 107 9t102 11q84 8 155.5 15.5t128.5 15.5q59 6 102.5 10t69.5 4h82q10 0 19.5 -1t15.5 -3l12 -10l4 -10l2 -9q0 -4 -1 -9t-3 -9q-2 -6 -3 -11t-3 -10q-4 -8 -9 -15t-11 -13 t-11.5 -12.5t-9.5 -10.5q-6 -6 -11 -9t-9 -7q-4 -2 -8.5 -3t-8.5 -1q-8 -2 -21 -3t-30 -1h-82h-32.5h-38.5h-69t-77 2q-39 0 -81 1t-83 3h-15t-13 2h-15.5h-15.5h-15.5t-13.5 2h-15h-13q-55 2 -105.5 3t-93.5 3q-45 2 -76 3t-47 1v2v0zM920 1710l8 2l10 2h82q4 0 6 -1t6 -1 q2 -2 5 -4t5 -4q4 -4 9.5 -10t11.5 -15q6 -12 14 -26.5t17 -30.5q8 -16 17 -33.5t17 -34.5q12 -20 26.5 -39.5t29.5 -37.5q16 -18 34.5 -34t41.5 -26l12 -6l6 -10v-4v-2v-4v-2q-2 -8 -5 -14.5t-9 -12.5q-2 -2 -6.5 -5t-6.5 -3q-4 -2 -7 -3t-7 -1h-82h-4l-6 2q-8 4 -21.5 11 t-31.5 19t-37 26.5t-37 31.5q-16 12 -31.5 27.5t-32.5 29.5q-8 8 -14 16.5t-12 16.5q-6 6 -12.5 14t-10.5 17q-6 10 -10 19t-8 17q-2 10 -4 19.5t-2 17.5v9.5t2 11.5q0 4 2 9t4 9t5 8.5l7 10.5l8 8t11 8v2v0z" />
<glyph unicode="&#xc9;" horiz-adv-x="1679" d="M1679 242q10 -4 17.5 -9.5t11.5 -9.5q4 -6 5 -11t-1 -9t-5 -9.5t-9 -9.5q-4 -6 -11.5 -11t-15.5 -9q-14 -8 -31.5 -16.5t-40.5 -16.5q-20 -8 -41.5 -16.5t-44.5 -14.5q-31 -10 -59.5 -19t-56.5 -15q-27 -8 -45.5 -12.5t-28.5 -6.5q-39 -14 -80 -24.5t-84 -20.5 q-43 -6 -85 -12t-83 -13q-14 -2 -27.5 -3t-27.5 -3q-14 0 -27.5 -1t-25.5 -3q-27 -2 -53.5 -3t-53.5 -1l-82 -2q-123 2 -229.5 19.5t-196.5 50.5q-90 35 -137 87t-51 122v5v5q-2 4 -2 7v5v12.5v12.5v7v5q-2 4 -2 7v5v12.5v14.5q0 41 12 91t37 114q25 63 86 149t160 193 q121 115 232.5 192.5t211.5 116.5q102 41 188.5 60.5t159.5 19.5h82q31 0 59.5 -3t55.5 -7t49.5 -10.5t42.5 -14.5l8 -4l13 -6q10 -6 19 -13.5t17 -17.5q4 -4 9.5 -9t9.5 -9q4 -6 8 -11.5t8 -9.5q8 -10 14.5 -20.5t12.5 -20.5q4 -8 7 -16t3 -15l-4 -10l-8 -2h-82h-8l-11 4 q-49 20 -97 35.5t-95 24.5q-37 8 -74 12t-74 6q-84 -2 -161.5 -22.5t-149.5 -57.5q-80 -43 -147.5 -98t-120.5 -127q-2 -2 -4 -5t-4 -5q-4 -4 -6.5 -6t-4.5 -7l-8 -12t-8 -10q-27 -39 -54.5 -79t-51.5 -81q-25 -41 -43.5 -82t-28.5 -82q-2 -12 -5 -23t-5 -22 q-2 -12 -2 -23.5v-21.5q0 -25 3 -48t11 -46q8 -25 20.5 -47.5t30.5 -44.5q33 -45 80 -75t109 -46q55 -14 111 -22.5t114 -10.5q43 2 85 5t83 8q49 6 93 13t81 15q18 2 40.5 6t49.5 13q27 8 53.5 17t52.5 17q4 2 7.5 3.5t7.5 3.5q2 0 6 1t6 3q4 0 7 1t7 3q2 0 6.5 1t6.5 3 q35 12 65.5 23.5t57.5 21.5q29 10 48 18.5t31 10.5v2h82v0zM387 565v47q66 2 125 5.5t115 7.5q55 4 107 9t102 11q84 8 155.5 15.5t128.5 15.5q59 6 102.5 10t69.5 4h82q10 0 19.5 -1t15.5 -3l12 -10l4 -10l2 -9q0 -4 -1 -9t-3 -9q-2 -6 -3 -11t-3 -10q-4 -8 -9 -15t-11 -13 t-11.5 -12.5t-9.5 -10.5q-6 -6 -11 -9t-9 -7q-4 -2 -8.5 -3t-8.5 -1q-8 -2 -21 -3t-30 -1h-82h-32.5h-38.5h-69t-77 2q-39 0 -81 1t-83 3h-15t-13 2h-15.5h-15.5h-15.5t-13.5 2h-15h-13q-55 2 -105.5 3t-93.5 3q-45 2 -76 3t-47 1v2v0zM1049 1565q6 4 11 12t9 16 q4 10 9 20.5t9 20.5v4l5 7q6 16 12 29.5t14 25.5q6 12 17.5 18t25.5 6h82q4 0 8 -2t11 -4q4 -4 8 -9t8 -11q8 -12 12 -25.5t6 -30.5v-4v-2v-6l-2 -6l-2 -8v-6q-51 -76 -94 -125t-80 -74t-63.5 -36t-44.5 -11h-82h-15l-10 4q-14 10 -12 19.5t18 21.5q16 10 36 27.5t44 42.5 q6 8 14.5 17t16.5 20q8 10 15 22t14 25v2v0z" />
<glyph unicode="&#xca;" horiz-adv-x="1679" d="M1679 242q10 -4 17.5 -9.5t11.5 -9.5q4 -6 5 -11t-1 -9t-5 -9.5t-9 -9.5q-4 -6 -11.5 -11t-15.5 -9q-14 -8 -31.5 -16.5t-40.5 -16.5q-20 -8 -41.5 -16.5t-44.5 -14.5q-31 -10 -59.5 -19t-56.5 -15q-27 -8 -45.5 -12.5t-28.5 -6.5q-39 -14 -80 -24.5t-84 -20.5 q-43 -6 -85 -12t-83 -13q-14 -2 -27.5 -3t-27.5 -3q-14 0 -27.5 -1t-25.5 -3q-27 -2 -53.5 -3t-53.5 -1l-82 -2q-123 2 -229.5 19.5t-196.5 50.5q-90 35 -137 87t-51 122v5v5q-2 4 -2 7v5v12.5v12.5v7v5q-2 4 -2 7v5v12.5v14.5q0 41 12 91t37 114q25 63 86 149t160 193 q121 115 232.5 192.5t211.5 116.5q102 41 188.5 60.5t159.5 19.5h82q31 0 59.5 -3t55.5 -7t49.5 -10.5t42.5 -14.5l8 -4l13 -6q10 -6 19 -13.5t17 -17.5q4 -4 9.5 -9t9.5 -9q4 -6 8 -11.5t8 -9.5q8 -10 14.5 -20.5t12.5 -20.5q4 -8 7 -16t3 -15l-4 -10l-8 -2h-82h-8l-11 4 q-49 20 -97 35.5t-95 24.5q-37 8 -74 12t-74 6q-84 -2 -161.5 -22.5t-149.5 -57.5q-80 -43 -147.5 -98t-120.5 -127q-2 -2 -4 -5t-4 -5q-4 -4 -6.5 -6t-4.5 -7l-8 -12t-8 -10q-27 -39 -54.5 -79t-51.5 -81q-25 -41 -43.5 -82t-28.5 -82q-2 -12 -5 -23t-5 -22 q-2 -12 -2 -23.5v-21.5q0 -25 3 -48t11 -46q8 -25 20.5 -47.5t30.5 -44.5q33 -45 80 -75t109 -46q55 -14 111 -22.5t114 -10.5q43 2 85 5t83 8q49 6 93 13t81 15q18 2 40.5 6t49.5 13q27 8 53.5 17t52.5 17q4 2 7.5 3.5t7.5 3.5q2 0 6 1t6 3q4 0 7 1t7 3q2 0 6.5 1t6.5 3 q35 12 65.5 23.5t57.5 21.5q29 10 48 18.5t31 10.5v2h82v0zM387 565v47q66 2 125 5.5t115 7.5q55 4 107 9t102 11q84 8 155.5 15.5t128.5 15.5q59 6 102.5 10t69.5 4h82q10 0 19.5 -1t15.5 -3l12 -10l4 -10l2 -9q0 -4 -1 -9t-3 -9q-2 -6 -3 -11t-3 -10q-4 -8 -9 -15t-11 -13 t-11.5 -12.5t-9.5 -10.5q-6 -6 -11 -9t-9 -7q-4 -2 -8.5 -3t-8.5 -1q-8 -2 -21 -3t-30 -1h-82h-32.5h-38.5h-69t-77 2q-39 0 -81 1t-83 3h-15t-13 2h-15.5h-15.5h-15.5t-13.5 2h-15h-13q-55 2 -105.5 3t-93.5 3q-45 2 -76 3t-47 1v2v0zM1225 1370l-191 203l-227 -187h-82 l-31 66q8 4 16.5 10t16.5 13q10 6 19.5 13t17.5 15q6 6 14 12.5t17 12.5q8 6 15 13l15 15q27 23 51.5 44.5t47.5 41.5q23 23 42 38.5t33 27.5q4 4 9.5 6t9.5 2h82h9t9 -2q16 -8 34.5 -29.5t41.5 -58.5t68 -81t110 -95l-65 -80h-82v0v0z" />
<glyph unicode="&#xcb;" horiz-adv-x="1679" d="M1679 242q10 -4 17.5 -9.5t11.5 -9.5q4 -6 5 -11t-1 -9t-5 -9.5t-9 -9.5q-4 -6 -11.5 -11t-15.5 -9q-14 -8 -31.5 -16.5t-40.5 -16.5q-20 -8 -41.5 -16.5t-44.5 -14.5q-31 -10 -59.5 -19t-56.5 -15q-27 -8 -45.5 -12.5t-28.5 -6.5q-39 -14 -80 -24.5t-84 -20.5 q-43 -6 -85 -12t-83 -13q-14 -2 -27.5 -3t-27.5 -3q-14 0 -27.5 -1t-25.5 -3q-27 -2 -53.5 -3t-53.5 -1l-82 -2q-123 2 -229.5 19.5t-196.5 50.5q-90 35 -137 87t-51 122v5v5q-2 4 -2 7v5v12.5v12.5v7v5q-2 4 -2 7v5v12.5v14.5q0 41 12 91t37 114q25 63 86 149t160 193 q121 115 232.5 192.5t211.5 116.5q102 41 188.5 60.5t159.5 19.5h82q31 0 59.5 -3t55.5 -7t49.5 -10.5t42.5 -14.5l8 -4l13 -6q10 -6 19 -13.5t17 -17.5q4 -4 9.5 -9t9.5 -9q4 -6 8 -11.5t8 -9.5q8 -10 14.5 -20.5t12.5 -20.5q4 -8 7 -16t3 -15l-4 -10l-8 -2h-82h-8l-11 4 q-49 20 -97 35.5t-95 24.5q-37 8 -74 12t-74 6q-84 -2 -161.5 -22.5t-149.5 -57.5q-80 -43 -147.5 -98t-120.5 -127q-2 -2 -4 -5t-4 -5q-4 -4 -6.5 -6t-4.5 -7l-8 -12t-8 -10q-27 -39 -54.5 -79t-51.5 -81q-25 -41 -43.5 -82t-28.5 -82q-2 -12 -5 -23t-5 -22 q-2 -12 -2 -23.5v-21.5q0 -25 3 -48t11 -46q8 -25 20.5 -47.5t30.5 -44.5q33 -45 80 -75t109 -46q55 -14 111 -22.5t114 -10.5q43 2 85 5t83 8q49 6 93 13t81 15q18 2 40.5 6t49.5 13q27 8 53.5 17t52.5 17q4 2 7.5 3.5t7.5 3.5q2 0 6 1t6 3q4 0 7 1t7 3q2 0 6.5 1t6.5 3 q35 12 65.5 23.5t57.5 21.5q29 10 48 18.5t31 10.5v2h82v0zM387 565v47q66 2 125 5.5t115 7.5q55 4 107 9t102 11q84 8 155.5 15.5t128.5 15.5q59 6 102.5 10t69.5 4h82q10 0 19.5 -1t15.5 -3l12 -10l4 -10l2 -9q0 -4 -1 -9t-3 -9q-2 -6 -3 -11t-3 -10q-4 -8 -9 -15t-11 -13 t-11.5 -12.5t-9.5 -10.5q-6 -6 -11 -9t-9 -7q-4 -2 -8.5 -3t-8.5 -1q-8 -2 -21 -3t-30 -1h-82h-32.5h-38.5h-69t-77 2q-39 0 -81 1t-83 3h-15t-13 2h-15.5h-15.5h-15.5t-13.5 2h-15h-13q-55 2 -105.5 3t-93.5 3q-45 2 -76 3t-47 1v2v0zM1049 1628l6 8q4 2 9 3t11 1h82h4h4 q2 -2 5.5 -2h5.5q4 0 9 -1t11 -3q12 -2 23.5 -7t19.5 -9q4 -2 8 -5t6 -5q4 -4 5.5 -6.5t1.5 -6.5v-192q0 -8 -2.5 -12.5t-6.5 -8.5q-4 -2 -10 -4t-12 -2h-82h-8t-9 2q-4 0 -9 1t-9 3q-10 4 -19.5 8.5t-19.5 12.5q-8 6 -14 14t-10 17v194v0v0zM758 1628l8 10q4 2 10 3t15 1 h81h4.5h4.5q2 -2 4 -2h4h8h8q4 -2 9.5 -4t11.5 -4q4 -2 9 -4t9 -6q10 -6 16.5 -12t8.5 -15v-192q0 -6 -2 -10t-6 -9q-2 -2 -7.5 -3t-11.5 -1h-82h-9t-9 2q-6 0 -11.5 2t-9.5 5q-12 4 -23.5 11t-21.5 15q-8 8 -13 17.5t-5 17.5v178v0v0z" />
<glyph unicode="&#xcc;" horiz-adv-x="561" d="M127 1731q10 4 17 4t15 -4q6 -4 13.5 -11.5t15.5 -17.5q6 -12 14.5 -26.5t16.5 -30.5q8 -18 17 -35.5t20 -34.5q10 -20 24 -39.5t29 -38.5q16 -18 34.5 -33.5t41.5 -25.5l14 -10q2 -2 3 -4l1 -2q2 -2 2 -4.5v-4.5v-4l-2 -4q-2 -6 -5 -12t-9 -10q-6 -6 -12.5 -8.5 t-12.5 -2.5h-82h-6l-6 2q-8 4 -21.5 11.5t-31.5 19.5t-37 26.5t-37 31.5q-16 12 -31.5 27.5t-32.5 29.5q-14 16 -27.5 32.5t-23.5 32.5q-2 4 -5 8.5t-5 10.5q-2 4 -3 8t-3 8t-3 8.5t-1 10.5q-2 4 -2 8v8v9t2 12q0 4 2 9t4 9t5 8t7 10q4 4 8 8.5t11 8.5v2h82v0zM145 1243v0v8 l-2 4v7l7 30q4 8 7 10.5t9 2.5h82q6 0 14 -2.5t17 -10.5q10 -4 19 -13l17 -17q2 -4 4.5 -5.5t4.5 -1.5q0 -4 2 -6t4 -2q2 -4 4 -6t4 -2q2 -4 4 -6t4 -6q4 -2 6 -6t6 -4q2 -4 5.5 -8.5t5.5 -8.5q6 -4 11 -9t9 -13q4 -4 5 -19.5t3 -38.5v-23.5t2 -25.5v-27.5v-31.5v-40v-44 q-2 -23 -2 -46.5v-45.5q-2 -49 -3 -97.5t-1 -103.5l-2 -19v-18q-2 -47 -3 -93t-1 -91q-2 -47 -2 -89v-81v-44.5v-39.5q0 -20 1 -38t3 -32v-12l2 -15v-16l2 -14v-4v-13l-6 -22q-2 -4 -6 -9l-8 -10l-6 -8l-5 -4h-81h-7h-4h-8l-8 4q-8 8 -16.5 10.5t-14.5 8.5q-4 4 -7 8t-7 4 l-4 8t-4 6l-6 8l-2 13q-2 10 -3.5 33.5t-1.5 58.5v68.5v85.5v17v21v18.5v22.5v64v67v70v70q-2 111 -4 211t-6 192t-12 143.5t-21 63.5v4v0z" />
<glyph unicode="&#xcd;" horiz-adv-x="561" d="M293 1573q6 4 11 12l10 16q2 4 4 9.5t6 11.5q2 4 4 9t4 9l4 8l2 9q6 16 12.5 28.5t14.5 24.5q6 10 16 16t25 6h82q10 0 19 -7t17 -19t12.5 -26.5t4.5 -31.5v-8v-8l-4 -12q-51 -76 -94 -125t-80 -74t-63.5 -36t-45.5 -11h-82h-14l-10 4h-2v2q-12 10 -9.5 19.5t19.5 19.5 q16 10 35.5 27.5t42.5 40.5q6 10 14 19t16 20q8 10 15.5 21t13.5 24v2v0zM145 1243v0v8l-2 4v7l7 30q4 8 7 10.5t9 2.5h82q6 0 14 -2.5t17 -10.5q10 -4 19 -13l17 -17q2 -4 4.5 -5.5t4.5 -1.5q0 -4 2 -6t4 -2q2 -4 4 -6t4 -2q2 -4 4 -6t4 -6q4 -2 6 -6t6 -4q2 -4 5.5 -8.5 t5.5 -8.5q6 -4 11 -9t9 -13q4 -4 5 -19.5t3 -38.5v-23.5t2 -25.5v-27.5v-31.5v-40v-44q-2 -23 -2 -46.5v-45.5q-2 -49 -3 -97.5t-1 -103.5l-2 -19v-18q-2 -47 -3 -93t-1 -91q-2 -47 -2 -89v-81v-44.5v-39.5q0 -20 1 -38t3 -32v-12l2 -15v-16l2 -14v-4v-13l-6 -22 q-2 -4 -6 -9l-8 -10l-6 -8l-5 -4h-81h-7h-4h-8l-8 4q-8 8 -16.5 10.5t-14.5 8.5q-4 4 -7 8t-7 4l-4 8t-4 6l-6 8l-2 13q-2 10 -3.5 33.5t-1.5 58.5v68.5v85.5v17v21v18.5v22.5v64v67v70v70q-2 111 -4 211t-6 192t-12 143.5t-21 63.5v4v0z" />
<glyph unicode="&#xce;" horiz-adv-x="561" d="M463 1377l-191 239l-227 -221h-82l-31 76q10 4 19.5 11t19.5 15q4 4 8 8.5t8 8.5q6 2 10.5 7t8.5 9q6 8 11 15.5t13 13.5q4 6 7.5 9t7.5 7q2 4 6 7t6 8q29 27 53.5 54t48.5 50q23 27 43.5 45t34.5 33l8 8l9 2l4 2h82h4l6 -2h6q16 -10 34.5 -35.5t41.5 -68.5t67.5 -95.5 t110.5 -113.5l-66 -92h-81v0v0zM145 1243v0v8l-2 4v7l7 30q4 8 7 10.5t9 2.5h82q6 0 14 -2.5t17 -10.5q10 -4 19 -13l17 -17q2 -4 4.5 -5.5t4.5 -1.5q0 -4 2 -6t4 -2q2 -4 4 -6t4 -2q2 -4 4 -6t4 -6q4 -2 6 -6t6 -4q2 -4 5.5 -8.5t5.5 -8.5q6 -4 11 -9t9 -13q4 -4 5 -19.5 t3 -38.5v-23.5t2 -25.5v-27.5v-31.5v-40v-44q-2 -23 -2 -46.5v-45.5q-2 -49 -3 -97.5t-1 -103.5l-2 -19v-18q-2 -47 -3 -93t-1 -91q-2 -47 -2 -89v-81v-44.5v-39.5q0 -20 1 -38t3 -32v-12l2 -15v-16l2 -14v-4v-13l-6 -22q-2 -4 -6 -9l-8 -10l-6 -8l-5 -4h-81h-7h-4h-8l-8 4 q-8 8 -16.5 10.5t-14.5 8.5q-4 4 -7 8t-7 4l-4 8t-4 6l-6 8l-2 13q-2 10 -3.5 33.5t-1.5 58.5v68.5v85.5v17v21v18.5v22.5v64v67v70v70q-2 111 -4 211t-6 192t-12 143.5t-21 63.5v4v0z" />
<glyph unicode="&#xcf;" horiz-adv-x="561" d="M311 1667l6 6q4 2 9.5 3.5t11.5 1.5h82h4h4q2 -2 5 -2h5q4 0 9.5 -1.5t11.5 -3.5q12 -2 23 -7t20 -9q4 -2 8 -5t6 -5q4 -4 5 -6t1 -6v-193q0 -8 -3 -12t-7 -8q-4 -2 -10 -3.5t-13 -1.5h-82h-8h-8t-8 1t-8 4q-10 4 -19.5 8t-19.5 10q-8 6 -14.5 15.5t-10.5 17.5v196v0v0z M20 1667l9 11q4 2 9 3t13 1h82h4h4q2 -2 4 -2h4h4.5h4.5q2 -2 5 -2h5l9 -4.5t11 -4.5q4 -2 9.5 -4t9.5 -6q10 -6 16 -12t8 -14v-193l-8 -16q-2 -2 -7 -4.5t-11 -2.5h-82h-9.5t-9.5 3q-6 0 -11 2t-9 4q-12 4 -23.5 11t-21.5 15q-8 8 -13.5 17.5t-5.5 17.5v180v0v0zM145 1243 v0v8l-2 4v7l7 30q4 8 7 10.5t9 2.5h82q6 0 14 -2.5t17 -10.5q10 -4 19 -13l17 -17q2 -4 4.5 -5.5t4.5 -1.5q0 -4 2 -6t4 -2q2 -4 4 -6t4 -2q2 -4 4 -6t4 -6q4 -2 6 -6t6 -4q2 -4 5.5 -8.5t5.5 -8.5q6 -4 11 -9t9 -13q4 -4 5 -19.5t3 -38.5v-23.5t2 -25.5v-27.5v-31.5v-40 v-44q-2 -23 -2 -46.5v-45.5q-2 -49 -3 -97.5t-1 -103.5l-2 -19v-18q-2 -47 -3 -93t-1 -91q-2 -47 -2 -89v-81v-44.5v-39.5q0 -20 1 -38t3 -32v-12l2 -15v-16l2 -14v-4v-13l-6 -22q-2 -4 -6 -9l-8 -10l-6 -8l-5 -4h-81h-7h-4h-8l-8 4q-8 8 -16.5 10.5t-14.5 8.5q-4 4 -7 8 t-7 4l-4 8t-4 6l-6 8l-2 13q-2 10 -3.5 33.5t-1.5 58.5v68.5v85.5v17v21v18.5v22.5v64v67v70v70q-2 111 -4 211t-6 192t-12 143.5t-21 63.5v4v0z" />
<glyph unicode="&#xd0;" horiz-adv-x="1679" d="M334 723h373q55 0 99 1t79 1q33 2 60.5 3t47.5 1q20 2 35 3t25 3q8 0 15 1t15 1q2 2 6.5 2t10.5 -2q4 -2 9 -3t11 -3q2 0 3 -2t1 -4q2 -2 3.5 -4t1.5 -4v-43v-2v-2q-2 -2 -3 -4v-2q-2 -4 -2 -7.5t-4 -7.5q-6 -6 -11 -12t-13 -12q-6 -6 -13.5 -10.5t-17.5 -6.5h-1h-3h-4 h-4h-11.5h-11.5h-59.5t-81.5 2q-25 2 -50.5 2h-49.5q-27 2 -54.5 2t-56.5 2q-18 0 -37.5 1t-38.5 1q-20 0 -39.5 1.5t-38.5 1.5q-41 0 -81.5 1t-79.5 1q-39 2 -75 2h-71q-37 0 -70.5 -1t-62.5 -1q-29 -2 -49.5 -3.5t-32.5 -3.5q-4 0 -7 1t-5 4q-2 2 -3 5t-1 7l-2 41q2 2 2 3 v1q2 0 2 1v3v1v3v1v3q2 4 3 8t5 9q2 2 2 3v3l3 3l3 3l4 4h6q10 2 21.5 3t23.5 1h26.5h25.5h23.5h23.5h24.5t22.5 -2h8h10h13.5h13.5h13h14h13t15 -2h13.5h13.5h2v0zM336 1139q-45 -12 -77 -24.5t-50 -22.5q-27 -14 -43.5 -21.5t-20.5 -7.5h-82q-8 4 -17 8t-16 10 q-8 6 -12 13.5t-8 15.5q-4 4 -5 9t-3 9t-3 9.5t-1 7.5v8l2 6q8 4 16 7t23 10q14 4 30.5 10t36.5 12q10 2 19.5 5t19.5 5q4 2 9 3t12 3q4 0 9 1.5t11 3.5q10 2 18.5 4t18.5 4q8 0 17.5 2t17.5 4q18 4 33.5 5t29.5 1q4 4 7 9t5 7l3 11v2v2q0 4 1 8t3 10q0 6 3 14.5t9 18.5h4 t4 2h2h4h4t4 2h4.5h4.5h82q18 0 33.5 -4t29.5 -12t27.5 -15.5t25.5 -17.5l11 -6l10 -6l4 -4l2 -3h2v0h9t9 3h9.5h9.5h82h20h21q133 0 256 -15.5t233 -46.5q111 -31 195 -92.5t141 -155.5q10 -16 17.5 -33.5t11.5 -35.5t7 -37t3 -39q0 -14 -1 -27.5t-3 -27.5q-2 -8 -3 -15.5 t-1 -13.5q-2 -8 -3 -15.5t-3 -13.5q-8 -33 -19.5 -66.5t-27.5 -66.5q-8 -16 -16.5 -31.5t-14.5 -29.5q-8 -14 -16.5 -28.5t-16.5 -27.5q-8 -14 -15 -26.5t-16 -22.5q-8 -12 -15 -21.5t-13 -19.5q-39 -49 -101.5 -95t-150.5 -89t-181.5 -78t-189.5 -59q-49 -12 -98 -21.5 t-97 -13.5q-47 -6 -92 -10t-86 -4l-82 -2q-61 2 -112 10t-92 22q-41 16 -63.5 46t-27.5 69l5 6h2t2 2h4h4h82q10 0 22.5 -3t30.5 -7t36.5 -9t39.5 -12q2 0 4 -1t4 -1q2 -2 4 -3t4 -1l15 1041v0zM596 1178l-97 -1098l7 -2q193 4 342 48t256 126q115 88 181 184t87 203 q2 10 3 21.5t3 21.5v11t2 12v9v11q0 94 -38 177t-114 157q-70 68 -172 104.5t-237 40.5q-6 0 -13.5 -1t-15.5 -1q-14 -2 -27.5 -2t-29.5 -2q-33 -2 -68 -8t-69 -14h-82v2h82v0z" />
<glyph unicode="&#xd1;" horiz-adv-x="1904" d="M66 -102q10 10 20 21t23 28q29 41 59.5 95t62.5 124q18 39 36 80t34 86t33.5 90t32.5 90q23 72 43 140.5t36 135.5q16 68 25.5 124.5t11.5 101.5q0 29 -9 54.5t-25 45.5t-35 36.5t-37 31.5q-16 10 -31.5 20t-32.5 19q-8 4 -14 8t-10 10q-4 4 -8.5 8t-6.5 8q-4 6 -3 11.5 t10 7.5q6 4 16 5t25 1h81q10 0 24.5 -1t29.5 -3q8 -2 15 -3t15 -1q8 -2 16.5 -3t16.5 -3q20 -6 40 -12.5t40 -12.5q18 -8 33.5 -15t28.5 -18q23 -20 61.5 -71.5t95.5 -130.5q57 -82 118.5 -169t127.5 -180q4 -4 6 -8t6 -8q2 -4 5 -8t5 -8q4 -8 10.5 -15.5t12.5 -15.5 q68 -98 133.5 -184t128.5 -164q39 -47 71 -80t56 -51q4 10 9 20t8 23q6 29 10 60.5t6 64.5v7t2 7v6v8v15.5v15.5v15.5v15.5v15v13q0 4 -1 7.5t-1 7.5v6v6v11v10q0 94 -4 173.5t-15 147.5q-8 66 -17 122t-19 101q-12 47 -21.5 83t-19.5 63q-8 27 -12.5 48t-4.5 36l6 10 q4 2 8.5 3t10.5 3h82q6 0 15 -1t18 -5q10 -2 19 -5t19 -7q6 -2 11.5 -5.5t11.5 -5.5q4 -4 9 -6t11 -6q10 -6 18.5 -12t16.5 -12q4 -4 7.5 -8.5t5.5 -8.5l6 -14v-21.5v-21.5v-24.5v-24.5v-97.5v-111.5q0 -57 -1 -117.5t-3 -122.5q-4 -111 -13.5 -213t-21.5 -199 q-14 -94 -37 -148t-53 -73l-9 -6l-8 -4h-10l-8 -2h-82q-12 2 -25.5 6t-27.5 12t-27.5 16.5t-26.5 18.5q-12 10 -24 22.5t-25 26.5q-12 14 -24.5 28.5t-24.5 29.5q-16 20 -31.5 39.5t-31.5 38.5q-14 18 -27.5 33.5t-24.5 27.5q-168 207 -280.5 344t-165.5 207 q-25 33 -47.5 59.5t-42.5 46.5q-2 -37 -10.5 -79.5t-20.5 -94.5q-18 -80 -39.5 -161.5t-46.5 -167.5q-4 -14 -8 -28.5t-8 -29.5q-6 -14 -10.5 -27.5t-8.5 -27.5q-8 -27 -16 -54.5t-16 -54.5q-29 -86 -56.5 -157.5t-52.5 -132.5q-27 -59 -44 -90t-28 -31h-4h-2h-4h-4h-4 t-4 -2h-4h-4h-11.5h-9.5h-4t-4 -2h-6h-4l-82 -2q-4 2 -8.5 2h-6.5q-4 2 -7 2h-7q-8 2 -15 3t-14 3q-8 4 -17 10t-19 16q-10 8 -21.5 20.5t-19.5 29.5v4q2 4 2 6v2q2 2 2 4v4l10 12q6 4 12 6.5t15 2.5l79 -2q0 2 1 2h1l1 1l2 1v-2zM1323 1661h4l4 2h82h4h4l15 -6q4 -4 5 -9.5 t1 -11.5q0 -8 -2 -17t-6 -20q-4 -10 -12.5 -21t-18.5 -22q-8 -10 -21.5 -20t-29.5 -20q-14 -10 -34 -19.5t-42 -15.5l-6 -2h-82h-4h-6h-4h-13l-10 2q-12 2 -24.5 6t-24.5 10t-24.5 13.5t-24.5 15.5q-14 8 -29.5 15t-32.5 15q-2 0 -5 1.5t-5 3.5l-6 3t-6 1q-6 -2 -11.5 -4 t-9.5 -5q-4 -2 -9 -4t-11 -4q-20 -12 -43 -32.5t-45 -49.5l-13 -14q-4 -2 -9 -5t-9 -3h-82h-4h-4q-6 0 -10 2t-9 6q-2 4 0 11t9 18q33 51 63.5 86t56.5 53q29 18 53.5 27.5t49.5 9.5h82q18 0 36.5 -4t34.5 -13q16 -8 34 -15t34 -17q6 -4 12 -8.5t15 -6.5q6 -4 12 -7t12 -7 q4 -2 7 -3t8 -3q4 -2 7 -3t7 -3q6 2 12 5t12 7q16 10 33 30.5t33 49.5v2v0z" />
<glyph unicode="&#xd2;" horiz-adv-x="1904" d="M811 1731q10 4 17 4t15 -4q6 -4 13.5 -11.5t15.5 -17.5q6 -12 14.5 -26.5t16.5 -30.5q8 -18 17 -35.5t20 -34.5q10 -20 24 -39.5t29 -38.5q16 -18 34.5 -33.5t41.5 -25.5l14 -10q2 -2 3 -4l1 -2q2 -2 2 -4.5v-4.5v-4l-2 -4q-2 -6 -5 -12t-9 -10q-6 -6 -12.5 -8.5 t-12.5 -2.5h-82h-6l-6 2q-8 4 -21.5 11.5t-31.5 19.5t-37 26.5t-37 31.5q-16 12 -31.5 27.5t-32.5 29.5q-14 16 -27.5 32.5t-23.5 32.5q-2 4 -5 8.5t-5 10.5q-2 4 -3 8t-3 8t-3 8.5t-1 10.5q-2 4 -2 8v8v9t2 12q0 4 2 9t4 9t5 8t7 10q4 4 8 8.5t11 8.5v2h82v0zM129 662 q29 68 76 133t110 129q66 61 133.5 114.5t139.5 98.5q57 35 112.5 64.5t110.5 49.5q55 23 100 33t80 10h82q12 0 23.5 -1t19.5 -5q10 -2 17.5 -7l13.5 -9l2 -17q-2 -2 -4 -3t-4 -1q-4 -2 -8.5 -3t-8.5 -3q-27 -8 -72.5 -18t-111.5 -27q-63 -14 -133 -47t-143 -82 q-4 -2 -8.5 -5t-8.5 -7q-4 -2 -8 -5t-8 -7q-45 -37 -85 -82t-73 -99q-33 -53 -58.5 -108.5t-41.5 -112.5q-8 -27 -14.5 -54.5t-10.5 -55.5q-4 -27 -6 -52.5t-2 -50.5q0 -39 5 -76t17 -67q12 -33 31 -57.5t43 -41.5q23 -29 64 -50t98 -34q53 -12 108.5 -18t112.5 -8 q66 2 128.5 9t121.5 20q61 12 108.5 29.5t79.5 37.5q55 37 108.5 86t102.5 107q49 59 83 118.5t53 122.5q2 6 3 12.5t1 12.5q2 4 3 10t1 12q2 12 3 24.5t1 25.5v7v5q-2 4 -2 7v5v7v5q-2 4 -2 7.5v5.5q-16 113 -54 190.5t-98 120.5q-51 37 -105.5 58.5t-113.5 25.5 q-57 -4 -111.5 -19.5t-107.5 -39.5q-57 -27 -99 -56.5t-71 -60.5q-4 -6 -8 -11.5t-8 -9.5q-2 -6 -5.5 -11t-7.5 -9q-4 -10 -9 -18.5t-11 -14.5t-12.5 -9t-12.5 -5l-10 -2h-82h-8q-8 0 -17.5 2t-15.5 8q-6 4 -9 10t-3 15v7t2 7t5 8t5 8q41 55 95.5 99.5t121.5 74.5 q68 31 137.5 50.5t141.5 27.5h9t11 2h9.5h9.5h9t11 2h9h12h82q104 0 197 -25.5t175 -78.5q82 -51 123 -130t41 -184q-6 -158 -82 -295t-221 -251q-145 -115 -305 -182.5t-334 -88.5q-18 -4 -36.5 -5t-37.5 -3h-17t-18 -2h-18h-18l-82 -2q-29 2 -56.5 3t-56.5 5 q-27 2 -53.5 7.5t-52.5 11.5q-78 14 -144.5 51t-122.5 92q-55 55 -83.5 126t-28.5 159q0 29 3 57.5t11 58.5q6 31 17.5 64t25.5 65v3v0z" />
<glyph unicode="&#xd3;" horiz-adv-x="1904" d="M129 645q29 68 76 133.5t110 128.5q66 61 133.5 114.5t139.5 98.5q57 35 112.5 64.5t110.5 50.5q55 23 100 33t80 10h82q12 0 23.5 -1t19.5 -5q10 -2 17.5 -7t13.5 -10l2 -14q-2 -2 -7 -5t-16 -5q-27 -8 -72.5 -19.5t-111.5 -25.5t-135.5 -47t-142.5 -84q-4 -2 -8.5 -5 t-8.5 -8q-4 -2 -8 -5t-8 -7q-45 -35 -85 -80t-75 -98q-33 -55 -57.5 -110.5t-40.5 -112.5q-8 -27 -14.5 -54.5t-10.5 -54.5t-6 -52.5t-2 -49.5q0 -39 5 -76t17 -68q12 -33 31 -57t43 -41q23 -29 64 -50.5t98 -33.5q53 -12 108.5 -18t112.5 -8q66 2 128.5 9t121.5 19 q61 12 108.5 28.5t79.5 37.5q55 37 108.5 86t102.5 106q49 59 83 118.5t53 123.5q2 6 3 12t1 12q2 4 3 10.5t1 12.5q2 12 3 24.5t1 24.5v7v5q-2 4 -2 7.5v5.5v7v5q-2 4 -2 7v5q-16 113 -54 191t-98 121q-51 37 -105.5 58t-113.5 26q-57 -4 -111.5 -19.5t-107.5 -40.5 q-57 -27 -99 -56.5t-71 -60.5q-4 -6 -8 -11t-8 -9q-2 -6 -5.5 -11t-7.5 -9q-4 -10 -9 -18.5t-11 -14.5t-12.5 -9.5t-12.5 -5.5l-10 -2h-82h-8q-8 0 -17.5 2t-15.5 9q-6 4 -9 10t-3 14v7t2 8q2 4 5 8t5 8q41 55 95.5 99t121.5 75q68 31 137.5 50.5t141.5 27.5h9t11 2h9.5h9.5 h9t11 2h9h12h82q104 0 197 -25.5t175 -79.5q82 -51 123 -129.5t41 -183.5q-6 -158 -82 -294t-221 -251t-305 -182.5t-334 -89.5q-18 -4 -36.5 -5t-37.5 -3h-17t-18 -2h-18h-18l-82 -2q-29 2 -56.5 3t-56.5 5q-27 2 -53.5 7t-52.5 11q-78 18 -144.5 53t-122.5 91 q-55 55 -83.5 125.5t-28.5 158.5q0 29 3 57.5t11 59.5q6 31 17.5 63.5t25.5 65.5v2v0zM1178 1548q6 4 11 12.5t9 16.5q2 4 4 9t4 11q2 4 4 9.5t4 9.5l3 6l4 6q6 16 12 29.5t14 25.5q6 12 17.5 18.5t25.5 6.5h82q10 0 17.5 -6t15.5 -19q8 -12 13 -24t7 -27v-6v-4v-6l-2 -6 l-2 -8v-7q-51 -76 -94 -126t-80 -74q-37 -25 -64.5 -36t-45.5 -11h-82h-15l-8 4q-14 10 -12 19t18 22q16 10 36 27.5t44 41.5q6 8 14.5 17.5t16.5 19.5t15 22.5t14 24.5v2v0z" />
<glyph unicode="&#xd4;" horiz-adv-x="1904" d="M129 662q29 68 76 133t110 129q66 61 133.5 114.5t139.5 98.5q57 35 112.5 64.5t110.5 49.5q55 23 100 33t80 10h82q12 0 23.5 -1t19.5 -5q10 -2 17.5 -7l13.5 -9l2 -17q-2 -2 -4 -3t-4 -1q-4 -2 -8.5 -3t-8.5 -3q-27 -8 -72.5 -18t-111.5 -27q-63 -14 -133 -47t-143 -82 q-4 -2 -8.5 -5t-8.5 -7q-4 -2 -8 -5t-8 -7q-45 -37 -85 -82t-73 -99q-33 -53 -58.5 -108.5t-41.5 -112.5q-8 -27 -14.5 -54.5t-10.5 -55.5q-4 -27 -6 -52.5t-2 -50.5q0 -39 5 -76t17 -67q12 -33 31 -57.5t43 -41.5q23 -29 64 -50t98 -34q53 -12 108.5 -18t112.5 -8 q66 2 128.5 9t121.5 20q61 12 108.5 29.5t79.5 37.5q55 37 108.5 86t102.5 107q49 59 83 118.5t53 122.5q2 6 3 12.5t1 12.5q2 4 3 10t1 12q2 12 3 24.5t1 25.5v7v5q-2 4 -2 7v5v7v5q-2 4 -2 7.5v5.5q-16 113 -54 190.5t-98 120.5q-51 37 -105.5 58.5t-113.5 25.5 q-57 -4 -111.5 -19.5t-107.5 -39.5q-57 -27 -99 -56.5t-71 -60.5q-4 -6 -8 -11.5t-8 -9.5q-2 -6 -5.5 -11t-7.5 -9q-4 -10 -9 -18.5t-11 -14.5t-12.5 -9t-12.5 -5l-10 -2h-82h-8q-8 0 -17.5 2t-15.5 8q-6 4 -9 10t-3 15v7t2 7t5 8t5 8q41 55 95.5 99.5t121.5 74.5 q68 31 137.5 50.5t141.5 27.5h9t11 2h9.5h9.5h9t11 2h9h12h82q104 0 197 -25.5t175 -78.5q82 -51 123 -130t41 -184q-6 -158 -82 -295t-221 -251q-145 -115 -305 -182.5t-334 -88.5q-18 -4 -36.5 -5t-37.5 -3h-17t-18 -2h-18h-18l-82 -2q-29 2 -56.5 3t-56.5 5 q-27 2 -53.5 7.5t-52.5 11.5q-78 14 -144.5 51t-122.5 92q-55 55 -83.5 126t-28.5 159q0 29 3 57.5t11 58.5q6 31 17.5 64t25.5 65v3v0zM1386 1386l-190 203l-227 -186h-82l-33 65q8 4 17.5 10.5t17.5 12.5q10 6 19.5 13t17.5 16l7 7l7 7l6 6t8 6q8 6 15.5 12.5t15.5 14.5 q27 23 51.5 44t46.5 42q23 23 43.5 38t34.5 27q4 4 9.5 6.5t9.5 2.5h82h8t8 -2q16 -6 34.5 -29t41.5 -60t67.5 -80.5t112.5 -95.5l-66 -80h-82v0v0z" />
<glyph unicode="&#xd5;" horiz-adv-x="1904" d="M96 662q29 68 76 133t111 129q66 61 133 114.5t139 98.5q57 35 112.5 64.5t110.5 49.5q55 23 100.5 33t79.5 10h82q12 0 23.5 -1t19.5 -5q10 -2 17.5 -7l13.5 -9l2 -17q-2 -2 -4 -3t-4 -1q-4 -2 -8 -3t-8 -3q-27 -8 -72 -18t-111 -27q-63 -14 -131.5 -46t-140.5 -81 q-6 -2 -11 -5t-10 -7l-4 -4t-4 -2q-4 -2 -6 -4l-4 -4q-45 -37 -85 -82t-73 -99q-33 -53 -58.5 -108.5t-41.5 -112.5q-8 -27 -14.5 -54.5t-10.5 -55.5q-4 -27 -6 -52.5t-2 -50.5q0 -39 5 -76t18 -67q12 -33 30.5 -57.5t42.5 -41.5q23 -29 64 -50t98 -34q53 -12 108.5 -18 t112.5 -8q66 2 128.5 9t121.5 20q61 12 108.5 29.5t80.5 37.5q57 37 110.5 86t102.5 107q49 59 82.5 121.5t50.5 125.5q4 10 6 22.5t4 25.5q0 6 1 12t1 12q2 4 2 10.5v12.5v10l-2 12l-2 10v13q-18 113 -55 190.5t-96 120.5q-51 37 -106.5 58.5t-115.5 25.5 q-57 -4 -112.5 -19.5t-108.5 -39.5q-57 -27 -98 -56.5t-70 -60.5q-4 -6 -8 -11.5t-8 -9.5q-2 -6 -5 -11t-7 -9q-4 -12 -10.5 -20.5t-14.5 -14.5t-15.5 -9t-13.5 -5h-82h-6h-4q-8 0 -16 2t-15 6q-6 4 -10 11t-4 16v7t2 7t5 8t5 8q43 57 98.5 101.5t125.5 76.5 q68 31 139.5 50.5t144.5 25.5h8.5h10.5h8h8h8t11 2h8h8h82q104 0 197.5 -25.5t175.5 -78.5q82 -51 122.5 -130t40.5 -184q-6 -158 -80.5 -294t-220.5 -250q-145 -115 -305 -182.5t-334 -90.5q-20 -4 -38.5 -5t-36.5 -3h-17.5t-19.5 -2h-17.5h-19.5l-82 -2q-27 2 -54.5 3 t-56.5 5q-27 2 -53.5 7.5t-52.5 11.5q-78 14 -145.5 51t-122.5 92t-83 126t-28 159q0 29 3 57.5t9 58.5q6 31 17.5 64t25.5 65v3v0zM1436 1628h4l4 2h82h4h4l14 -6q4 -4 5 -9t1 -11q0 -8 -3 -17.5t-7 -19.5t-11 -20.5t-17 -20.5t-22.5 -20.5t-29.5 -20.5 q-14 -10 -33.5 -19.5t-41.5 -15.5l-7 -2h-82h-4h-6h-6h-11h-9t-9.5 2t-9.5 4t-9 3t-9 3q-6 2 -11.5 5t-9.5 5q-10 4 -20 10.5t-21 12.5q-14 8 -29.5 15.5t-31.5 15.5q-2 0 -5 1t-5 3q-4 2 -6.5 3t-6.5 1q-6 -2 -11 -4t-9 -4t-9 -4t-12 -4q-20 -12 -42.5 -33t-45.5 -49 l-12 -15q-4 -2 -8 -5t-8 -3h-82h-4h-4q-6 0 -10.5 2t-8.5 6q-2 4 -1 12.5t9 18.5q33 51 62.5 86t56.5 53q29 18 53.5 27.5t48.5 9.5h82q10 0 18.5 -1t18.5 -3q8 -2 17.5 -5t17.5 -7q16 -8 33.5 -15.5t32.5 -17.5l12 -8t14 -8q6 -4 12.5 -7.5t12.5 -7.5q8 -2 15 -5t16 -7 q6 2 12 5t12 7q16 10 32.5 30.5t33.5 49.5v2v0z" />
<glyph unicode="&#xd6;" horiz-adv-x="1904" d="M113 662q29 68 76 133t110 129q66 61 133.5 114.5t138.5 98.5q57 35 112.5 64.5t111.5 49.5q55 23 100 33t80 10h82q12 0 23.5 -1t19.5 -5q10 -2 17 -7t13 -9l3 -17q-2 -2 -4.5 -3t-4.5 -1q-4 -2 -8 -3t-8 -3q-27 -8 -73 -18t-111 -27q-63 -14 -133 -47t-144 -82 q-4 -2 -8 -5t-8 -7q-4 -2 -8.5 -5t-8.5 -7q-45 -37 -85 -82t-72 -99q-33 -53 -58.5 -108.5t-42.5 -112.5q-8 -27 -14 -54.5t-10 -55.5q-4 -27 -6 -52.5t-2 -50.5q0 -39 5 -76t17 -67q12 -33 30.5 -57.5t43.5 -41.5q23 -29 63.5 -50t98.5 -34q53 -12 108 -18t113 -8 q66 2 128 9t122 20q61 12 108 29.5t80 37.5q57 37 110.5 86t102.5 107q49 59 83 121.5t50 125.5q4 10 6 22.5t4 25.5q0 6 1 12t1 12q2 4 2.5 10.5t0.5 12.5v10l-3 12l-2 10v13q-18 113 -55 190.5t-96 120.5q-51 37 -106.5 58.5t-114.5 25.5q-57 -4 -112.5 -19.5 t-108.5 -39.5q-57 -27 -98.5 -56.5t-69.5 -60.5q-4 -6 -8.5 -11.5t-8.5 -9.5q-2 -6 -5 -11t-7 -9q-4 -12 -10 -20.5t-15 -14.5q-8 -6 -15 -9t-13 -5h-82h-6h-4q-8 0 -16.5 2t-14.5 8q-8 4 -11.5 10t-3.5 15v7t2 7t5.5 8t5.5 8q41 55 95 99.5t122 74.5q68 31 137.5 50.5 t140.5 27.5h9.5t11.5 2h9h9h9.5t11.5 2h9h11h82q104 0 197.5 -25.5t175.5 -78.5q82 -51 123 -130t41 -184q-4 -158 -80 -294t-221 -250q-145 -115 -305 -182.5t-334 -90.5q-18 -4 -37 -5t-37 -3h-17.5t-19.5 -2h-17.5h-19.5l-82 -2q-27 2 -54.5 3t-55.5 5q-27 2 -53.5 7.5 t-53.5 11.5q-78 14 -145.5 51t-122.5 92t-84 126t-29 159q0 29 3 57.5t12 58.5q6 31 17 64t26 65v3v0zM1225 1694l6 8q4 2 9 3t11 1h82h4h4q2 -2 5.5 -2h5.5q4 -2 9 -3t11 -1q4 -2 9 -4t12 -4q4 -2 9 -4t9 -5q10 -4 15.5 -9t7.5 -9l2 -4v-2v-191q0 -8 -2 -12t-7 -8 q-4 -2 -10 -4t-12 -2h-82h-8t-8 2q-4 0 -9.5 1t-9.5 3q-10 4 -19 8t-20 10q-8 6 -14 14.5t-10 16.5v197v0v0zM936 1694l8 10q4 2 10.5 3t14.5 1h82h4h4q2 -2 4 -2h4h4h4q2 -2 4 -2h4q4 -2 9.5 -3t11.5 -3q4 -2 9 -4t9 -6q10 -6 16.5 -12.5t8.5 -16.5v-191q0 -6 -2 -10t-6 -8 q-2 -2 -7.5 -3t-11.5 -1h-82h-9t-9 2q-6 0 -11 2l-10 4q-12 4 -21 9t-20 14q-8 8 -14 15t-8 15v2v4v181v0v0z" />
<glyph unicode="&#xd7;" horiz-adv-x="1306" d="M838 676l4 2h82h2h2l8 -2l12 -4q4 -2 6 -5t7 -5q2 -4 5 -6.5t5 -6.5q4 -2 6 -6t4 -6q2 -4 4 -7t4 -7l2 -13l2 -8l-2 -14l-6 -10l-6 -5l-6 -4q-18 -8 -49 -20t-76 -27q-45 -14 -92 -42.5t-97 -69.5q-6 -6 -12 -11.5t-12 -9.5q-6 -6 -11.5 -11t-9.5 -9q86 -106 150.5 -174 t103.5 -97q41 -27 70 -47t45 -33l8 -10l10 -8q0 -6 -7 -13t-19 -16q-14 -6 -28.5 -12t-31.5 -12q-8 -2 -16 -3t-16 -3h-7.5t-7.5 -2h-5h-7l-82 -2q-23 2 -46 16t-48 43q-25 27 -50.5 58.5t-51.5 68.5q-8 10 -16.5 20.5t-14.5 20.5q-8 10 -16.5 20.5t-16.5 20.5q-4 6 -9 12 t-11 12q-6 -8 -12.5 -17t-12.5 -19q-10 -14 -20.5 -31t-20.5 -33q-12 -18 -22.5 -35.5t-20.5 -36.5l-6 -10l-4 -8q-25 -37 -46.5 -73t-41.5 -68q-20 -35 -34.5 -57.5t-25.5 -30.5l-10 -9l-8 -2h-82l-8 2l-8 2q-8 4 -15.5 10.5t-13.5 12.5t-11 12l-10 12l-4 11v8l2 10l4 8 q12 23 32 47.5t44 55.5q25 27 51.5 58.5t53.5 64.5l8 10l8 10q23 27 44.5 51.5t41.5 48.5q23 25 41.5 46.5t32.5 39.5q-63 74 -120.5 125.5t-104.5 77.5q-47 27 -78 48.5t-43 39.5l-8 13l-3 12v4v4q2 4 8.5 7t14.5 5q10 2 21.5 3t25.5 1h82h7h7q4 -2 8.5 -2h8.5h8h8 q4 -2 8 -2h9q18 -2 36.5 -7t36.5 -11q16 -6 29.5 -12.5t21.5 -14.5q23 -20 39.5 -37.5t28.5 -31.5t23.5 -28.5t21.5 -27.5l4 -6l4 -4q4 -6 9.5 -12t9.5 -12l1 1l1 1l1 1l1 1q14 16 29.5 32.5t33.5 32.5q12 10 24.5 21.5t27.5 23.5q12 10 25 21.5t28 21.5q8 6 16 11.5t17 9.5 q6 6 14 11t16 9t15.5 8.5t15.5 8.5q6 2 13 5t16 5v0v0z" />
<glyph unicode="&#xd8;" horiz-adv-x="1904" d="M145 709q4 10 13.5 25.5t23.5 35.5q12 20 27.5 42t34.5 42l4 4t4 6q0 2 2 4l4 4q4 4 8 9.5t8 11.5q23 25 42.5 47.5t37.5 42.5t30.5 32.5t18.5 14.5q12 10 30 24.5t38 28.5q20 16 44 33t50 35q45 29 97.5 54.5t111.5 49.5q59 25 124 37.5t134 12.5h82q6 0 11 -2.5t8 -6.5 q4 -2 5 -7t1 -9t-1 -8t-5 -8q-2 -4 -7.5 -6.5t-11.5 -2.5h-12h-10q-78 0 -152 -20.5t-145 -60.5q-70 -43 -129.5 -89.5t-106.5 -97.5q-10 -10 -20.5 -21.5t-18.5 -21.5q-10 -12 -18 -23.5t-17 -21.5q-14 -20 -26.5 -40.5t-22.5 -37.5q-18 -39 -33.5 -73.5t-27.5 -65.5 t-20.5 -61.5t-12.5 -61.5q-2 -10 -3 -21.5t-1 -21.5q-2 -10 -2 -21.5v-21.5v-9v-9v-8.5t2 -8.5v-10v-8v-4t2 -4v-6.5v-4.5q0 -49 14.5 -94t40.5 -86q16 -27 39 -45t49 -31l871 983l-4 7l-13 8q-10 4 -25.5 8t-37.5 8q-4 0 -9 1t-10 1q-10 2 -19 3t-19 1t-21.5 -1t-21.5 -3 t-21.5 -4t-22.5 -4q-12 -2 -23 -4t-22 -6q-37 -10 -71.5 -27.5t-69.5 -40.5t-65.5 -53.5t-55.5 -71.5q-4 -6 -9 -12t-11 -10t-12.5 -7t-12.5 -8q-6 -2 -10 -4t-8 -2q-4 -2 -8 -2h-9h-81q-6 -2 -12.5 0t-10.5 4q-4 4 -6 8.5t-2 12.5t3 19.5t11 25.5q6 14 18.5 32.5t30.5 39.5 q31 25 65 46t70 40q35 16 71 30.5t73 26.5q35 10 70.5 17t72.5 14q35 4 69 7t66 3h82q29 0 53.5 -1t49.5 -5h3h3l1 -1t3 -1q4 6 8 11t8 11q4 4 8.5 8t8.5 7q10 8 18 12t16 4h82q4 0 9.5 -2t7.5 -6q4 -2 5 -7.5t1 -9.5t-1 -9t-5 -11q-2 -6 -6 -12.5t-9 -10.5l-8 -8l-8 -8 q72 -33 122 -73t79 -87q29 -49 43 -100t14 -105v-9v-9q-2 -6 -2 -11v-10q0 -8 -1 -17t-3 -19q-4 -29 -11 -57.5t-18 -57.5q-8 -27 -20 -54.5t-25 -52.5q-57 -113 -136 -201.5t-181 -154.5q-100 -63 -206 -108.5t-214 -67.5q-10 -2 -19.5 -4t-19.5 -4q-8 0 -17.5 -2t-19.5 -4 q-8 -2 -17 -4.5t-20 -4.5q-8 0 -17 -2t-20 -4q-25 -4 -46 -6t-40 -4h-19t-19 -2h-16.5h-16.5l-82 -2q-27 2 -48.5 2t-39.5 4q-6 0 -13.5 2t-13.5 2q-8 2 -15 4t-14 2q-2 -2 -3 -4t-3 -4q-4 -6 -9 -11l-9 -9q-14 -12 -27.5 -21.5t-25.5 -13.5l-82 -2q-12 -2 -17.5 1t-5.5 13 q-2 6 0 15.5t8 21.5t15.5 26.5t23.5 30.5q-8 4 -19 7.5t-22 5.5q-12 4 -23 8t-22 10q-4 2 -9 4t-9 4q-6 4 -11.5 7t-9.5 6q-10 6 -19 13t-17 15q-31 29 -54.5 62.5t-40.5 72.5q-16 41 -24 84t-8 90q-2 35 3 72t15 76t25.5 78t35.5 78v2v0zM1464 1071l-866 -975 q25 -8 52.5 -15t56.5 -11q23 -2 44 -4.5t42 -4.5q6 0 12 1t12 1q4 0 10.5 1.5t12.5 1.5q23 2 46 5t48 7q88 14 171 43t163 72t137 99t94 126q4 8 9 17t12 22q6 12 12 26.5t12 28.5q10 25 20.5 53.5t18.5 61.5q10 33 14.5 66.5t4.5 68.5q0 12 -1.5 26.5t-3.5 28.5t-4 27.5 t-6 27.5q-8 31 -22.5 62t-34.5 61q-12 20 -28.5 39t-37.5 37v0z" />
<glyph unicode="&#xd9;" horiz-adv-x="1679" d="M453 709q-2 -4 -3 -9.5t-1 -11.5q-2 -6 -3.5 -13t-3.5 -16q-2 -8 -3 -15t-1 -15q-2 -8 -3 -16.5t-3 -18.5q-2 -8 -3 -15.5t-1 -15.5q-2 -8 -3 -15t-1 -13q-4 -31 -7 -60t-7 -57q-2 -27 -4.5 -43.5t-2.5 -22.5q4 -47 22.5 -88t51.5 -76q25 -27 55.5 -44t65.5 -23q2 2 3 2 h3q14 4 28.5 8t29.5 12q59 29 111 74t97 105q47 59 87 122.5t77 128.5q16 29 29.5 56.5t28.5 54.5q14 29 27.5 54.5t25.5 49.5q10 16 17 38t14 48q6 27 11 54.5t9 54.5q4 31 9 60.5t7 58.5q4 29 7.5 51.5t5.5 38.5h82h8h10q53 0 86 -18.5t47 -55.5q12 -37 19.5 -77t9.5 -85 v-9v-9q-2 -4 -2 -9v-9v-16.5v-16.5v-8.5v-8.5q-2 -4 -2 -8v-8v-16.5v-16.5v-14v-12v-12.5t2 -10.5q4 -43 9 -83t7 -79q4 -39 7 -73.5t5 -69.5q6 -94 17.5 -172t25.5 -137q16 -57 50 -94t88 -50q2 -4 0 -8t-6 -6q-6 -4 -12.5 -9t-14.5 -11q-4 -2 -8 -4.5t-8 -4.5 q-4 0 -8.5 -2t-8.5 -4l-16 -8t-17 -8q-14 -4 -29.5 -9.5t-27.5 -9.5q-14 -4 -23.5 -6t-13.5 -2l-4 -4h-82h-4q-18 2 -33.5 29.5t-27.5 81.5q-12 55 -22.5 117.5t-20.5 132.5q-2 14 -4.5 28.5t-2.5 30.5q-2 14 -4 28.5t-4 28.5t-4 27.5t-2 28.5q-2 12 -4 25l-4 26v3v3 q-2 2 -2 4v4v4v4q-2 0 -2 2v4q-2 4 -4 10.5t-2 14.5q-2 8 -3 17.5t-1 19.5q-2 10 -3 19.5t-4 19.5q-2 10 -3 21.5t-1 23.5q0 4 -1 8t-1 8q-2 4 -3 8.5t-1 8.5q-2 -4 -3 -8.5t-3 -8.5t-3 -8t-3 -8q-14 -39 -32.5 -77t-39.5 -79q-37 -74 -82 -144.5t-98 -137.5 q-53 -68 -117.5 -120t-138.5 -87q-8 -4 -16.5 -7.5t-16.5 -7.5q-8 -2 -15 -5t-15 -7q-16 -2 -33 -5t-33 -5q-14 -4 -29.5 -5t-31.5 -1l-82 -2q-47 2 -89 14t-77 39q-37 27 -56.5 69t-23.5 99q-2 14 -2 27.5v27.5v27.5v27.5q0 66 2 123.5t8 106.5t12.5 91t12.5 79q4 25 9 46 t9 40q4 18 8 34.5t6 30.5q8 35 14.5 66t8.5 57q4 29 6 52.5t2 43.5q0 23 -1 41.5t-5 32.5q-2 8 -3 15.5t-1 13.5q-2 6 -3 12t-3 12q-6 23 -9.5 36.5t-7.5 21.5q-2 8 5.5 14t21.5 12l10 2l13 5h81q45 -8 77 -19.5t50 -28.5q18 -14 27.5 -37.5t9.5 -52.5q0 -33 -9 -76.5 t-26 -99.5q-18 -55 -37.5 -126.5t-41.5 -157.5h-82v2h82v0zM872 1741q10 4 17.5 4t15.5 -4q6 -4 13.5 -11.5t15.5 -17.5q6 -12 14 -26.5t17 -30.5q8 -16 17 -33.5t19 -36.5q10 -20 24.5 -38.5t29.5 -37.5q16 -18 34.5 -33.5t40.5 -25.5l15 -10q2 -2 3 -4l1 -2q2 -2 2 -4.5 v-4.5l-2 -6v-4q-2 -6 -6 -12t-8 -10q-2 -2 -5.5 -4.5t-5.5 -4.5q-4 0 -6 -1t-6 -1l-8 -2h-82l-6 4q-8 4 -21.5 11.5t-31.5 19.5t-37 26.5t-37 31.5q-16 12 -31.5 27.5t-32.5 29.5q-14 16 -27.5 32.5t-23.5 32.5q-2 4 -5 8.5t-5 10.5q-2 4 -3 8t-3 8t-3 8t-1 11q-2 4 -2 8v8 v9t2 12q0 4 2 9t4 9t5 8t7 10q4 4 8 8.5t11 8.5v2h81v0z" />
<glyph unicode="&#xda;" horiz-adv-x="1679" d="M453 709q-2 -4 -3 -9.5t-1 -11.5q-2 -6 -3.5 -13t-3.5 -16q-2 -8 -3 -15t-1 -15q-2 -8 -3 -16.5t-3 -18.5q-2 -8 -3 -15.5t-1 -15.5q-2 -8 -3 -15t-1 -13q-4 -31 -7 -60t-7 -57q-2 -27 -4.5 -43.5t-2.5 -22.5q4 -47 22.5 -88t51.5 -76q25 -27 55.5 -44t65.5 -23q2 2 3 2 h3q14 4 28.5 8t29.5 12q59 29 111 74t97 105q47 59 87 122.5t77 128.5q16 29 29.5 56.5t28.5 54.5q14 29 27.5 54.5t25.5 49.5q10 16 17 38t14 48q6 27 11 54.5t9 54.5q4 31 9 60.5t7 58.5q4 29 7.5 51.5t5.5 38.5h82h8h10q53 0 86 -18.5t47 -55.5q12 -37 19.5 -77t9.5 -85 v-9v-9q-2 -4 -2 -9v-9v-16.5v-16.5v-8.5v-8.5q-2 -4 -2 -8v-8v-16.5v-16.5v-14v-12v-12.5t2 -10.5q4 -43 9 -83t7 -79q4 -39 7 -73.5t5 -69.5q6 -94 17.5 -172t25.5 -137q16 -57 50 -94t88 -50q2 -4 0 -8t-6 -6q-6 -4 -12.5 -9t-14.5 -11q-4 -2 -8 -4.5t-8 -4.5 q-4 0 -8.5 -2t-8.5 -4l-16 -8t-17 -8q-14 -4 -29.5 -9.5t-27.5 -9.5q-14 -4 -23.5 -6t-13.5 -2l-4 -4h-82h-4q-18 2 -33.5 29.5t-27.5 81.5q-12 55 -22.5 117.5t-20.5 132.5q-2 14 -4.5 28.5t-2.5 30.5q-2 14 -4 28.5t-4 28.5t-4 27.5t-2 28.5q-2 12 -4 25l-4 26v3v3 q-2 2 -2 4v4v4v4q-2 0 -2 2v4q-2 4 -4 10.5t-2 14.5q-2 8 -3 17.5t-1 19.5q-2 10 -3 19.5t-4 19.5q-2 10 -3 21.5t-1 23.5q0 4 -1 8t-1 8q-2 4 -3 8.5t-1 8.5q-2 -4 -3 -8.5t-3 -8.5t-3 -8t-3 -8q-14 -39 -32.5 -77t-39.5 -79q-37 -74 -82 -144.5t-98 -137.5 q-53 -68 -117.5 -120t-138.5 -87q-8 -4 -16.5 -7.5t-16.5 -7.5q-8 -2 -15 -5t-15 -7q-16 -2 -33 -5t-33 -5q-14 -4 -29.5 -5t-31.5 -1l-82 -2q-47 2 -89 14t-77 39q-37 27 -56.5 69t-23.5 99q-2 14 -2 27.5v27.5v27.5v27.5q0 66 2 123.5t8 106.5t12.5 91t12.5 79q4 25 9 46 t9 40q4 18 8 34.5t6 30.5q8 35 14.5 66t8.5 57q4 29 6 52.5t2 43.5q0 23 -1 41.5t-5 32.5q-2 8 -3 15.5t-1 13.5q-2 6 -3 12t-3 12q-6 23 -9.5 36.5t-7.5 21.5q-2 8 5.5 14t21.5 12l10 2l13 5h81q45 -8 77 -19.5t50 -28.5q18 -14 27.5 -37.5t9.5 -52.5q0 -33 -9 -76.5 t-26 -99.5q-18 -55 -37.5 -126.5t-41.5 -157.5h-82v2h82v0zM920 1565q6 4 11 12t9 16q4 10 9 20.5t9 20.5v4l5 7q6 16 12 29.5t14 25.5q6 12 17.5 18t25.5 6h82q4 0 8 -2t11 -4q4 -4 8 -9t8 -11q8 -12 12 -25.5t6 -30.5v-4v-2v-6l-2 -6l-2 -8v-6q-51 -76 -94 -125t-80 -74 t-63.5 -36t-44.5 -11h-82h-15l-10 4q-14 10 -12 19.5t18 21.5q16 10 36 27.5t44 42.5q6 8 14.5 17t16.5 20q8 10 15 22t14 25v2v0z" />
<glyph unicode="&#xdb;" horiz-adv-x="1679" d="M436 709q-2 -4 -3 -9.5t-1 -11.5q-2 -6 -3 -12t-3 -12q-2 -14 -4 -31t-4 -33q-2 -8 -3 -16.5t-1 -16.5q-2 -8 -3 -16t-1 -16q-4 -31 -7.5 -60t-7.5 -57q-2 -27 -4 -43.5t-2 -22.5q4 -47 21.5 -88t50.5 -76q25 -27 55.5 -44t65.5 -23q2 2 3 2h3q14 4 28.5 8t28.5 12 q59 29 111.5 74t97.5 105q47 59 87 122.5t77 128.5q16 29 29.5 56.5t27.5 54.5q14 29 27.5 54.5t25.5 49.5q10 16 17.5 38t13.5 48q6 27 11.5 54.5t9.5 54.5q4 31 9 60.5t7 58.5q2 14 4 26.5t4 24.5q0 10 2 20.5t4 18.5h82h8h11q53 0 84.5 -18.5t46.5 -53.5q12 -37 19 -76.5 t9 -85.5v-9v-9q-2 -4 -2 -9v-9v-17.5v-17.5v-8.5v-8.5q-2 -4 -2 -8v-8v-16.5v-16.5v-14v-12v-12.5t2 -10.5q4 -43 9.5 -83t7.5 -77q2 -18 3 -37.5t3 -37.5q0 -18 1 -36t3 -34q8 -94 20.5 -171t26.5 -136q16 -59 50 -96t87 -50v-2v0v-2v0q0 -2 -1 -4t-1 -4q-2 -2 -4 -3t-4 -3 q-4 -4 -10 -8t-17 -8q-6 -4 -13 -8.5t-15 -8.5l-8 -4t-9 -4q-6 0 -10 -2l-8 -4q-14 -4 -29.5 -9.5t-27.5 -9.5q-14 -4 -23.5 -6t-13.5 -2l-4 -4h-82h-4q-18 2 -33.5 29.5t-28.5 81.5q-12 55 -22.5 117.5t-20.5 132.5q-2 14 -4 28.5t-2 30.5q-2 14 -4 28.5t-4 28.5t-4 27.5 t-2 28.5q-2 12 -4 25l-4 26v3v3q-2 2 -2 4v4v4v4q-2 0 -2.5 2t-0.5 4q-2 4 -4 10.5t-2 14.5q-2 8 -3 17.5t-1 19.5q-2 10 -3 19.5t-3 19.5t-3 21.5t-1 23.5q0 4 -1 8t-1 8q-2 4 -3 8.5t-1 8.5q-2 -4 -3 -8.5t-3 -8.5t-3 -8t-3 -8q-14 -39 -33 -77t-39 -79 q-37 -74 -82 -144.5t-98 -137.5q-53 -68 -118 -120t-138 -87q-6 -2 -12.5 -5t-10.5 -8l-12 -4l-12 -4t-12.5 -4t-10.5 -4q-6 0 -12 -1t-13 -1q-12 -4 -24 -5t-25 -3q-12 -2 -23.5 -3t-21.5 -1l-82 -2q-49 2 -91 14t-77 39q-37 27 -56 69t-23 99q0 6 -1.5 12t-1.5 14v12.5 v12.5v12v15v12v12q0 66 2.5 124.5t8.5 107.5t12 91t12 79q4 25 9.5 47t9.5 43q4 18 8 35.5t6 31.5q8 35 14.5 68t8.5 59q4 29 6 52.5t2 44.5q0 23 -1 40t-5 31q-2 16 -4.5 28.5t-4.5 25.5q-2 10 -5 18t-7 14q-2 6 -3 12.5t-1 10.5v4v4l1 2t3 4t4 3t4 3q2 0 5.5 1t5.5 3l10 4 q4 0 8 1.5t8 3.5h82q45 -8 77 -19.5t50 -28.5q18 -14 27.5 -36.5t9.5 -51.5q0 -33 -9 -76.5t-28 -99.5q-18 -55 -37.5 -126.5t-42.5 -159.5h-82v2h82v0zM1112 1386l-190 203l-228 -186h-82l-32 65q8 4 15 9.5t15 11.5t16.5 12t16.5 12t16.5 13.5t16.5 15.5q10 6 19.5 14.5 t17.5 16.5q27 23 51 44t47 42q23 23 42 38t34 27q4 4 9 6.5t9 2.5h82h9t10 -2q16 -8 34.5 -30t40.5 -59q23 -37 68 -80.5t111 -95.5l-66 -80h-82v0v0z" />
<glyph unicode="&#xdc;" horiz-adv-x="1679" d="M453 709q-2 -4 -3 -9.5t-1 -11.5q-2 -6 -3.5 -13t-3.5 -16q-2 -8 -3 -15t-1 -15q-2 -8 -3 -16.5t-3 -18.5q-2 -8 -3 -15.5t-1 -15.5q-2 -8 -3 -15t-1 -13q-4 -31 -7 -60t-7 -57q-2 -27 -4.5 -43.5t-2.5 -22.5q4 -47 22.5 -88t51.5 -76q25 -27 55.5 -44t65.5 -23q2 2 3 2 h3q14 4 28.5 8t29.5 12q59 29 111 74t97 105q47 59 87 122.5t77 128.5q16 29 29.5 56.5t28.5 54.5q14 29 27.5 54.5t25.5 49.5q10 16 17 38t14 48q6 27 11 54.5t9 54.5q4 31 9 60.5t7 58.5q4 29 7.5 51.5t5.5 38.5h82h8h10q53 0 86 -18.5t47 -55.5q12 -37 19.5 -77t9.5 -85 v-9v-9q-2 -4 -2 -9v-9v-16.5v-16.5v-8.5v-8.5q-2 -4 -2 -8v-8v-16.5v-16.5v-14v-12v-12.5t2 -10.5q4 -43 9 -83t7 -79q4 -39 7 -73.5t5 -69.5q6 -94 17.5 -172t25.5 -137q16 -57 50 -94t88 -50q2 -4 0 -8t-6 -6q-6 -4 -12.5 -9t-14.5 -11q-4 -2 -8 -4.5t-8 -4.5 q-4 0 -8.5 -2t-8.5 -4l-16 -8t-17 -8q-14 -4 -29.5 -9.5t-27.5 -9.5q-14 -4 -23.5 -6t-13.5 -2l-4 -4h-82h-4q-18 2 -33.5 29.5t-27.5 81.5q-12 55 -22.5 117.5t-20.5 132.5q-2 14 -4.5 28.5t-2.5 30.5q-2 14 -4 28.5t-4 28.5t-4 27.5t-2 28.5q-2 12 -4 25l-4 26v3v3 q-2 2 -2 4v4v4v4q-2 0 -2 2v4q-2 4 -4 10.5t-2 14.5q-2 8 -3 17.5t-1 19.5q-2 10 -3 19.5t-4 19.5q-2 10 -3 21.5t-1 23.5q0 4 -1 8t-1 8q-2 4 -3 8.5t-1 8.5q-2 -4 -3 -8.5t-3 -8.5t-3 -8t-3 -8q-14 -39 -32.5 -77t-39.5 -79q-37 -74 -82 -144.5t-98 -137.5 q-53 -68 -117.5 -120t-138.5 -87q-8 -4 -16.5 -7.5t-16.5 -7.5q-8 -2 -15 -5t-15 -7q-16 -2 -33 -5t-33 -5q-14 -4 -29.5 -5t-31.5 -1l-82 -2q-47 2 -89 14t-77 39q-37 27 -56.5 69t-23.5 99q-2 14 -2 27.5v27.5v27.5v27.5q0 66 2 123.5t8 106.5t12.5 91t12.5 79q4 25 9 46 t9 40q4 18 8 34.5t6 30.5q8 35 14.5 66t8.5 57q4 29 6 52.5t2 43.5q0 23 -1 41.5t-5 32.5q-2 8 -3 15.5t-1 13.5q-2 6 -3 12t-3 12q-6 23 -9.5 36.5t-7.5 21.5q-2 8 5.5 14t21.5 12l10 2l13 5h81q45 -8 77 -19.5t50 -28.5q18 -14 27.5 -37.5t9.5 -52.5q0 -33 -9 -76.5 t-26 -99.5q-18 -55 -37.5 -126.5t-41.5 -157.5h-82v2h82v0zM983 1677l6 9q4 2 9.5 3t11.5 1h82h4h4q2 -2 5 -2h5q4 -2 9 -3.5t11 -1.5q4 -2 9.5 -4t11.5 -4q4 -2 9 -4t9 -4q10 -4 15.5 -9t7.5 -9l2 -4v-3v-190q0 -8 -2 -12t-6 -8q-4 -2 -10.5 -4.5t-12.5 -2.5h-82h-8t-8 2 q-4 0 -9 1.5t-9 3.5q-10 4 -19.5 8t-19.5 10q-8 6 -14.5 14.5t-10.5 16.5v196v0v0zM694 1677l8 11q4 2 10.5 3t14.5 1h82h4h4q2 -2 4 -2h4h4h5q2 -2 4 -2h4q4 -2 9 -3.5t11 -3.5q4 -2 9.5 -4t9.5 -6q10 -6 16 -12t8 -17v-190q0 -6 -2 -10t-6 -8q-2 -2 -7 -3t-11 -1h-82h-9.5 t-9.5 2q-6 0 -11 2t-9 4q-12 4 -21.5 9t-19.5 13q-8 8 -14.5 15.5t-8.5 15.5v2v4v180v0v0z" />
<glyph unicode="&#xdd;" horiz-adv-x="1562" d="M741 1553q6 4 11 12l10 16q2 4 4 9.5t6 11.5q2 4 4 9t4 9l4 8l2 9q6 16 12.5 28.5t14.5 24.5q6 10 16 16t25 6h82q10 0 19 -7t17 -19t12.5 -26.5t4.5 -31.5v-8v-8l-4 -12q-51 -76 -94 -125t-80 -74t-63.5 -36t-45.5 -11h-82h-14l-10 4h-2v2q-12 10 -9.5 19.5t19.5 19.5 q16 10 35.5 27.5t42.5 40.5q6 10 14 19t16 20q8 10 15.5 21t13.5 24v2v0zM580 14q-12 20 -35.5 75.5t-58.5 143.5q-37 90 -77 187.5t-85 202.5q-12 29 -24.5 56.5t-24.5 53.5q-12 29 -24.5 54.5t-24.5 52.5q-39 80 -77 148.5t-73 125.5q-37 59 -65.5 90t-55.5 35l-6 8l-2 10 q2 10 9 16.5t20 8.5q12 4 25.5 6t29.5 2h82h7h5q4 -2 7.5 -2h5.5h12h12q20 -2 40 -6t38 -8t30.5 -9t20.5 -10q41 -20 83 -94t87 -200q45 -129 97.5 -267.5t109.5 -287.5q12 -33 25.5 -67t27.5 -67q4 -8 7 -16l6 -16q4 -8 7 -16.5t5 -16.5q29 35 55.5 71.5t52.5 75.5 q39 55 75 110.5t69 113.5q53 90 94 179t74 175t49 161.5t16 139.5q0 16 -1 32.5t-5 30.5q-2 16 -6 29.5t-8 26.5q-6 16 -1 18t21 -8h82q16 -10 36.5 -26.5t41.5 -39.5l8 -8l8 -8q2 -6 6.5 -10t8.5 -8t8 -8.5t6 -8.5q4 -6 8 -10t6 -8q10 -12 16.5 -24.5t12.5 -24.5t9 -22.5 t3 -20.5l-2 -15l-4 -10q-205 -393 -369.5 -646t-287.5 -368q-123 -111 -184.5 -190.5t-61.5 -128.5q2 -2 6 -3t10 -3q18 2 40 3t46 5q23 2 44.5 5t43.5 5q25 4 47.5 6t47.5 6q4 2 7 3t7 1h8h8q37 6 74 11.5t72 9.5q35 6 64.5 9t54.5 5l81 -2q6 2 10.5 0t4.5 -8t-3 -12 t-9 -13q-6 -4 -12.5 -8t-14.5 -8t-18.5 -7t-22.5 -5l-741 -180q-4 0 -8.5 -1.5t-8.5 -1.5h-4t-4 -2h-6h-4l-82 -2h-4h-2l-22.5 7.5t-20.5 9.5q-8 6 -14.5 16t-6.5 23v8t2 8q0 4 2 9l4 10q59 59 114.5 113t107.5 104q47 47 72.5 74.5t27.5 41.5v0z" />
</font>
</defs>
</svg>
